#TITLE:7 Colors;
#SUBTITLE:;
#ARTIST:kors k feat. Yoshikawa JunHisashi;
#TITLETRANSLIT:;
#SUBTITLETRANSLIT:;
#ARTISTTRANSLIT:;
#GENRE:;
#CREDIT:;
#BANNER:;
#BACKGROUND:;
#LYRICSPATH:;
#CDTITLE:;
#MUSIC:7 Colors.ogg;
#OFFSET:-0.375000;
#SAMPLESTART:52.247002;
#SAMPLELENGTH:13.715000;
#SELECTABLE:YES;
#DISPLAYBPM:156.000000;
#BPMS:0.000000=156.000000
;
#STOPS:
;
#BGCHANGES:;
#KEYSOUNDS:;
#ATTACKS:;

//---------------dance-single - ----------------
#NOTES:
     dance-single:
     :
     Challenge:
     9:
     0.569875,0.681850,0.189958,0.149967,0.399912,399.000000,380.000000,19.000000,15.000000,0.000000,0.000000,0.569875,0.681850,0.189958,0.149967,0.399912,399.000000,380.000000,19.000000,15.000000,0.000000,0.000000:
0000
0000
0000
0000
,
0000
0000
0000
0000
,
0000
0000
0000
0000
,
0000
0000
0000
0000
,
0000
0000
0000
0000
0000
0000
0000
1001
,
1001
0001
0100
0010
1000
0100
0010
0100
,
1100
0000
1000
0000
0001
0000
0100
0000
0010
0000
1000
0000
0100
0010
0100
0010
,
0001
1000
0010
1000
0100
0010
0001
0100
,
0101
0000
0000
0110
0000
0000
2020
0000
0000
0000
0000
0000
3030
0000
0000
0000
,
1000
0000
0100
0010
0000
0100
1000
0000
0100
0010
0000
0100
1000
0000
0001
0000
,
1000
0000
0000
0010
0000
0000
1000
0000
0001
0000
0010
0001
0000
0010
0001
0000
,
1000
0000
0000
1000
0000
0000
0001
0000
0000
0001
0000
0000
1000
0000
0010
0000
,
0100
0001
0100
0001
1000
0000
0100
0000
0020
0000
0000
0000
0130
0010
0100
0010
,
0001
0000
0100
0010
0000
0100
0001
0000
0100
0010
0000
0100
0001
0000
1000
0000
,
0001
0000
0000
0010
0000
0000
0001
0000
1000
0000
0010
1000
0000
0010
1000
0000
,
0001
0000
0000
0001
0000
0000
1000
0000
0000
1000
0000
0000
0001
0000
0010
0000
,
0100
1000
0100
1000
0001
0000
1000
0001
1000
0001
0100
0000
0010
0000
1000
0000
,
0001
0000
0010
0000
0001
0000
1000
0010
0000
0000
0000
0000
0000
0000
1000
0000
,
0100
0000
0010
0000
0100
0000
1000
0001
0000
0000
0000
0000
0000
0000
0100
0000
,
0010
0000
0100
0000
0001
0000
1000
0100
0000
0000
0010
0000
0100
0000
1000
0000
,
0000
0010
0100
0000
0001
0000
0000
0000
,
1000
0000
0100
0000
1000
0000
0010
0100
0000
0000
0000
0000
0000
0000
0001
0000
,
0010
0000
0001
0000
0100
0000
0010
0100
0000
0000
0000
0000
0000
0000
0001
0000
,
1000
0100
0010
0100
1000
0000
0001
0100
,
0000
0000
0000
0000
0010
0100
0001
1000
,
0100
0000
0010
0010
0000
0011
0000
2002
,
0000
0000
3003
0001
0100
0001
0010
0001
,
1000
0000
0010
0010
0000
1010
0000
1001
,
0000
0001
1000
0100
0000
0000
0000
0010
,
0001
0100
0010
1000
0001
0000
0000
1000
,
0100
0000
0010
0000
0001
0000
1000
0100
0000
0000
0000
0000
1000
0000
0010
0000
,
0100
0000
0010
2000
0000
0100
0000
0200
,
0000
0000
0000
0000
0000
0000
0000
3300
,
1100
0000
0000
0000
0000
0000
1000
0100
,
0011
0000
0000
0000
0001
0000
0100
0010
0000
0000
0100
0000
0100
0000
0100
0000
,
0001
0000
1000
0000
0100
0010
0000
0100
0000
0000
0000
0000
1000
0000
0010
0000
,
0101
0000
0000
0000
0001
0000
0010
0100
0000
0000
0010
0000
0010
0000
0010
0000
,
0001
0000
1000
0000
0010
0000
0100
0010
0000
0000
0000
0000
1000
0000
0100
0000
,
0011
0000
0000
0000
0001
0000
0100
0010
0000
0000
0100
0000
0100
0000
0100
0000
,
0010
1000
0001
1000
0200
0000
0320
0000
,
0032
0000
0000
0000
0000
0000
1003
0001
,
0100
0000
0000
0010
0000
0000
0100
0000
0000
0000
0000
0000
0001
0000
0100
0000
,
1010
0000
0000
0000
1000
0100
0000
0010
0000
0000
0100
0000
0100
0000
0100
0000
,
1000
0000
0001
0000
0100
0000
0010
0100
0000
0000
0000
0000
0001
0000
0010
0000
,
1100
0000
0000
0000
1000
0000
0010
0100
0000
0000
0010
0000
0010
0000
0010
0000
,
1000
0000
0001
0000
0010
0000
0100
0010
0000
0000
0000
0000
0001
0000
0100
0000
,
1010
0000
0000
0000
1000
0000
0100
0010
0000
0000
0100
0000
0100
0000
0100
0000
,
0010
0001
1000
0001
0200
0000
0320
0000
,
2030
0000
0000
0000
0000
0000
3001
1000
,
0100
0000
0000
0010
0000
0000
0100
0000
0000
0000
0000
0000
1000
0000
0000
0000
,
0001
0000
0000
0101
0000
0000
0000
0000
1000
0000
0000
1100
0000
0000
0000
0000
,
0001
0000
0001
0000
1000
0000
1000
0000
0001
1000
0001
1000
0001
0000
0000
0000
,
1000
0000
0010
0100
0000
0010
1000
0000
0010
0100
0000
0010
1000
0000
0001
0000
,
1000
0000
0000
0100
0000
0000
1000
0000
0001
0000
0100
0001
0000
0100
0001
0000
,
1000
0000
0000
1000
0000
0000
0001
0000
0000
0001
0000
0000
1000
0000
0100
0000
,
0010
0001
0010
0001
1000
0000
0010
0000
0200
0000
0000
0000
0310
0100
0010
0100
,
0001
0000
0010
0100
0000
0010
0001
0000
0010
0100
0000
0010
0001
0000
1000
0000
,
0001
0000
0000
0100
0000
0000
0001
0000
1000
0000
0100
1000
0000
0100
1000
0000
,
0001
0000
0000
0001
0000
0000
1000
0000
0000
1000
0000
0000
0001
0000
0100
0000
,
0010
1000
0010
1000
0001
0000
1000
0001
1000
0001
0010
0000
0100
0000
1000
0000
,
0001
0100
0010
1000
,
0001
0000
0010
0000
0100
0000
0010
0000
0001
0000
1000
0010
0200
0000
0000
0000
,
0300
0000
0000
0000
;

//---------------dance-single - ----------------
#NOTES:
     dance-single:
     :
     Hard:
     8:
     0.509888,0.619864,0.189958,0.169963,0.329927,357.000000,338.000000,19.000000,17.000000,0.000000,0.000000,0.509888,0.619864,0.189958,0.169963,0.329927,357.000000,338.000000,19.000000,17.000000,0.000000,0.000000:
0000
0000
0000
0000
,
0000
0000
0000
0000
,
0000
0000
0000
0000
,
0000
0000
0000
0000
,
0000
0000
0000
0000
0000
0000
0000
0001
,
1001
1000
0010
1000
,
1100
0000
0000
0000
0100
0000
0000
0000
0010
0000
0000
0000
0001
0100
0001
0100
,
0010
1000
0100
0010
,
0011
0000
0000
0011
0000
0000
0022
0000
0000
0000
0000
0000
0033
0000
0000
0000
,
0001
0000
0000
0001
0000
0000
1000
0000
0000
1000
0000
0000
0010
0000
0100
0000
,
0001
0000
1000
0100
0000
0000
0010
0000
0100
0000
0000
0100
0000
0000
0100
0000
,
1000
0000
0000
1000
0000
0000
0001
0000
0000
0001
0000
0000
0100
0000
0010
0000
,
1000
0100
1000
0100
1000
0000
0001
0000
0010
0000
0000
0000
0001
0010
0001
0010
,
0001
0000
0000
0001
0000
0000
1000
0000
0000
1000
0000
0000
0100
0000
0010
0000
,
0001
0000
1000
0010
0000
0000
0100
0000
0010
0000
0000
0010
0000
0000
0010
0000
,
1000
0000
0000
1000
0000
0000
0001
0000
0000
0001
0000
0000
0010
0000
0100
0000
,
1000
0010
1000
0010
1000
0000
0001
0100
0001
0100
0001
0000
0100
0000
0010
0000
,
1000
0000
0001
0000
1000
0000
0010
1000
0000
0000
0000
0000
0000
0000
0001
0000
,
0010
0000
0001
0000
1000
0000
0001
0010
0000
0000
0000
0000
0000
0000
0100
0000
,
1000
0000
0001
0000
1000
0000
0100
1000
0000
0000
0001
0000
0100
0000
0001
0000
,
0000
1000
0100
0000
1100
0000
0000
0000
,
1000
0000
0001
0000
0010
0000
0000
0010
0000
0000
0000
0000
0000
0000
0001
0000
,
1000
0000
0010
0000
1000
0000
0000
1000
0000
0000
0000
0000
0000
0000
0001
0000
,
0100
0010
0100
0010
1000
0000
0100
0010
,
0000
0000
0000
0000
0001
0010
0100
1000
,
0100
0000
1000
0010
0000
1010
0000
2020
,
0000
0000
3030
0010
1000
0010
0100
0001
,
0100
0000
0001
0010
0000
0011
0000
0011
,
0000
0010
0100
1000
0000
0000
0000
0001
,
0100
0010
0100
0010
1000
0000
0000
0001
,
0010
0000
0100
0000
0010
0000
0100
1000
0000
0000
0000
0000
0001
0000
0010
0000
,
0001
0000
1000
0001
0000
2000
0000
0020
,
0000
0000
0000
0000
0000
0000
0000
3030
,
1010
0000
0000
0000
0000
0000
1000
0100
,
1100
0000
0000
0000
1000
0000
0000
0001
0000
0000
0010
0000
0001
0000
1000
0000
,
0001
0000
0100
0000
0010
0000
0000
1000
0000
0000
0000
0000
0001
0000
0100
0000
,
0101
0000
0000
0000
0001
0000
0000
1000
0000
0000
0010
0000
1000
0000
0001
0000
,
1000
0000
0100
0000
0010
0000
0000
0001
0000
0000
0000
0000
1000
0000
0100
0000
,
1100
0000
0000
0000
1000
0000
0000
0001
0000
0000
0010
0000
0001
0000
1000
0000
,
0001
0100
0010
1000
0200
0000
0320
0000
,
0032
0000
0000
0000
0000
0000
1003
0100
,
1000
0000
0000
0001
0000
0000
2002
0000
0000
0000
3003
0000
1000
0000
0010
0000
,
1010
0000
0000
0000
1000
0000
0000
0001
0000
0000
0100
0000
0001
0000
1000
0000
,
0001
0000
0010
0000
0100
0000
0000
1000
0000
0000
0000
0000
0001
0000
0010
0000
,
0011
0000
0000
0000
0001
0000
0000
1000
0000
0000
0100
0000
1000
0000
0001
0000
,
1000
0000
0010
0000
0100
0000
0000
0001
0000
0000
0000
0000
1000
0000
0010
0000
,
1010
0000
0000
0000
1000
0000
0000
0001
0000
0000
0010
0000
0001
0000
1000
0000
,
0001
0010
0100
1000
0020
0000
0230
0000
,
0302
0000
0000
0000
0000
0000
1003
0100
,
1000
0000
0000
0001
0000
0000
2002
0000
0000
0000
0000
0000
3003
0000
0000
0000
,
1000
0000
0000
0100
0010
0000
0000
0000
0001
0000
0000
0100
0010
0000
0000
0000
,
1000
0000
0100
0000
0010
0000
0001
0000
1000
0100
0010
0001
1000
0000
0000
0000
,
0001
0000
0000
0001
0000
0000
1000
0000
0000
1000
0000
0000
0100
0000
0010
0000
,
0001
0000
1000
0010
0000
0000
0100
0000
0010
0000
0000
0010
0000
0000
0010
0000
,
1000
0000
0000
1000
0000
0000
0001
0000
0000
0001
0000
0000
0010
0000
0100
0000
,
1000
0010
1000
0010
1000
0000
0001
0000
0100
0000
0000
0000
0001
0100
0001
0100
,
0001
0000
0000
0001
0000
0000
1000
0000
0000
1000
0000
0000
0010
0000
0100
0000
,
0001
0000
1000
0100
0000
0000
0010
0000
0100
0000
0000
0100
0000
0000
0100
0000
,
1000
0000
0000
1000
0000
0000
0001
0000
0000
0001
0000
0000
0100
0000
0010
0000
,
1000
0100
1000
0100
1000
0000
0001
0010
0001
0010
0001
0000
0010
0000
0100
0000
,
1000
0001
0010
0001
,
1000
0000
0010
0000
1000
0000
0100
0000
0010
0000
0100
1000
0200
0000
0000
0000
,
0300
0000
0000
0000
;

//---------------dance-single - ----------------
#NOTES:
     dance-single:
     :
     Medium:
     7:
     0.371347,0.433905,0.049989,0.129971,0.084981,260.000000,255.000000,5.000000,13.000000,0.000000,0.000000,0.371347,0.433905,0.049989,0.129971,0.084981,260.000000,255.000000,5.000000,13.000000,0.000000,0.000000:
// measure 0
0000
0000
0000
0000
,  // measure 1
0000
0000
0000
0000
,  // measure 2
0000
0000
0000
0000
,  // measure 3
0000
0000
0000
0000
,  // measure 4
0000
0000
0000
0000
0000
0000
0000
0001
,  // measure 5
1000
0010
1000
0010
,  // measure 6
1010
0000
0000
0000
1000
0000
0000
0000
0001
0000
0000
0000
0010
0001
0010
0001
,  // measure 7
0010
0100
1000
0001
,  // measure 8
0100
0000
0000
0100
0000
0000
0200
0000
0000
0000
0000
0000
0300
0000
0000
0000
,  // measure 9
0001
0010
0001
0100
,  // measure 10
0010
0000
0000
0010
0000
0000
0000
0000
1000
0000
0000
0000
0100
0000
0000
0000
,  // measure 11
1000
0010
1000
0100
,  // measure 12
0010
0001
1000
0001
0010
0000
0000
0000
,  // measure 13
0001
0100
0001
0010
,  // measure 14
0100
0000
0000
0100
0000
0000
0000
0000
1000
0000
0000
0000
0010
0000
0000
0000
,  // measure 15
1000
0100
1000
0010
,  // measure 16
1000
0100
0000
1000
0100
0000
1000
0010
,  // measure 17
1000
0000
0000
0000
0100
0000
0000
0100
0000
0000
0000
0000
0000
0000
1000
0000
,  // measure 18
0001
0000
0000
0000
0100
0000
0000
0100
0000
0000
0000
0000
0000
0000
0001
0000
,  // measure 19
1000
0000
0100
0000
0010
0000
0001
0100
,  // measure 20
0000
0001
0100
0000
0001
0000
0000
0000
,  // measure 21
1000
0000
0000
0000
0010
0000
0000
0010
0000
0000
0000
0000
0000
0000
1000
0000
,  // measure 22
0001
0000
0000
0000
0010
0000
0000
0010
0000
0000
0000
0000
0000
0000
0001
0000
,  // measure 23
1000
0000
0010
0100
0010
0000
0100
0200
,  // measure 24
0000
0000
0000
0000
0301
0010
0001
0010
,  // measure 25
0001
0000
1000
0010
0000
1000
0000
0010
,  // measure 26
0000
0000
0000
0000
1000
0100
1000
0100
,  // measure 27
1000
0000
0001
0010
0000
0001
0000
0100
,  // measure 28
0000
0001
0010
0001
0000
0000
0000
0000
,  // measure 29
1000
0100
0010
0100
1000
0000
0000
0000
,  // measure 30
0001
0000
0100
0000
0010
0000
0100
0001
0000
0000
0000
0000
1000
0000
0100
0000
,  // measure 31
1000
0000
0100
0010
0000
0110
0000
0022
,  // measure 32
0000
0000
0000
0033
,  // measure 33
0011
0000
0000
0000
0000
0000
0001
0010
,  // measure 34
0100
1000
0010
1000
,  // measure 35
0100
0010
0100
0010
0001
0000
1000
0010
,  // measure 36
0100
0010
1000
0001
,  // measure 37
1000
0100
1000
0100
0010
0000
0001
0100
,  // measure 38
0010
1000
0001
0010
,  // measure 39
0001
1000
0100
1000
0002
0000
0203
0000
,  // measure 40
0320
0000
0000
0030
,  // measure 41
1000
0000
0000
0100
0000
0000
0010
0000
0000
0000
0000
0000
0001
0000
0100
0000
,  // measure 42
0010
1000
0100
1000
,  // measure 43
0010
0100
0010
0100
0001
0000
1000
0100
,  // measure 44
0010
0100
1000
0001
,  // measure 45
1000
0010
1000
0010
0100
0000
0001
0010
,  // measure 46
0100
1000
0001
0100
,  // measure 47
0001
1000
0010
1000
0002
0000
0023
0000
,  // measure 48
0230
0000
0000
0000
,  // measure 49
1300
0000
0000
0010
0000
0000
0100
0000
0000
0000
0000
0000
0000
0000
0000
0000
,  // measure 50
0001
0000
0000
0001
0000
0000
0000
0000
1000
0000
0000
1000
0000
0000
0000
0000
,  // measure 51
0001
0001
1000
1000
2002
0000
3003
0000
,  // measure 52
1000
0100
1000
0010
,  // measure 53
0100
0000
0000
0100
0000
0000
0000
0000
0001
0000
0000
0000
0010
0000
0000
0000
,  // measure 54
0001
0100
0001
0010
,  // measure 55
0100
1000
0001
1000
0100
0000
0000
0000
,  // measure 56
1000
0010
1000
0100
,  // measure 57
0010
0000
0000
0010
0000
0000
0000
0000
0001
0000
0000
0000
0100
0000
0000
0000
,  // measure 58
0001
0010
0001
0100
,  // measure 59
0001
0010
0000
0001
0010
0000
0001
0100
,  // measure 60
0001
0001
1000
1000
,  // measure 61
0010
0000
0100
0000
0010
0000
0100
0000
0001
0000
1000
0100
2000
0000
0000
0000
,  // measure 62
3000
0000
0000
0000
;

//---------------dance-single - ----------------
#NOTES:
     dance-single:
     :
     Easy:
     5:
     0.304219,0.402911,0.239947,0.069985,0.004999,213.000000,189.000000,24.000000,7.000000,0.000000,0.000000,0.304219,0.402911,0.239947,0.069985,0.004999,213.000000,189.000000,24.000000,7.000000,0.000000,0.000000:
// measure 0
0000
0000
0000
0000
,  // measure 1
0000
0000
0000
0000
,  // measure 2
0000
0000
0000
0000
,  // measure 3
0000
0000
0000
0000
,  // measure 4
0000
0000
0000
0000
,  // measure 5
1001
0000
0000
0000
,  // measure 6
0110
0000
0000
0000
,  // measure 7
1001
0000
0000
0000
,  // measure 8
0001
0000
0000
0001
0000
0000
0001
0000
0000
0000
0000
0000
0000
0000
0000
0000
,  // measure 9
1000
0100
0010
0001
,  // measure 10
1000
1001
0001
0100
,  // measure 11
0010
1000
0001
1000
,  // measure 12
0100
0000
0000
0100
0000
0000
0100
0000
,  // measure 13
1000
0010
0100
0001
,  // measure 14
1000
1001
0001
0010
,  // measure 15
0100
1000
0001
1000
,  // measure 16
0010
0000
0000
0010
0000
0000
0010
0000
,  // measure 17
1000
0100
1000
0000
,  // measure 18
0001
0100
0001
0000
,  // measure 19
1000
0000
0010
0000
,  // measure 20
1000
0000
0100
0000
,  // measure 21
1000
0010
1000
0000
,  // measure 22
0001
0010
0001
0000
,  // measure 23
1000
0000
0010
0000
,  // measure 24
0100
0000
0010
0000
,  // measure 25
1000
0000
0000
0001
0000
1000
0000
0001
,  // measure 26
0000
0000
1100
0101
,  // measure 27
1100
0000
0000
1000
0000
0010
0000
1000
,  // measure 28
0000
0001
0000
0010
0000
0000
0000
0000
,  // measure 29
0001
0100
0101
0000
,  // measure 30
1000
0100
1100
0000
,  // measure 31
0001
0000
0000
0100
0000
0010
0000
0200
,  // measure 32
0000
0000
0000
0000
,  // measure 33
0301
0000
0000
0000
0000
0000
0001
0010
,  // measure 34
0001
1000
0010
1000
,  // measure 35
0100
1000
0100
0000
1000
0000
0010
1000
,  // measure 36
0010
1000
0001
0010
,  // measure 37
0001
0000
1000
0000
0010
0000
1000
0100
,  // measure 38
1000
0001
0100
0001
,  // measure 39
0010
0001
0010
0000
0011
0000
1001
0000
,  // measure 40
0202
0000
0000
0303
,  // measure 41
0100
0000
0000
0100
0000
0000
0001
0100
,  // measure 42
0001
1000
0100
1000
,  // measure 43
0010
1000
0010
0000
1000
0000
0100
1000
,  // measure 44
0100
1000
0001
0100
,  // measure 45
0001
0000
1000
0000
0100
0000
1000
0010
,  // measure 46
1000
0001
0010
0001
,  // measure 47
0100
0001
0100
0000
0101
0000
1001
0000
,  // measure 48
0022
0000
0000
0033
,  // measure 49
0010
0000
0000
0010
0000
0000
0000
0000
,  // measure 50
0011
0000
1001
0000
,  // measure 51
0101
1001
0011
0000
,  // measure 52
0001
0010
0100
1000
,  // measure 53
0001
1001
1000
0010
,  // measure 54
0100
0001
1000
0001
,  // measure 55
0010
0000
0000
0010
0000
0000
0010
0000
,  // measure 56
0001
0100
0010
1000
,  // measure 57
0001
1001
1000
0100
,  // measure 58
0010
0001
1000
0001
,  // measure 59
0100
0000
0000
0100
0000
0000
0100
0000
,  // measure 60
0010
0000
1000
0000
,  // measure 61
0100
0010
0100
0010
0001
1000
2002
0000
,  // measure 62
3003
0000
0000
0000
;
