#TITLE:24/7 Popperz;
#SUBTITLE:;
#ARTIST:Power of Nature;
#TITLETRANSLIT:;
#SUBTITLETRANSLIT:;
#ARTISTTRANSLIT:;
#GENRE:;
#CREDIT:;
#BANNER:[Playing With Numbers] - 24-7 Popperz.png;
#BACKGROUND:[Playing With Numbers] - 24-7 Popperz-bg.png;
#LYRICSPATH:;
#CDTITLE:;
#MUSIC:[Playing With Numbers] - 24-7 Popperz.ogg;
#OFFSET:-0.260000;
#SAMPLESTART:85.808167;
#SAMPLELENGTH:14.999995;
#SELECTABLE:YES;
#DISPLAYBPM:202.000000;
#BPMS:0.000000=202.000000
,344.000000=200.000000
,356.000000=201.000000
,360.000000=202.000000
;
#STOPS:
;
#BGCHANGES:;
#KEYSOUNDS:;
#ATTACKS:;

//---------------dance-single - ----------------
#NOTES:
     dance-single:
     :
     Hard:
     10:
     0.898155,1.220434,0.452013,0.164368,0.846496,765.000000,710.000000,55.000000,20.000000,0.000000,0.000000,0.898155,1.220434,0.452013,0.164368,0.846496,765.000000,710.000000,55.000000,20.000000,0.000000,0.000000:
0000
0000
0000
0000
,
0000
0000
0000
0000
,
0000
0000
0000
0000
,
0000
0000
0000
0000
,
1001
0000
0000
0000
0000
0110
0000
0000
,
1001
0000
0000
0000
0000
0110
0000
0000
,
1001
0000
0000
0000
0000
0110
0000
0000
,
1100
0101
0011
1010
,
1000
0100
0010
0100
1000
0100
0001
0100
,
1000
0010
0100
0001
1000
0010
0001
0010
,
1000
0010
0100
0001
0010
1000
0010
0001
,
1000
0010
0100
0001
0000
0010
0001
0100
,
0001
0010
0100
1000
0001
0100
1000
0100
,
0001
1000
0010
0100
0000
0100
0001
0010
,
0001
1000
0010
0100
0001
0100
1000
0100
,
0010
0010
0010
0010
0000
0000
0000
0000
,
1000
0000
0001
0000
1000
0000
0100
0000
0010
0000
0001
0000
1000
0000
0100
0000
0010
0000
0001
0000
0000
1000
0000
0000
,
2002
0000
3003
0000
,
0001
0000
1000
0000
0001
0000
0100
0000
0010
0000
1000
0000
0001
0000
0100
0000
0010
0000
1000
0000
0000
0001
0000
0000
,
2002
0000
3003
0000
,
0010
0000
1000
0000
0100
0000
0010
0000
0001
0000
1000
0000
0001
0000
0100
0000
0010
0000
0100
0000
0000
0010
0000
0000
,
0220
0000
0330
0000
,
0010
0000
1000
0000
0100
0000
0010
0000
0001
0000
0010
0000
0100
0000
1000
0000
0010
0000
0100
0000
0000
0001
0000
0000
,
1010
0011
1100
0101
,
1000
0000
0001
0000
0100
0000
0010
0000
1000
0000
0001
0000
0010
0000
0100
0000
1000
0000
0010
0000
0000
0100
0000
0000
,
0001
0010
0100
0000
1000
0000
0010
0000
0100
0000
0000
0000
1001
0000
0000
0000
,
0001
0000
1000
0000
0100
0000
0010
0000
0001
0000
1000
0000
0100
0000
0010
0000
0001
0000
0100
0000
0000
0010
0000
0000
,
1000
0010
0100
0000
0001
0000
0010
0000
0100
0000
0000
0000
1001
0000
0000
0000
,
1000
0000
0010
0000
1000
0000
0100
0000
0010
0000
0001
0000
1000
0000
0100
0000
0010
0000
0001
0000
0000
1000
0000
0000
,
0100
1000
0010
0000
0100
0000
0001
0000
1000
0000
0000
0000
1001
0000
0000
0000
,
1000
0000
0010
0000
0100
0000
0001
0000
0100
0000
0001
0000
0010
0000
0001
0000
0100
0000
0010
0000
0000
1000
0000
0000
,
0001
0100
0010
0000
1000
0000
0001
0000
0100
0000
0000
0000
1001
0000
0000
0000
,
1000
0010
0100
0000
0001
0000
0010
0000
0100
0000
1000
0010
0100
0000
0010
0000
,
1000
0000
0100
0000
0010
0000
0001
0000
0010
0000
0100
1000
0010
0000
0100
0000
,
0001
0000
0010
0000
0100
0000
0010
0000
0001
0000
1000
0010
0100
0000
0010
0000
,
1000
0000
0001
0000
1000
0000
0100
0000
0010
0000
0001
1000
0100
0000
1000
0000
,
0010
0000
0100
0000
0001
0000
1000
0000
0100
0000
1000
0010
0100
0000
0001
0000
,
0010
0000
0100
0000
0010
0000
0001
0000
1000
0000
0010
1000
0100
0000
1000
0000
,
0010
0100
0001
0000
1000
0000
0100
1000
0010
0000
0100
0000
0001
0000
1000
0100
,
0010
0000
0010
0000
0010
0000
0010
0000
0001
0100
0010
1000
0001
0100
0010
1000
,
0100
1100
0100
0101
,
0001
0011
0010
1010
,
1000
1100
0100
0110
,
0010
0000
0000
0011
0000
0000
0001
1000
0010
0100
0001
1000
,
0100
0000
0100
1000
0000
1000
0010
0000
0010
0100
0000
0100
,
0001
0000
0001
0010
0000
0010
0001
0000
0001
0100
0000
0100
,
0010
0000
0010
1000
0000
1000
0100
0000
0100
1000
0000
1000
,
0010
0100
0001
0010
0100
1000
0001
0010
0100
1000
0010
0100
,
0001
0000
1000
0100
0000
0000
0001
0000
1000
0100
0000
0000
,
0001
0000
1000
0100
0000
0000
0001
0000
1000
0100
0000
1000
,
0020
0000
0000
0230
0000
0000
0302
0000
,
0000
0013
0100
1000
0010
0100
1000
0100
,
0020
0000
0000
2030
0000
0000
3200
0000
,
0000
0310
0001
0100
0010
0001
0010
0100
,
0002
0000
0000
0023
0000
0000
0230
0000
,
0000
1300
0010
0100
1000
0100
0010
1000
,
0002
0000
0000
0013
0000
0000
1001
0000
0000
0000
0000
1000
,
0010
0100
0001
0010
0100
0010
0001
0100
0010
1000
0100
0010
,
0001
1000
0100
0000
1000
0000
0010
1000
0100
0000
0010
0000
0011
0000
0000
0000
,
0001
0000
1000
0100
0010
0000
0001
0000
0100
0000
0010
0000
1000
0000
0001
0000
,
1000
0010
0100
0000
0010
0000
1000
0001
0010
0000
0100
0000
1100
0000
0000
0000
,
1000
0000
0001
0100
0010
0000
0100
0000
0001
0000
0010
0000
0100
0000
1000
0000
,
0001
1000
0010
0000
0100
0000
0001
1000
0100
0000
0010
0000
0011
0000
0000
0000
,
0001
0000
1000
0010
0100
0000
0010
0000
1000
0000
0100
0000
0010
0000
0001
0000
,
1000
0100
1000
0100
1000
0100
1000
0100
1000
0000
0011
0000
0000
0000
0000
0000
,
0001
0010
0001
0010
0001
0010
0001
0010
0001
0000
1100
0000
0000
0000
0000
0000
,
1000
0010
1000
0010
1000
0010
1000
0010
1000
0000
0101
0000
0000
0000
0000
0000
,
0001
0100
0001
0100
0001
0100
0001
0100
0001
0000
1010
0000
0000
0000
0000
0000
,
1001
0000
0000
0000
,
0000
0000
0000
0000
,
0000
0000
0000
0000
,
0000
0000
0000
0000
0000
1001
1001
0000
,
1000
0000
0001
1000
0100
0000
1000
0001
0100
0000
0001
0010
0100
0000
1000
0100
,
0010
0000
0001
0000
1000
0001
0100
0000
0010
1000
0100
0000
0010
0000
0001
0000
,
1000
0010
0001
0010
1000
0100
0001
0100
,
1000
0010
1000
0000
0010
0100
0010
0000
0100
0010
0100
0000
0001
0100
0001
0000
,
1000
0001
0100
0010
1000
0001
0100
0010
1000
0100
0010
0001
,
1000
0010
0001
0010
0100
0010
0001
0010
,
1000
0000
0001
0100
0010
0000
1000
0000
0100
1000
0010
0000
0100
0001
1000
0000
,
0100
0010
0100
0010
0100
0010
0100
0010
0100
0000
0000
0000
0000
0000
0000
0000
,
1010
0000
0011
0000
,
1100
0110
0011
1001
,
1000
0100
0001
0100
0010
0100
0001
0100
,
1000
0010
1000
0000
0010
0100
0010
0000
0100
0010
0100
0000
0001
0100
0001
0000
,
1000
0010
0100
0001
0010
0100
0010
0001
0100
0010
1000
0100
,
0010
0001
0010
1000
0010
0001
0100
0010
,
1000
0001
0100
0010
1000
0100
0010
0100
1000
0010
0100
0001
0010
0100
0010
0001
,
1000
0100
0010
0100
1000
0100
0010
0100
1000
0000
0000
0000
0001
0010
0100
0010
,
0001
0010
0100
0010
0001
0000
0000
0000
1010
0000
0000
0000
0101
0000
0000
0000
,
0001
0100
0010
0100
0001
0100
0010
0100
0001
0000
0000
0000
1000
0010
0100
0010
,
1000
0010
0100
0010
1000
0000
0000
0000
0011
0000
0000
0000
1100
0000
0000
0000
,
2000
0000
3020
0000
,
0230
0000
0302
0000
,
1003
1010
0011
1001
,
0001
0101
1100
1001
,
1000
0000
0001
0100
0000
0010
1000
0000
0001
0010
0000
0100
,
1000
0000
0010
0100
0000
0001
1000
0000
0100
0010
0000
0001
,
0100
0000
1000
0100
0000
0010
1000
0000
0100
0001
0000
0100
,
0010
0000
0001
1000
0000
0010
0001
0000
1000
0100
0000
0010
,
1000
0000
0000
0000
;

//---------------dance-single - ----------------
#NOTES:
     dance-single:
     :
     Medium:
     9:
     0.723220,0.813623,0.353392,0.221897,0.349283,616.000000,573.000000,43.000000,27.000000,0.000000,0.000000,0.723220,0.813623,0.353392,0.221897,0.349283,616.000000,573.000000,43.000000,27.000000,0.000000,0.000000:
0000
0000
0000
0000
,
0000
0000
0000
0000
,
0000
0000
0000
0000
,
0000
0000
0000
0000
,
1001
0000
0000
0000
0000
0110
0000
0000
,
1001
0000
0000
0000
0000
0110
0000
0000
,
1001
0000
0000
0000
0000
0110
0000
0000
,
1001
0110
1001
0110
,
1000
0001
0100
0001
0010
0100
0010
0001
,
0010
0001
0100
0010
0100
0001
0010
0100
,
1000
0100
0010
0100
1000
0010
0100
0010
,
1000
0100
0010
0001
0000
0001
0100
0010
,
0100
0001
0010
0100
0010
0001
0100
0010
,
1000
0100
0010
0100
0000
0100
1000
0010
,
0100
0001
0010
0100
0010
0001
0100
0001
,
0100
0010
1000
0100
0000
0000
0000
0000
,
1000
0000
1000
0001
0000
0001
0100
0010
0100
0010
0000
0000
,
2002
0000
3003
0000
,
0001
0000
0001
1000
0000
1000
0010
0100
0010
0100
0000
0000
,
2002
0000
3003
0000
,
0010
0000
0010
0100
0000
0100
0001
1000
0001
1000
0000
0000
,
0220
0000
0330
0000
,
0100
0000
0100
0010
0000
0010
1000
0001
1000
0001
0000
0000
,
1100
0101
0011
1010
,
1000
0000
1000
0010
0000
0010
0100
0001
0100
0001
0000
0000
,
1000
0100
0010
0001
0100
0000
0110
0000
,
0001
0000
0001
0100
0000
0100
0010
1000
0010
1000
0000
0000
,
0001
0010
0100
1000
0010
0000
0110
0000
,
0001
0000
0001
1000
0000
1000
0100
0010
0100
0010
0000
0000
,
0001
0100
0010
1000
0100
0000
0110
0000
,
1000
0000
1000
0001
0000
0001
0100
0010
0100
0010
0000
0000
,
1000
0010
0100
0001
0010
0000
0110
0000
,
2000
0000
3010
0100
0001
0010
0100
0020
,
0000
0031
0100
0010
1000
0100
0010
0200
,
0000
1300
0010
0100
0010
1000
0001
0020
,
0000
0130
0010
0001
0100
0010
1000
0002
,
0000
0103
1000
0100
0010
1000
0001
0020
,
0000
1030
0010
0001
0100
0010
1000
0010
,
0200
0000
0301
0020
0000
0130
1000
0010
,
0100
0100
0100
0100
0100
0100
0100
0100
,
0001
0101
0001
1001
,
1000
1100
1000
1001
,
0001
0011
0010
0110
,
0100
0000
0000
1100
0000
0000
1000
0010
0100
0001
0010
0001
,
0010
0000
0010
0001
0000
0001
0100
0000
0100
0010
0000
0010
,
1000
0000
1000
0010
0000
0010
0100
0000
0100
0001
0000
0001
,
1000
0000
1000
0010
0000
0010
1000
0000
1000
0100
0000
0100
,
1000
0001
1000
0001
0000
0100
0010
0100
0010
0100
0000
0001
,
1000
0100
0001
0010
,
1000
0100
0001
0010
,
2000
0000
0000
3020
0000
0000
0230
0000
,
0000
0301
0010
0100
0010
0001
0100
0010
,
2000
0000
0000
3020
0000
0000
0230
0000
,
0000
0310
1000
0001
0010
0100
0010
0001
,
2000
0000
0000
3020
0000
0000
2030
0000
,
0000
3100
0010
0001
0010
0100
0010
0001
,
0100
0000
0000
0010
0000
0000
0110
0000
0000
0000
0000
0001
,
1000
0000
0001
1000
0000
0001
1000
0001
1000
0001
1000
0001
,
1000
0100
0010
0001
0010
0100
0010
0000
,
0010
0001
0100
1000
0100
0001
0010
0100
,
1000
0010
0100
0001
0010
0100
1000
0000
,
1000
0010
0001
0010
1000
0100
0001
0100
,
0010
0001
0100
0010
1000
0100
0010
0000
,
0010
0001
0100
1000
0100
0010
1000
0001
,
1000
1000
1000
1000
1000
1100
0000
0000
,
0001
0001
0001
0001
0001
0101
0000
0000
,
1000
1000
1000
1000
1000
1010
0000
0000
,
0001
0001
0001
0001
0001
0011
0000
0000
,
1001
0000
0000
0000
,
0000
0000
0000
0000
,
0000
0000
0000
0000
,
0000
0000
0000
0000
0000
0010
0010
0000
,
1000
0100
0010
0001
0100
0010
0100
0001
,
0010
0100
1000
0010
0100
0010
1000
0001
,
1000
0100
0001
0100
1000
0010
0001
0010
,
1000
1010
0011
1001
,
0001
0100
1000
0100
1000
0100
1000
0100
,
0001
0010
1000
0010
1000
0010
1000
0010
,
0001
0001
0100
0100
0010
0010
1000
1000
,
0100
0100
0100
0100
0110
0000
0000
0000
,
1000
0000
0001
0000
,
1000
0010
0100
0001
,
1000
0010
0001
0010
1000
0100
0001
0100
,
1000
0011
1010
1001
,
1000
0010
0001
0010
0001
0010
0001
0010
,
1000
0100
0001
0100
0001
0100
0001
0100
,
1000
1000
0010
0010
0100
0100
0001
0001
,
1000
0100
1000
0000
0100
1000
0100
0000
1000
0000
0000
0000
0001
0010
0001
0000
,
0010
0001
0010
0000
0001
0000
0000
0000
0100
0000
0000
0000
0110
0000
0000
0000
,
1000
0010
1000
0000
0010
1000
0010
0000
1000
0000
0000
0000
0001
0100
0001
0000
,
0100
0001
0100
0000
0001
0000
0000
0000
0010
0000
0000
0000
0110
0000
0000
0000
,
2000
0000
3020
0000
,
0230
0000
0302
0000
,
1003
1000
0010
0010
,
0100
0100
0001
0001
,
1000
0000
1000
0001
0000
0001
0100
0000
0100
0010
0000
0010
,
0100
0000
0100
0001
0000
0001
1000
0000
1000
0010
0000
0010
,
1000
0000
0010
0100
0000
0001
0010
0000
0100
1000
0000
0001
,
0100
0000
0010
1000
0000
0001
0100
0000
0010
1000
0000
0001
,
1000
0000
0000
0000
;

//---------------dance-single - ----------------
#NOTES:
     dance-single:
     :
     Easy:
     7:
     0.446142,0.610217,0.262989,0.131495,0.000000,380.000000,348.000000,32.000000,16.000000,0.000000,0.000000,0.446142,0.610217,0.262989,0.131495,0.000000,380.000000,348.000000,32.000000,16.000000,0.000000,0.000000:
0000
0000
0000
0000
,
0000
0000
0000
0000
,
0000
0000
0000
0000
,
0000
0000
0000
0000
,
1000
0000
0000
0000
0000
0001
0000
0000
,
1000
0000
0000
0000
0000
0001
0000
0000
,
1000
0000
0000
0000
0000
0001
0000
0000
,
1000
0010
0100
0001
,
1000
0010
0100
0010
,
1000
0001
0010
0100
,
0010
0001
0100
0010
,
0100
0100
0000
0110
,
0010
1000
0001
0010
,
0100
0010
0000
1001
,
0001
1000
0010
0100
,
0001
1000
0000
0000
,
2002
0000
0000
3003
,
0110
0000
0000
0000
,
2002
0000
0000
3003
,
0110
0000
0000
0000
,
2002
0000
0000
3003
,
0110
0000
0000
0000
,
2002
0000
0000
3003
,
0110
0010
0100
0110
,
1000
0001
0010
0100
,
1000
0010
1000
0000
0010
0000
0100
0000
,
0001
0010
0100
0010
,
0001
0100
0001
0000
0100
0000
0010
0000
,
1000
0010
0100
0010
,
1000
0100
1000
0000
0010
0000
0100
0000
,
0001
0010
0100
1000
,
0010
1000
0010
0000
1000
0000
0001
0000
,
0100
0000
0010
0000
1000
0100
1000
0000
,
0010
0000
0100
0000
0010
1000
0010
0000
,
1000
0000
0001
0000
0010
0001
0010
0000
,
0001
0000
0100
0000
0010
0100
0010
0000
,
1000
0000
0010
0000
0100
0010
0100
0000
,
0001
0000
0010
0000
0100
1000
0100
0000
,
1000
0000
0010
0100
0000
0010
0100
0000
,
0001
1000
0001
1000
0001
0000
0100
0000
,
0110
0010
0100
0010
,
0110
0010
0100
0010
,
1001
1000
0001
1000
,
1001
1000
0001
0100
,
0010
0110
0010
0110
,
0010
0110
0010
0110
,
1000
1001
1000
1001
,
1000
1001
1000
1001
,
1000
0001
1000
0001
,
0100
0010
0100
0010
,
2000
0000
0000
0000
,
0000
0000
0000
0000
,
3002
0000
0000
0000
,
0000
0000
0000
0000
,
0203
0000
0000
0000
,
0000
0000
0000
0000
,
0320
0000
0000
0000
,
0030
0000
0000
0000
,
1000
0010
0100
0001
,
0010
0000
0110
0000
0100
1000
0100
0000
,
1000
0010
0100
0001
,
1000
0000
1010
0000
0010
0100
0010
0000
,
0100
0001
0010
0100
,
0010
0000
0011
0000
0001
0100
0001
0000
,
1000
0100
1000
0000
0100
1000
0000
0000
,
0001
0100
0001
0000
0100
0001
0000
0000
,
1000
0010
1000
0000
0010
1000
0000
0000
,
0001
0010
0001
0000
0010
0001
0000
0000
,
1001
0000
0000
0000
,
0000
0000
0000
0000
,
0000
0000
0000
0000
,
0000
0000
0000
0000
0000
1000
0001
0000
,
1000
0000
0010
0000
0100
0001
0100
0000
,
0010
0000
1000
0000
0100
1000
0100
0000
,
0010
0010
0100
1001
,
1000
0001
1000
0001
1000
0000
0110
0000
,
0100
0000
0001
0000
0010
0001
0010
0000
,
0100
0000
1000
0000
0010
1000
0010
0000
,
0100
0010
0100
0010
0100
0010
0100
0000
,
0010
0100
0010
0100
0010
0000
0000
0000
,
1000
0000
0001
0000
,
1000
0010
0100
0001
,
0100
0100
0010
0110
,
0001
1000
0001
1000
0001
0000
0110
0000
,
0100
0000
0010
0000
1000
0100
1000
0000
,
0001
0000
0100
0000
0010
0100
0010
0000
,
1000
0001
1000
0001
1000
0001
1000
0000
,
0010
1000
0010
1000
0010
0000
0100
0001
,
0100
0001
0100
0000
0010
0000
0100
0000
,
0001
0010
0001
0010
0001
0000
1000
0010
,
1000
0010
1000
0000
0010
0000
0100
0000
,
0002
0000
0203
0000
,
0320
0000
2030
0000
,
3100
0100
0010
0010
,
0001
0001
1000
1000
,
0010
1000
0001
0010
,
0100
0010
0001
1000
,
0010
0100
0001
0010
,
0100
1000
0010
0100
,
1001
0000
0000
0000
;

//---------------dance-single - ----------------
#NOTES:
     dance-single:
     :
     Beginner:
     3:
     0.225419,0.325449,0.098621,0.000000,0.000000,192.000000,180.000000,12.000000,0.000000,0.000000,0.000000,0.225419,0.325449,0.098621,0.000000,0.000000,192.000000,180.000000,12.000000,0.000000,0.000000,0.000000:
// measure 0
0000
0000
0000
0000
,  // measure 1
0000
0000
0000
0000
,  // measure 2
0000
0000
0000
0000
,  // measure 3
0000
0000
0000
0000
,  // measure 4
1000
0000
0000
0000
,  // measure 5
0001
0000
0000
0000
,  // measure 6
1000
0000
0000
0000
,  // measure 7
1001
0000
1001
0000
,  // measure 8
1000
0000
0010
0000
,  // measure 9
0100
0000
0001
0000
,  // measure 10
0010
0000
0100
0000
,  // measure 11
0010
0000
0000
0000
,  // measure 12
0001
0000
0100
0000
,  // measure 13
0010
0000
0000
0000
,  // measure 14
1000
0000
0010
0000
,  // measure 15
0100
0000
0000
0000
,  // measure 16
1001
0000
0000
0000
,  // measure 17
0110
0000
0000
0000
,  // measure 18
1001
0000
0000
0000
,  // measure 19
0110
0000
0000
0000
,  // measure 20
1001
0000
0000
0000
,  // measure 21
0110
0000
0000
0000
,  // measure 22
1001
0000
0000
0000
,  // measure 23
0010
0010
0010
0010
,  // measure 24
0010
0000
1000
0000
,  // measure 25
0100
0100
0100
0000
,  // measure 26
1000
0000
0010
0000
,  // measure 27
0100
0100
0100
0000
,  // measure 28
0001
0000
0010
0000
,  // measure 29
0100
0100
0100
0000
,  // measure 30
0010
0000
0001
0000
,  // measure 31
0100
0100
0100
0000
,  // measure 32
0010
0000
1000
0000
,  // measure 33
0100
0000
1000
0000
,  // measure 34
0010
0000
0100
0000
,  // measure 35
0010
0000
1000
0000
,  // measure 36
0100
0000
0010
0000
,  // measure 37
0001
0000
0010
0000
,  // measure 38
0100
0000
1000
0000
,  // measure 39
0010
0000
0100
0000
,  // measure 40
0001
0001
0001
0001
,  // measure 41
0001
0001
0001
0000
,  // measure 42
1000
1000
1000
1000
,  // measure 43
1000
1000
1000
0000
,  // measure 44
0010
0010
0010
0010
,  // measure 45
0010
0010
0010
0000
,  // measure 46
0100
0100
0100
0100
,  // measure 47
0100
0100
0100
0000
,  // measure 48
0010
0000
0010
0000
,  // measure 49
0010
0000
0010
0000
,  // measure 50
1001
0000
0000
0000
,  // measure 51
0000
0000
0000
0000
,  // measure 52
1000
0000
0000
0000
,  // measure 53
0000
0000
0000
0000
,  // measure 54
0001
0000
0000
0000
,  // measure 55
0000
0000
0000
0000
,  // measure 56
1000
0000
0000
0000
,  // measure 57
0000
0000
0000
0000
,  // measure 58
1000
0000
0001
0000
,  // measure 59
0100
0100
0100
0000
,  // measure 60
0010
0000
1000
0000
,  // measure 61
0001
0001
0001
0000
,  // measure 62
0010
0000
0100
0000
,  // measure 63
0010
0010
0010
0000
,  // measure 64
0001
0000
0000
0000
,  // measure 65
1000
0000
0000
0000
,  // measure 66
0001
0000
0000
0000
,  // measure 67
1000
0000
0000
0000
,  // measure 68
1001
0000
0000
0000
,  // measure 69
0000
0000
0000
0000
,  // measure 70
0000
0000
0000
0000
,  // measure 71
0000
0000
0000
0000
,  // measure 72
1000
0000
0010
0000
,  // measure 73
0100
0000
0001
0000
,  // measure 74
0010
0000
0100
0000
,  // measure 75
1000
1000
1000
0000
,  // measure 76
0010
0000
0100
0000
,  // measure 77
0001
0000
1000
0000
,  // measure 78
0010
0010
0010
0010
,  // measure 79
0010
0000
0000
0000
,  // measure 80
1000
0000
0001
0000
,  // measure 81
1000
0000
0001
0000
,  // measure 82
1000
0000
0010
0000
,  // measure 83
0100
0100
0100
0000
,  // measure 84
0010
0000
1000
0000
,  // measure 85
0001
0000
0010
0000
,  // measure 86
0100
0100
0100
0100
,  // measure 87
0100
0000
0000
0100
,  // measure 88
0000
0000
0100
0100
,  // measure 89
0100
0000
0000
0100
,  // measure 90
0000
0000
0100
0100
,  // measure 91
0100
0000
0000
0000
,  // measure 92
0000
0000
0000
0000
,  // measure 93
1000
1000
1000
0000
,  // measure 94
0001
0001
0001
0000
,  // measure 95
1000
0000
0010
0000
,  // measure 96
0100
0000
0001
0000
,  // measure 97
0010
0000
0100
0000
,  // measure 98
1000
0000
0001
0000
,  // measure 99
1001
0000
0000
0000
;
