#TITLE:.59 -Booth Boost Remix-;
#SUBTITLE:;
#ARTIST:IDEA+RHYTHM;
#TITLETRANSLIT:;
#SUBTITLETRANSLIT:;
#ARTISTTRANSLIT:;
#GENRE:;
#CREDIT:;
#BANNER:;
#BACKGROUND:;
#LYRICSPATH:;
#CDTITLE:;
#MUSIC:.59 Booth Boost Remix.ogg;
#OFFSET:0.828000;
#SAMPLESTART:7.861655;
#SAMPLELENGTH:13.241379;
#SELECTABLE:YES;
#BPMS:0.000000=145.000000
;
#STOPS:19.750000=0.414000
;
#BGCHANGES:;
#KEYSOUNDS:;
#ATTACKS:;

//---------------dance-single - ----------------
#NOTES:
     dance-single:
     :
     Hard:
     9:
     0.633357,0.635273,0.378931,0.217886,0.539977,468.000000,428.000000,40.000000,23.000000,0.000000,0.000000,0.633357,0.635273,0.378931,0.217886,0.539977,468.000000,428.000000,40.000000,23.000000,0.000000,0.000000:
// measure 0
0000
0000
0000
0000
,  // measure 1
0000
0000
0000
0000
,  // measure 2
0000
0000
0000
0000
,  // measure 3
2000
0000
3002
0000
,  // measure 4
0203
0000
0000
0000
2300
0000
0000
0000
3020
0000
0000
0000
0032
0000
0000
1003
,  // measure 5
1000
0100
0000
0000
1000
0000
0010
0100
0000
0100
1000
0000
0100
0000
0001
0000
,  // measure 6
0010
0000
0100
0000
0010
0000
0001
1000
0000
1000
0100
0000
0001
0000
0100
0000
,  // measure 7
1000
0010
0100
0010
1000
0010
0001
0010
,  // measure 8
1000
0100
0010
0001
0010
1000
0010
0001
,  // measure 9
1000
0010
0000
0000
0100
0000
1000
0100
0000
0100
0001
0000
0010
0000
0100
0000
,  // measure 10
0001
0000
0100
0000
1000
0000
0010
1000
0000
1000
0100
0000
0001
0000
0100
0000
,  // measure 11
1000
0100
0010
0100
1000
0100
0001
0100
,  // measure 12
1000
0010
0001
1000
0100
0001
1000
0001
,  // measure 13
1000
0100
0000
0000
0000
0101
0000
1100
0000
0000
1000
0000
0000
0100
0000
0010
,  // measure 14
0000
0100
0000
0000
0001
0000
0100
1000
0000
0010
0000
0001
0000
0010
0000
1000
,  // measure 15
0001
0010
1000
0010
0001
0100
1000
0100
,  // measure 16
0001
0000
0010
0000
1000
0000
0100
0000
0001
1000
0001
1000
0002
0000
0000
0000
,  // measure 17
1003
0000
0100
0000
0010
0100
0000
0001
0000
0000
0100
0000
1000
0001
0000
0001
,  // measure 18
0010
0000
0100
0000
0010
1000
0000
0010
0000
0000
0011
0000
0000
0001
0000
0100
,  // measure 19
0010
1000
0010
0100
0010
0001
0010
0100
,  // measure 20
0001
1000
0001
1000
0001
1000
0000
1000
0100
1000
0100
0000
0010
0000
0000
0000
,  // measure 21
0200
0000
0000
0000
1000
0000
0000
0000
0001
0000
0000
0000
0310
0000
0100
1000
,  // measure 22
0200
0000
0001
0000
1300
0100
0010
0001
,  // measure 23
0100
0010
0000
0200
0000
0000
0000
0000
1000
0000
0000
0000
0310
0000
1000
0000
,  // measure 24
0100
0000
0010
0000
0100
0000
0001
0000
0100
0000
0010
0100
0000
1000
0001
2000
,  // measure 25
0000
0000
0000
0000
0010
0000
0000
0000
0100
0000
0000
0000
3001
0000
1000
0100
,  // measure 26
0020
0000
1000
0000
0130
0010
0100
1000
,  // measure 27
0001
0010
0001
0010
0000
0001
0000
0100
0000
0010
0100
0010
0000
1000
0010
1000
,  // measure 28
0010
1000
0000
1010
0000
0000
0000
0110
0000
0100
0000
0001
0000
0101
0000
0000
,  // measure 29
0001
0000
0010
0100
0000
0000
0110
0000
0010
0000
0010
0001
0000
1000
0001
0000
,  // measure 30
1000
0000
0100
0010
0000
0000
0110
0000
0100
0000
1000
0000
1001
0000
0000
0000
,  // measure 31
1000
0000
0010
0100
0000
0000
0110
0000
0010
0000
0010
1000
0000
0001
1000
0000
,  // measure 32
0001
0000
0010
0100
0000
0000
0110
0000
0020
0000
0000
0000
0032
0000
0000
0000
,  // measure 33
1003
0000
0000
1100
0000
0000
0100
0000
0010
0000
1000
0010
0000
0001
1000
0000
,  // measure 34
0001
0000
0000
0011
0000
0000
0010
0000
0100
0010
0100
0010
0100
0010
0000
0000
,  // measure 35
0001
0000
0000
0101
0000
0000
0100
0000
0010
0000
1000
0000
0010
0000
0001
0000
,  // measure 36
0010
0000
0200
0300
0010
0000
2000
3000
0010
0000
0002
0003
0020
0030
2000
3000
,  // measure 37
0001
0000
0010
0000
0100
0000
1000
0100
0000
0002
0000
0000
0203
0000
0000
1300
,  // measure 38
0001
0000
0100
0000
0010
0000
0000
0110
0000
0101
0000
2001
0000
0000
0000
0000
,  // measure 39
3001
0010
0000
0000
0001
0000
0100
0010
0000
0010
0001
0000
0010
0000
1000
0000
,  // measure 40
0100
0000
0010
0000
0100
0000
1000
0001
0000
0001
0010
0000
1000
0000
0010
0000
,  // measure 41
0001
0100
0010
0100
0001
0100
1000
0100
,  // measure 42
0001
0010
0100
1000
0100
0001
0100
1000
,  // measure 43
0001
0100
0000
0000
0010
0000
0001
0010
0000
0010
1000
0000
0100
0000
0010
0000
,  // measure 44
1000
0000
0010
0000
0001
0000
0100
0001
0000
0001
0010
0000
1000
0000
0010
0000
,  // measure 45
0001
0010
0100
0010
0001
0010
1000
0010
,  // measure 46
0001
0000
0000
0000
0000
0000
1000
0000
0000
0100
0000
0000
1000
0000
0000
0000
0100
0000
0000
0000
1000
0000
0000
0000
0100
0000
0000
0000
0000
0000
0001
0000
0000
0000
0000
0000
0010
0000
0000
0000
0000
0000
1000
0000
0000
0000
0000
0000
,  // measure 47
0001
0000
0000
0001
0000
0000
0010
0000
0000
0010
0000
0000
0100
0000
0000
0100
0000
0000
1000
0000
0000
1000
0000
0001
,  // measure 48
1000
1000
0100
0100
0010
0010
0001
0001
,  // measure 49
1000
0100
0001
0100
1000
0010
0001
0010
,  // measure 50
1000
0000
0100
0000
0000
0110
0000
0000
0010
0000
0001
0000
1000
0001
1000
0001
,  // measure 51
1000
0000
0100
0000
0000
0110
0000
0000
1100
0000
0000
1001
0000
0000
0101
0000
,  // measure 52
0000
0000
0011
0000
0000
0110
0000
0000
1010
0000
0000
0110
0000
0000
0011
0000
,  // measure 53
0000
0000
0101
0000
0000
0110
0000
0000
1010
0000
0000
1001
0000
0000
0101
0000
,  // measure 54
0000
0000
1001
0000
0000
1010
0000
0000
0011
0000
0000
1010
0000
0000
1001
0000
,  // measure 55
1000
0000
0100
0000
0010
0100
0000
0100
0010
0000
0001
0010
0000
0010
0100
0000
,  // measure 56
1000
0100
1000
0000
0010
0000
0100
0000
0001
0000
0010
0000
0100
0010
0100
0000
,  // measure 57
1000
0000
0000
0000
0000
0000
0000
0000
0000
0000
1001
0000
0000
0101
0000
0000
,  // measure 58
0000
0021
0000
0000
0000
0000
0000
0000
0000
0000
0130
0000
0000
0000
0000
0000
0000
0000
0000
0000
0000
0000
0000
0000
0000
0000
0000
0000
0000
0000
0000
0000
;

//---------------dance-single - ----------------
#NOTES:
     dance-single:
     :
     Challenge:
     11:
     0.753803,0.856237,0.359985,0.189466,0.866806,557.000000,519.000000,38.000000,20.000000,0.000000,0.000000,0.753803,0.856237,0.359985,0.189466,0.866806,557.000000,519.000000,38.000000,20.000000,0.000000,0.000000:
// measure 0
0000
0000
0000
0000
,  // measure 1
0000
0000
0000
0000
,  // measure 2
0000
0000
0000
0000
,  // measure 3
0002
0000
2003
0000
,  // measure 4
3002
0000
0000
0000
0023
0000
0000
0000
2030
0000
0000
0000
3200
0000
0000
1000
,  // measure 5
0301
0100
0000
0000
0010
0000
0100
1000
0000
0100
0001
0000
1000
0010
1000
0000
,  // measure 6
0100
0000
0010
0000
0100
0000
1000
0010
0000
0001
0010
0000
1000
0100
1000
0100
,  // measure 7
1000
0000
0100
0000
0001
0000
0100
0000
1000
0000
0010
0000
0001
0010
1000
0000
,  // measure 8
0001
0010
0100
0000
0001
0100
1000
0000
0100
0001
0100
0000
1000
0100
0010
0000
,  // measure 9
0001
0010
0000
0000
0100
0000
0010
0100
0000
1000
0100
0000
0001
0100
1000
0000
,  // measure 10
0010
0000
0001
0000
0010
0000
0100
0010
0000
0010
1000
0000
0100
0010
0100
0010
,  // measure 11
0001
0000
0100
0000
1000
0000
0001
0000
0010
0000
1000
0000
0100
0010
0100
0000
,  // measure 12
1000
0000
0001
0000
0100
0010
0100
0000
0001
0000
0000
0010
0000
0100
0010
0100
,  // measure 13
1000
0001
1000
0000
0010
0100
0000
0100
0010
0000
1000
0000
0100
0010
0000
0001
,  // measure 14
0000
0100
0000
0000
1000
0000
0010
0001
0000
1000
0000
0100
0000
0010
0000
0100
,  // measure 15
1000
0010
1000
0010
0100
0010
0100
0010
1000
0010
1000
0010
0001
0010
0001
0010
,  // measure 16
1000
0100
0010
0100
1000
0010
0100
0010
1000
0100
0001
0100
2000
0000
0000
0000
,  // measure 17
3001
0000
0010
0000
0001
0100
0000
0100
0010
0000
1000
0000
0100
0010
0000
0100
,  // measure 18
1000
0000
0010
0000
0001
0010
0000
1000
0000
0000
0100
0000
0000
0100
0000
0010
,  // measure 19
1000
0010
0001
0100
1000
0100
0001
1000
,  // measure 20
0100
0010
0100
0010
0100
0010
0000
0010
0001
1000
0001
0000
1000
0000
0001
0000
,  // measure 21
2000
0000
0000
0000
0001
0000
0000
0000
0001
0000
0000
0000
3001
0000
0001
1000
,  // measure 22
0002
0000
0000
0000
0100
0000
0000
0000
0003
0010
0001
0100
0001
1000
0001
0100
,  // measure 23
0001
0010
0000
0200
0000
0000
0000
0000
1000
0000
0000
0000
0000
0310
0100
1000
,  // measure 24
0010
0100
0010
1000
0100
0010
0100
1000
0001
0100
0001
0010
0000
0100
0010
0002
,  // measure 25
0000
0000
0000
0000
0100
0000
0000
0000
0010
0000
0000
0000
0103
0000
0100
1000
,  // measure 26
0200
0000
0000
0000
0010
0000
0000
0000
0301
0010
0100
1000
0100
0010
0002
0000
,  // measure 27
1003
0100
0010
0100
0000
1000
0000
0010
0000
0001
0010
1000
0000
1000
0100
0001
,  // measure 28
0100
1000
0000
1010
0000
0010
0100
0010
1000
0100
0010
0001
0010
0100
1000
0001
,  // measure 29
1000
0000
0100
1000
0000
0000
1010
0000
0010
0000
0010
0001
0000
0001
0010
0000
,  // measure 30
0001
0000
0001
0100
0000
0000
0101
0000
0100
0000
1000
0000
0001
0000
0000
0000
,  // measure 31
0001
0000
0010
0001
0000
0000
0101
0000
0100
0000
0100
1000
0000
1000
0100
0000
,  // measure 32
1000
0000
1000
0010
0000
0000
1010
0000
0020
0000
0000
0000
0032
0000
0000
0000
,  // measure 33
1003
0000
0000
1100
0000
0000
0100
0000
0110
0000
0100
0010
0000
0100
0010
0000
,  // measure 34
0001
0000
0000
0101
0000
0000
0100
0000
0010
1000
0010
1000
0010
0100
0000
0000
,  // measure 35
0100
0000
0000
1100
0000
0000
0100
0000
0100
0001
1000
0100
0010
0001
0010
0100
,  // measure 36
1000
0000
0100
0010
0100
0000
1000
0100
1000
0000
0010
0100
0001
0100
0010
1000
,  // measure 37
0001
0010
0001
0010
0001
0010
0100
0010
0000
0002
0000
0000
2003
0000
0000
3100
,  // measure 38
0010
0100
0010
0100
0010
0001
0000
0011
0000
1010
0000
0012
0000
0000
0000
0000
,  // measure 39
1003
0100
0000
0000
0010
0000
1000
0010
0000
0010
0001
0000
0100
0000
0001
0000
,  // measure 40
1000
0000
0010
0000
0100
0000
1000
0100
0000
0100
0001
0000
0010
0000
1000
0000
,  // measure 41
0010
0001
0100
0001
1000
0001
0100
0001
,  // measure 42
0010
1000
0010
0000
0010
0100
0010
0000
0001
0010
1000
0000
1000
0010
0001
1000
,  // measure 43
0001
0100
0000
0000
0010
0000
1000
0010
0000
0010
0100
0000
1000
0000
0100
0000
,  // measure 44
0001
0000
0010
0000
1000
0000
0010
0100
0000
1000
0001
0000
0100
0000
0010
0000
,  // measure 45
1000
0100
0001
1000
0010
0001
0100
0001
,  // measure 46
1000
0000
0000
0200
0000
0000
0310
0000
1000
0000
0010
0000
0001
0000
0000
1001
0000
0000
1000
0000
0000
1001
0000
0000
,  // measure 47
0001
0000
0000
0011
0000
0000
0010
0000
0000
0110
0000
0000
0100
0000
0000
1100
0000
0000
1000
0000
0000
1000
0000
0001
,  // measure 48
1000
1100
0100
0110
0010
0011
0001
1001
,  // measure 49
1000
0100
0010
1000
0010
0001
0100
1000
,  // measure 50
0100
0001
1000
0000
0100
0010
0001
0000
0100
0000
1000
0000
0100
0001
0100
0001
,  // measure 51
1000
0000
1100
0000
0000
0101
0000
0000
1100
0000
0000
1010
0000
0000
0011
0000
,  // measure 52
0010
0110
0100
0101
0001
1001
1000
1100
,  // measure 53
1000
0000
1010
0000
0000
0011
0000
0000
1010
0000
0000
1100
0000
0000
0101
0000
,  // measure 54
0100
0010
0100
0000
0100
1000
0100
0000
0100
0010
0001
0000
0001
0010
0100
0000
,  // measure 55
1000
0010
1000
0010
0100
0010
0100
0010
0001
0010
0001
0010
1000
0100
0010
0001
,  // measure 56
1000
0100
1000
0000
0100
0000
0010
0000
0001
0000
0100
0000
0010
0100
0010
0100
,  // measure 57
0001
0000
0000
0000
0000
0000
0000
0000
0000
0000
1001
0000
0000
1010
0000
0000
,  // measure 58
0000
1200
0000
0000
0000
0000
0000
0000
0000
0000
0310
0000
0000
0000
0000
0000
0000
0000
0000
0000
0000
0000
0000
0000
0000
0000
0000
0000
0000
0000
0000
0000
;
