#TITLE:月夜LOVESONG;
#SUBTITLE:;
#ARTIST:ミカヅキBIGWAVE;
#TITLETRANSLIT:Tsukiyo LOVESONG;
#SUBTITLETRANSLIT:;
#ARTISTTRANSLIT:Mikazuki BIGWAVE;
#GENRE:;
#CREDIT:;
#BANNER:[Deja Vu] - Tsukiyo LOVESONG.png;
#BACKGROUND:[Deja Vu] - Tsukiyo LOVESONG-bg.png;
#LYRICSPATH:;
#CDTITLE:cdtitle.png;
#MUSIC:[Deja Vu] - Tsukiyo LOVESONG.ogg;
#OFFSET:0.000000;
#SAMPLESTART:45.548740;
#SAMPLELENGTH:14.014599;
#SELECTABLE:YES;
#BPMS:0.000000=137.000000
,32.000000=68.500000
,68.000000=137.000000
,132.000000=68.500000
,148.000000=102.750000
,172.000000=137.000000
;
#STOPS:
;
#BGCHANGES:;
#KEYSOUNDS:;
#ATTACKS:;

//---------------dance-single - ----------------
#NOTES:
     dance-single:
     C 01 X 01:
     Beginner:
     1:
     0.082554,0.134443,0.000000,0.114055,0.000000,76.000000,76.000000,0.000000,15.000000,0.000000,0.000000,0.082554,0.134443,0.000000,0.114055,0.000000,76.000000,76.000000,0.000000,15.000000,0.000000,0.000000:
0000
0000
0000
0000
,
0000
0000
0000
0000
,
0000
0000
0000
0000
,
0000
0000
0000
0000
,
0000
0000
0000
0000
,
0000
0000
0000
0000
,
0000
0000
0000
0000
,
0000
0000
0000
0000
,
1000
0000
0000
0000
,
0001
0000
0000
0000
,
1000
0000
0001
0000
,
2000
0000
3000
0000
,
0010
0000
0010
0000
,
0100
0100
0000
0000
,
0100
0000
0100
0000
,
0001
0000
1000
0000
,
0001
0001
0002
0003
,
1000
0000
0000
0000
,
1000
0000
0000
0000
,
0010
0000
0000
0000
,
0010
0000
0000
0000
,
0100
0000
0100
0000
,
0100
0000
0100
0000
,
0002
0000
0000
0000
,
0003
0000
1000
0000
,
1000
0000
1000
0000
,
0000
0000
0001
0000
,
0001
0000
0001
0000
,
0000
0000
0000
0000
,
0010
0000
0010
0000
,
0000
0000
0100
0000
,
0200
0000
0000
0000
,
0300
0000
0000
0000
,
2000
0000
3000
0001
,
0002
0000
0003
0100
,
0100
0000
0010
0000
,
0200
0000
0300
0000
,
0010
0000
0000
0010
,
0000
0000
1000
0000
,
0000
1000
0000
0000
,
0001
0000
0000
1000
,
0000
0000
0000
0000
0002
0000
0000
0003
,
0000
0000
2000
0000
0000
3000
0000
0000
,
0010
0000
0010
0000
,
0100
0000
0100
0000
,
0001
0000
0100
0000
,
0002
0000
0003
0000
,
1000
0000
1000
0000
,
0010
0000
0010
0000
,
1000
0000
0001
0000
,
2000
0000
3000
0000
,
0001
0000
0001
0000
,
1000
0000
1000
0000
,
0010
0000
0010
0000
,
0100
0000
0100
0000
,
0002
0000
0000
0003
,
0020
0000
0000
0030
,
0200
0000
0000
0300
,
2000
0000
0000
0000
0000
0000
0000
0000
0000
0000
0000
0000
0000
0000
0000
3000
;

//---------------dance-single - ----------------
#NOTES:
     dance-single:
     C 03 X 05:
     Easy:
     3:
     0.170540,0.246479,0.076037,0.159678,0.000000,157.000000,147.000000,10.000000,21.000000,0.000000,0.000000,0.170540,0.246479,0.076037,0.159678,0.000000,157.000000,147.000000,10.000000,21.000000,0.000000,0.000000:
0000
0000
0000
0000
,
0000
0000
0000
0000
,
0000
0000
0000
0000
,
0000
0000
0000
0000
,
0000
0000
0000
0000
,
0000
0000
0000
0000
,
0000
0000
0000
0000
,
0000
0000
0002
0000
,
2003
3001
0000
0020
,
0230
0310
0000
0002
,
0103
0100
0010
0010
,
2000
0000
3001
0000
,
1001
0001
1001
1000
,
0010
0010
0200
0300
,
0110
0010
0110
0100
,
0002
0023
0230
2300
,
3002
0000
0203
0000
0310
0010
0010
0000
,
1000
1000
0001
0000
,
0001
0001
0100
0000
,
0100
0100
0010
0000
,
0010
0010
1000
0000
,
0001
1000
0001
0000
,
0010
0100
0010
0020
,
0000
0032
0000
2003
,
0000
3010
0010
0010
,
1000
0010
0100
0001
,
0000
0001
0001
0001
,
0010
0100
1000
0001
,
0000
1000
1000
0010
,
0100
0100
0001
0001
,
1000
1000
0010
0020
,
0000
0000
0000
0000
,
0030
0000
1000
0001
,
1000
0000
0001
0010
,
0100
0000
1000
0100
,
0010
0000
0001
1000
,
0002
0000
0000
0000
0003
0000
1000
1000
,
1000
0000
0000
0010
0000
0000
0000
0000
,
0000
0100
0000
0000
0001
0000
0000
0100
,
0000
0000
0000
0000
,
0001
0000
0000
0010
0000
0000
0100
0000
,
0000
0010
0000
0000
0002
0000
0000
0000
,
0000
0000
0000
0000
0000
0000
0000
0000
2000
0000
0000
0000
0000
0000
0000
0000
0000
0000
0000
0000
0003
0000
0000
0000
0000
0000
0000
0000
0000
3000
0000
0000
,
0001
0000
0010
0010
,
0100
0000
0100
0100
,
1000
0000
1000
0001
,
0100
0100
0010
0010
,
1000
0000
0010
0000
,
0001
0000
0010
0010
,
1000
0000
0100
0000
,
1000
0001
1000
0001
,
0100
0010
0000
0010
,
0000
1000
0000
1000
,
0000
0001
0000
0001
,
0000
0010
0000
0010
,
0000
1001
0000
1001
,
0000
0110
0000
0110
,
0000
1010
0000
1010
,
1000
0000
0000
0000
1000
0000
0000
0000
1000
0000
0000
0000
0020
0000
0000
0030
;

//---------------dance-single - ----------------
#NOTES:
     dance-single:
     C 05 X 08:
     Medium:
     5:
     0.271561,0.313700,0.129263,0.228111,0.060830,250.000000,233.000000,17.000000,30.000000,0.000000,0.000000,0.271561,0.313700,0.129263,0.228111,0.060830,250.000000,233.000000,17.000000,30.000000,0.000000,0.000000:
// measure 0
0000
0000
0000
0000
,  // measure 1
0000
0000
0000
0000
,  // measure 2
0000
0000
0000
0000
,  // measure 3
0000
0000
0000
0000
,  // measure 4
2000
0000
0000
0000
,  // measure 5
3020
0000
0000
0000
,  // measure 6
0032
0000
0000
0000
,  // measure 7
0203
0000
0000
0000
,  // measure 8
1300
0000
1000
0010
1000
0000
0001
0000
,  // measure 9
0010
0000
0010
0001
0010
0000
0100
0000
,  // measure 10
0100
0000
0100
1000
0100
0000
1000
0000
,  // measure 11
0001
0000
0001
0000
2002
0000
0000
3003
,  // measure 12
0100
0000
0100
0001
0010
0000
0010
0001
,  // measure 13
2000
3000
0002
0003
1000
0100
0010
0001
,  // measure 14
1000
0000
1000
0010
0100
0000
0100
0010
,  // measure 15
2000
3200
0302
0203
,  // measure 16
2300
0000
3020
0000
0031
0010
1000
1000
,  // measure 17
0001
0010
0100
0010
,  // measure 18
0001
0000
1000
0000
0001
1000
0001
0000
,  // measure 19
0100
0010
1000
0010
,  // measure 20
0100
0000
0001
0100
0001
0000
0100
0000
,  // measure 21
0001
0010
0100
1000
,  // measure 22
0001
0000
0100
0000
0010
0100
0010
0200
,  // measure 23
0000
0001
0000
0001
,  // measure 24
0300
0000
0001
0000
1000
0100
1000
0000
,  // measure 25
0010
0010
1000
1000
,  // measure 26
0001
0000
0100
0000
0001
0010
0001
0010
,  // measure 27
0001
0000
0001
0000
0001
1000
1000
0000
,  // measure 28
0100
0000
0100
1000
0100
0000
1000
0000
,  // measure 29
0010
0000
0010
1000
0001
0000
0001
1000
,  // measure 30
0010
0000
0010
0000
0100
0001
0010
0200
,  // measure 31
0000
0300
0200
0000
0300
0200
0000
0300
,  // measure 32
1000
0000
0001
0001
,  // measure 33
0100
0000
0000
1010
0001
0000
0010
0100
,  // measure 34
1000
0000
0000
0011
0100
0000
1000
0010
,  // measure 35
0200
0302
0023
2030
,  // measure 36
3200
0000
0000
0000
0300
0000
0010
0010
,  // measure 37
1000
0000
0000
1000
0000
0000
0001
0000
0000
0001
0000
0000
0100
0000
0000
0010
,  // measure 38
0000
0000
0010
0000
0000
0000
0000
0000
1000
0000
0000
1000
0000
0000
1000
0000
,  // measure 39
0000
0010
0000
0000
0000
0000
0000
0100
0000
0000
0100
0000
0000
0001
0000
0000
,  // measure 40
0010
0000
0000
0010
0000
0000
0100
0000
0000
0100
0000
0000
0100
0000
0000
1000
,  // measure 41
0000
0000
0001
0000
0000
2000
0000
0000
0000
0000
0000
3002
0000
0000
0000
0000
,  // measure 42
0000
2003
0000
0000
0000
0000
0000
3010
0000
0000
0010
0000
0000
0010
0000
0000
,  // measure 43
0100
0100
0001
0001
,  // measure 44
1000
0100
1000
0000
0001
0000
0001
0000
,  // measure 45
0010
0100
0010
0000
0001
0000
1000
0000
,  // measure 46
0010
1000
0001
0000
0010
0001
1000
0000
,  // measure 47
0001
0100
0001
0000
1000
0100
1000
0000
,  // measure 48
0001
0010
0001
0000
1000
0010
1000
0002
,  // measure 49
0000
0000
2003
0000
0000
3020
0000
0000
,  // measure 50
0130
0000
0100
0000
0001
1000
0001
1000
,  // measure 51
0010
0101
1000
0101
,  // measure 52
1000
0110
0001
0110
,  // measure 53
1000
0011
0100
0011
,  // measure 54
0100
1001
0010
1001
,  // measure 55
0000
1010
0000
0101
,  // measure 56
0000
0011
0000
1100
,  // measure 57
0000
1001
0000
0110
,  // measure 58
1000
0000
0000
0000
0010
0000
0000
0000
1000
0000
0000
0000
0200
0000
0000
0310
;

//---------------dance-single - ----------------
#NOTES:
     dance-single:
     C 09 X 13:
     Hard:
     9:
     0.527914,0.604993,0.281337,0.121659,0.475231,486.000000,449.000000,37.000000,16.000000,0.000000,0.000000,0.527914,0.604993,0.281337,0.121659,0.475231,486.000000,449.000000,37.000000,16.000000,0.000000,0.000000:
// measure 0
0000
0000
0000
0000
,  // measure 1
0000
0000
0000
0000
,  // measure 2
0000
0000
0000
0000
,  // measure 3
0000
0000
0000
0000
,  // measure 4
0000
1010
0000
0101
,  // measure 5
0000
0011
0000
1100
,  // measure 6
0000
1001
0000
0110
,  // measure 7
1000
0000
0001
0001
,  // measure 8
1000
0000
0000
1000
0100
0000
1000
0000
0010
0000
0100
0000
0001
0000
0000
0000
,  // measure 9
0001
0000
0000
0001
0010
0000
0001
0000
0100
0000
0010
0000
1000
0000
0000
0000
,  // measure 10
0001
0000
1000
0100
0000
0000
1000
0000
0001
0000
1000
0010
0000
0010
0000
1000
,  // measure 11
0001
0000
0010
0000
0100
0000
1000
0000
1001
0000
0000
1000
0001
0000
0001
0000
,  // measure 12
0200
0000
0000
0001
0301
0000
0101
0000
2000
0000
0000
0100
3100
0000
1100
0000
,  // measure 13
0001
0100
0001
1000
0010
1000
0001
0010
0001
0001
2000
0000
0001
000L
3001
L000
,  // measure 14
2000
0000
0000
0010
3010
0000
1010
0000
0002
0000
0000
0010
0013
0000
0011
0000
,  // measure 15
1000
0000
0000
0010
0000
0000
0010
0000
0100
0000
0000
0010
0000
0000
0010
0000
1000
0000
0000
0100
0000
0000
0100
0000
0001
0000
0000
0100
0000
0000
0100
0000
,  // measure 16
1000
0000
0000
0001
0000
0000
0001
0000
0010
0000
0000
0001
0000
0000
0001
0000
1000
0000
0010
0000
0001
0000
0000
0000
1000
0000
0100
0000
0001
0000
0000
0000
,  // measure 17
1000
0010
0100
0010
1000
0001
1000
0000
,  // measure 18
0001
0000
0010
0000
0100
0000
1000
0002
0010
0000
00L0
0000
0013
0000
000L
0000
,  // measure 19
0001
1000
0100
0020
0100
0L00
0130
00L0
,  // measure 20
0010
0000
0001
0000
1000
0000
0010
0100
0010
0000
1000
0000
0001
0000
0000
0000
,  // measure 21
1000
0100
0010
1000
0010
0100
1000
0000
,  // measure 22
0001
0010
0010
0100
0001
0100
0010
0002
,  // measure 23
0003
0000
100L
0010
1000
0000
0001
0000
0000
100L
0100
0000
1000
0000
0001
0100
,  // measure 24
0001
0000
0001
0000
0002
0000
0000
0000
1003
0000
0010
0100
0001
0100
0010
0000
,  // measure 25
1000
0100
1000
0001
0100
0010
0100
0000
,  // measure 26
0001
0000
0001
0000
0010
0000
0100
2000
0100
0000
0L00
0000
3100
0000
L000
0000
,  // measure 27
1000
0010
0100
0002
1000
L000
1003
000L
,  // measure 28
0001
0000
0100
0000
0001
0000
1000
1000
0001
0000
0010
0000
0100
0000
0000
0000
,  // measure 29
1010
1000
0001
0010
0100
0001
1000
0001
,  // measure 30
0100
0100
0020
0030
0100
0010
0001
0100
,  // measure 31
0000
0L00
0100
0000
0L00
0100
0000
0L00
,  // measure 32
0100
0000
0001
0000
0100
0000
0001
0010
0001
0000
0010
0000
0100
0000
1000
0000
,  // measure 33
0001
0000
0000
0100
0100
0000
0101
0000
1000
0100
0010
0001
1000
0000
0000
0000
,  // measure 34
0010
0000
0000
1000
1000
0000
1010
0000
0100
0000
0010
0000
0100
0001
0010
0100
,  // measure 35
1000
0000
0001
0100
0000
0000
1010
0000
0100
0000
0010
1000
0000
0001
0000
0010
,  // measure 36
0200
0000
0000
0000
0000
0000
0000
0000
0000
0000
0000
0000
0010
0000
0000
0000
0300
0000
0000
0000
0000
0000
0000
0000
0001
0000
1000
0010
1000
0010
1000
0000
,  // measure 37
0001
0000
0000
0010
0000
0000
1000
0000
0000
0010
0000
0000
0001
0000
0000
1000
0000
0000
0004
0000
0000
0003
0000
0000
0100
0000
0000
0100
0000
0000
0010
0000
,  // measure 38
0000
0000
1000
0000
0000
0200
0000
0000
1000
0000
0000
0000
0000
0000
L000
0000
0000
0000
0000
0000
1300
0000
0000
0000
0000
0000
0L00
0000
0000
0000
0000
0000
0100
0000
0000
0000
0000
0000
1000
0000
0000
0000
0000
0000
0010
0000
0000
0000
0000
0000
0200
0000
0000
0000
0000
0000
0001
0000
0000
0000
0000
0000
000L
0000
,  // measure 39
0000
0000
0000
0000
0301
0000
0000
0000
0000
0000
0L00
0000
0000
0000
0000
0000
0100
0000
0000
0000
0000
0000
0100
0000
0000
0000
0000
0000
0001
0000
0000
0000
0000
0000
1000
0000
0000
0100
0000
0000
1000
0000
0000
0000
0000
0000
0010
0000
0000
0000
0000
0000
0100
0000
0000
0000
0000
0000
0000
0000
0000
0000
0000
0000
,  // measure 40
0001
0000
0000
0000
0000
0000
0010
0000
0000
0000
0000
0000
0001
0000
0000
0000
0000
0000
1000
0000
0000
0000
0000
0000
0010
0000
0000
0000
0000
0000
0100
0000
0000
0000
0000
0000
0040
0000
0000
0000
0000
0000
0030
0000
0000
1000
0000
0000
0001
0000
0000
0000
0000
0000
0100
0000
0000
0000
0000
0000
0010
0000
0000
0000
,  // measure 41
0000
0001
0000
0000
0010
0000
0000
0100
0000
0000
0001
0000
0000
0010
0000
0000
00L1
0000
0000
1000
0000
0000
0010
0000
0000
10L0
0000
0000
0001
0000
0000
0010
,  // measure 42
0000
0000
0000
0000
00L1
0000
0000
0000
0000
0000
1000
0000
0000
0000
0000
0000
0100
0000
0000
0000
0000
0000
0L00
0000
0000
0000
0000
0000
0100
0000
0000
0000
0000
0000
1000
0000
0000
0000
0000
0000
1000
0000
0000
0000
0000
0000
0001
0000
0000
0010
0000
0000
0100
0000
0000
0010
0000
0000
0001
0000
0000
0000
0000
0000
,  // measure 43
1000
0000
0010
0100
0001
0000
0001
0000
1000
0000
0000
0000
L001
0000
0000
0000
,  // measure 44
100L
0000
1000
0000
0010
0010
0200
0000
0001
0000
0000
000L
0010
0000
0000
00L0
,  // measure 45
0301
0000
0100
0000
0100
0000
0001
0010
0100
0000
0L00
0000
0100
0000
00L0
0000
,  // measure 46
0010
0000
1000
0000
0010
0000
0100
0100
0010
0000
0001
1000
0000
1000
0001
0000
,  // measure 47
1000
0000
1000
0000
0010
0100
0010
0000
0001
0000
0001
0010
0100
0000
0010
0000
,  // measure 48
1000
0000
1000
0000
0100
0010
0100
0010
0001
0000
0001
0000
1000
0000
0010
0000
,  // measure 49
0000
00L0
0001
0000
000L
0100
0000
0L00
,  // measure 50
0001
0000
0000
0000
0001
0000
1000
0100
1000
0000
0010
0100
0010
0000
0010
0000
,  // measure 51
1000
0000
1001
0001
0100
0000
0110
0000
,  // measure 52
1000
0000
1000
1000
0001
0000
0010
0000
0000
0000
0100
0000
0011
0000
0001
0010
,  // measure 53
0001
0000
0100
0000
0100
0000
1000
0000
0010
0000
0010
0000
0001
0000
1000
0100
,  // measure 54
1000
0010
0110
0010
0010
1010
0110
1000
,  // measure 55
0001
0000
0101
0000
0000
1000
1100
0010
,  // measure 56
0000
0100
0011
0000
0000
0001
1100
0010
,  // measure 57
0001
0000
1001
0100
0000
0010
0110
0100
,  // measure 58
1001
0000
0100
0000
1001
0000
0010
0000
1001
0000
0100
0000
0001
0010
0100
1000
;
