#VERSION:0.82;
#TITLE:Tori-no-kimochi;
#SUBTITLE:;
#ARTIST:猫叉Master+;
#TITLETRANSLIT:;
#SUBTITLETRANSLIT:;
#ARTISTTRANSLIT:Nekomata Master+;
#GENRE:;
#ORIGIN:;
#CREDIT:;
#BANNER:Tori-no-kimochi.png;
#BACKGROUND:Tori-no-kimochi-bg.png;
#PREVIEWVID:;
#JACKET:Tori-no-kimochi-jacket.png;
#CDIMAGE:;
#DISCIMAGE:;
#LYRICSPATH:;
#CDTITLE:;
#MUSIC:Tori-no-kimochi.ogg;
#OFFSET:-0.134000;
#SAMPLESTART:96.042015;
#SAMPLELENGTH:15.000000;
#SELECTABLE:YES;
#BPMS:0.000=132.000;
#STOPS:;
#DELAYS:;
#WARPS:;
#TIMESIGNATURES:0.000=4=4;
#TICKCOUNTS:0.000=4;
#COMBOS:0.000=1;
#SPEEDS:0.000=1.000=0.000=0;
#SCROLLS:0.000=1.000;
#FAKES:;
#LABELS:0.000=Song Start;
#BGCHANGES:;
#KEYSOUNDS:;
#ATTACKS:
;

//---------------dance-single - ----------------
#NOTEDATA:;
#CHARTNAME:;
#STEPSTYPE:dance-single;
#DESCRIPTION:;
#CHARTSTYLE:;
#DIFFICULTY:Hard;
#METER:8;
#RADARVALUES:0.533049,0.586940,0.089552,0.477612,0.440298,424.000000,12.000000,64.000000,0.000000,0.000000,0.000000,0.000000,0.000000,0.533049,0.586940,0.089552,0.477612,0.440298,424.000000,12.000000,64.000000,0.000000,0.000000,0.000000,0.000000,0.000000;
#CREDIT:;
#NOTES:
// measure 0
0000
0000
0000
0000
,  // measure 1
0000
0000
0000
0000
,  // measure 2
0000
0000
0000
0000
,  // measure 3
0000
0000
0000
0000
,  // measure 4
0000
0000
0000
0000
,  // measure 5
0000
0000
0000
0000
,  // measure 6
0000
0000
0000
0000
,  // measure 7
0000
0000
0000
0000
,  // measure 8
0001
0000
0000
0100
0000
0000
0010
0000
0000
0000
0000
0000
0110
0000
0000
0000
0000
0000
0100
0000
0001
0000
0000
0000
,  // measure 9
1000
0000
0000
0100
0000
0000
0010
0000
0000
0001
0000
0000
0011
0000
0000
0000
0000
0001
0100
0000
0010
0000
0000
0000
,  // measure 10
1000
0000
0000
0000
0000
0000
0100
0000
0000
1000
0000
0000
1001
0000
0000
0000
0000
0000
1000
0000
0010
0000
0000
0000
,  // measure 11
0100
0000
0000
0001
0000
1000
0010
0000
0000
1000
0000
0001
0100
0000
0000
0001
0000
0010
0200
0000
0000
0000
0000
0000
,  // measure 12
1300
0000
0000
0001
0000
0000
1000
0000
0000
0000
0000
0000
1100
0000
0000
0000
0000
0000
0100
0000
0010
0000
0000
0000
,  // measure 13
0001
0000
0000
0100
0000
0000
0010
0000
0000
0100
0000
0000
0101
0000
0000
0000
0000
0000
0001
0000
0100
0000
0000
0010
,  // measure 14
2000
0000
0100
0000
0001
0000
3100
1000
,  // measure 15
0001
0000
0100
0001
0000
0000
1000
0000
0100
1000
0000
0000
0001
0000
0000
1000
0000
0000
0001
0000
0000
0100
0000
0000
,  // measure 16
0020
0000
0100
0000
2030
0000
0100
0100
,  // measure 17
3002
1000
0023
0100
,  // measure 18
0031
0100
0010
0000
0001
0010
0100
0000
,  // measure 19
0001
0100
0010
1000
0010
0100
0001
1000
,  // measure 20
0200
0000
1000
0000
0320
0000
0100
0100
,  // measure 21
0032
1000
0023
0001
,  // measure 22
0230
0000
0001
0010
,  // measure 23
2300
3002
0203
0320
,  // measure 24
1030
0000
0000
0100
0000
0000
0010
0000
0100
0000
0000
1000
0000
0000
0001
0100
0000
0000
0010
0000
0100
0000
0000
0000
,  // measure 25
0001
0000
0000
0100
0000
0000
1000
0000
0100
0000
0000
0001
0000
0000
1000
0100
0000
0000
0010
0000
0000
0010
0000
0000
,  // measure 26
0001
0000
0000
0010
0000
0000
0100
0000
0010
0000
0000
0001
0000
0000
1000
0010
0000
0000
0200
0000
0000
0001
0000
0000
,  // measure 27
0320
0000
0000
1000
0000
0000
2030
0000
0000
0100
0000
0000
3002
0000
0000
0010
0000
0000
1003
0000
0100
1000
0000
0000
,  // measure 28
1000
0000
0000
0001
0000
0000
0010
0000
0001
0000
0000
1000
0000
0000
0000
0010
0000
0000
0100
0000
0001
0000
0000
0000
,  // measure 29
0001
0000
0000
0010
0000
0000
1000
0000
0010
0000
0000
0001
0000
0000
1000
0010
0000
0000
0100
0000
0000
0100
0000
0000
,  // measure 30
0001
0100
0010
0100
0001
1000
0010
1000
,  // measure 31
0200
0000
0000
0000
0000
0000
0320
0000
0000
0000
0000
0000
0032
0000
0000
0000
0003
0100
0000
0000
0010
0000
0000
0200
,  // measure 32
0000
0000
0000
0000
0000
0000
0310
0000
1000
0000
0000
0020
0000
0000
0000
0000
0000
0000
1030
0000
0001
0000
0000
2000
,  // measure 33
0000
0000
0000
0000
0000
0000
3001
0000
0100
0000
0000
0002
0000
0000
0000
1003
0000
0000
1000
0000
0100
0010
0000
0000
,  // measure 34
0002
0000
0000
0000
0000
0000
1003
0000
0010
0000
0000
0100
0000
0000
0000
0100
0000
0000
0010
0000
0000
0000
0000
0000
,  // measure 35
1000
0000
0000
0100
0000
0000
0010
0000
0000
0100
0000
0000
0001
0000
0000
0100
0000
0000
0010
0000
0001
0000
0000
0020
,  // measure 36
0000
0000
0000
0000
0000
0000
0031
0000
1000
0000
0000
0002
0000
0000
0000
0000
0000
0000
1003
0000
0010
0000
0000
2000
,  // measure 37
0000
0000
0000
0000
0000
0000
3010
0000
0100
0000
0000
0020
0000
0000
0000
1030
0000
0000
1000
0000
0001
0010
0000
0000
,  // measure 38
0200
0000
0000
0000
0000
0000
1300
0000
0001
0000
0000
0100
0000
0000
0000
0100
0000
0000
1001
0000
0000
0000
0000
0000
,  // measure 39
0001
0000
0000
0010
0000
0000
1000
0000
0000
0010
0000
0000
0001
0000
0000
0100
0000
0000
1000
0000
0100
0000
0000
0002
,  // measure 40
0000
0000
0000
0000
0000
0000
1003
0000
0100
0000
0000
2000
0000
0000
0000
0000
0000
0000
3001
0000
0100
0000
0000
0001
,  // measure 41
0010
0000
0000
0100
0000
0000
0010
0000
0000
0001
0000
1000
0010
0000
0000
0100
0000
0000
0010
0000
1000
0001
0000
0000
,  // measure 42
0200
0000
0000
0000
0000
0000
0301
0000
0100
0000
0000
0020
0000
0000
0000
0000
0000
0000
0030
0000
0000
0000
1000
0100
,  // measure 43
0002
0000
0000
0000
0000
0000
0003
0000
0000
0000
0001
0100
2000
0000
0000
0000
0000
0000
3100
0000
0100
0000
0000
0020
,  // measure 44
0000
0000
0000
0000
0000
0000
0031
0000
1000
0000
0000
0200
0000
0000
0000
0000
0000
0000
1300
0000
0001
0000
0000
0001
,  // measure 45
0100
0000
0000
0010
0000
0000
0100
0000
0000
0001
0000
1000
0100
0000
0000
0010
0000
0000
0100
0000
1000
0001
0000
0000
,  // measure 46
0020
0000
0000
0000
0000
0000
0130
0000
1000
0000
0000
0020
0000
0000
0000
0000
0000
0000
0030
0000
0000
0000
0001
0010
,  // measure 47
2000
0000
0000
0000
0000
0000
3000
0000
0000
0000
0010
0100
0002
0000
0000
0000
0000
0000
0003
0000
0000
0000
0000
0000
,  // measure 48
0101
0000
1001
0000
,  // measure 49
1100
0000
0110
0000
,  // measure 50
0011
0000
0000
0000
0000
0000
0000
0000
0010
0000
0100
0000
1000
0000
0000
0000
0000
0000
0000
0000
0000
0000
1000
0001
,  // measure 51
0020
0000
0000
0000
0000
0000
0000
0000
0000
0000
0031
1000
0200
0000
0000
0000
0000
0000
0000
0000
0000
0000
0000
0000
,  // measure 52
0310
0000
0000
0000
0000
0000
0100
0100
1000
0002
0000
0000
,  // measure 53
1003
0000
0000
0100
0000
0000
0010
0000
0001
0000
0000
0100
0000
0000
0001
0100
0000
0000
0010
0000
0100
0000
0000
0000
,  // measure 54
0001
0000
0000
0100
0000
0000
0010
0000
1000
0000
0000
0100
0000
0000
1000
0001
0000
0000
0010
0000
0000
0001
0000
0000
,  // measure 55
1000
0000
0000
0100
0000
0000
0010
0000
0100
0000
0000
1000
0000
0000
0001
0100
0000
0000
0100
0000
0000
0001
0000
0000
,  // measure 56
0020
0000
0000
0130
0000
0000
0020
0000
0000
1030
0000
0000
0020
0000
0000
0031
0000
0000
1000
0000
0010
0100
0000
0001
,  // measure 57
0100
0000
0000
0010
0000
0000
1000
0000
0010
0000
0000
0100
0000
0000
0001
0100
0000
0000
0010
0000
1000
0000
0000
0000
,  // measure 58
0100
0000
0000
0010
0000
0000
0001
0000
0010
0000
0000
0100
0000
0000
1000
0100
0000
0000
0010
0000
0000
0010
0000
0000
,  // measure 59
0002
0000
0000
0103
0010
1000
0001
0010
,  // measure 60
0100
1000
0001
0100
0010
1000
0100
1000
,  // measure 61
0002
1000
0000
1000
0023
0001
0000
0001
,  // measure 62
0230
1000
0000
1000
0320
0100
0000
0100
,  // measure 63
0031
0000
0000
1000
0000
0000
0100
0000
1000
0000
0000
0001
0000
0000
0001
0100
0000
0000
0010
0000
0000
0000
0000
0000
,  // measure 64
1000
0000
0010
1000
0000
0000
0001
0000
0100
0001
0000
0000
0010
0000
0001
0010
0000
0000
0100
0000
1000
0001
0000
0010
,  // measure 65
0200
1000
0000
0001
0320
0001
0000
0100
,  // measure 66
0032
1000
0000
0010
2003
0100
0000
0001
,  // measure 67
3020
0000
1000
0031
,  // measure 68
1000
0000
0000
0100
0000
0000
0010
0000
0100
0000
0000
1000
0000
0000
0001
0100
0000
0000
0110
0000
0000
0000
0000
0000
,  // measure 69
2000
0000
3002
0000
,  // measure 70
0203
0000
0320
0000
,  // measure 71
0000
0000
0030
0000
;

//---------------dance-single - ----------------
#NOTEDATA:;
#CHARTNAME:;
#STEPSTYPE:dance-single;
#DESCRIPTION:;
#CHARTSTYLE:;
#DIFFICULTY:Beginner;
#METER:1;
#RADARVALUES:0.087420,0.105224,0.044776,0.000000,0.000000,76.000000,6.000000,0.000000,0.000000,0.000000,0.000000,0.000000,0.000000,0.087420,0.105224,0.044776,0.000000,0.000000,76.000000,6.000000,0.000000,0.000000,0.000000,0.000000,0.000000,0.000000;
#CREDIT:;
#NOTES:
0000
0000
0000
0000
,
0000
0000
0000
0000
,
0000
0000
0000
0000
,
0000
0000
0000
0000
,
0000
0000
0000
0000
,
0000
0000
0000
0000
,
0000
0000
0000
0000
,
0000
0000
0000
0000
,
1000
0000
0000
0000
,
0100
0000
0000
0000
,
0010
0000
0000
0000
,
0000
0000
0000
0000
,
0001
0000
0000
0000
,
0100
0000
0000
0000
,
0010
0000
0000
0000
,
0000
0000
0000
0000
,
1000
0000
0000
0000
,
0001
0000
0000
0000
,
0100
0000
0000
0000
,
0000
0000
0000
0000
,
0001
0000
0000
0000
,
1000
0000
0000
0000
,
0100
0000
0000
0000
,
0000
0000
0000
0000
,
1000
0000
1000
0000
,
0001
0000
0001
0000
,
0010
0000
0000
0000
,
0010
0000
0000
0000
,
0001
0000
0001
0000
,
1000
0000
1000
0000
,
0100
0000
0000
0000
,
0010
0010
0010
0000
,
0000
0001
0000
0001
,
0000
0100
0000
0100
,
0000
0010
0000
0010
,
0000
1000
0000
1000
,
0000
1000
0000
1000
,
0000
0100
0000
0100
,
0000
0010
0000
0010
,
0000
0001
0000
0001
,
1001
0000
0000
0000
,
0000
0000
0000
0000
,
0110
0000
0000
0000
,
0000
0000
0000
0000
,
1001
0000
0000
0000
,
0000
0000
0000
0000
,
0110
0000
0000
0000
,
0000
0000
0000
0000
,
0001
0000
0000
0000
,
0100
0000
0000
0000
,
0010
0000
0000
0000
,
1000
0000
0000
0000
,
0000
0000
0000
0000
,
1000
0000
0001
0000
,
0100
0000
0010
0000
,
1000
0000
0000
0000
,
0000
0000
0000
0000
,
1000
0000
0100
0000
,
0010
0000
0001
0000
,
0010
0000
0000
0000
,
0000
0000
0000
0000
,
0001
0000
1000
0000
,
0010
0000
0100
0000
,
0001
0000
0000
0000
,
1001
0000
0000
0000
,
0001
0000
0100
0000
,
0010
0000
1000
0000
,
0010
0000
0000
0000
,
1001
0000
0000
0000
,
1000
0000
1000
0000
,
0001
0000
0001
0000
;

//---------------dance-single - ----------------
#NOTEDATA:;
#CHARTNAME:;
#STEPSTYPE:dance-single;
#DESCRIPTION:;
#CHARTSTYLE:;
#DIFFICULTY:Easy;
#METER:3;
#RADARVALUES:0.223881,0.266791,0.014925,0.455224,0.000000,147.000000,2.000000,61.000000,0.000000,0.000000,0.000000,0.000000,0.000000,0.223881,0.266791,0.014925,0.455224,0.000000,147.000000,2.000000,61.000000,0.000000,0.000000,0.000000,0.000000,0.000000;
#CREDIT:;
#NOTES:
0000
0000
0000
0000
,
0000
0000
0000
0000
,
0000
0000
0000
0000
,
0000
0000
0000
0000
,
0000
0000
0000
0000
,
0000
0000
0000
0000
,
0000
0000
0000
0000
,
0000
0000
0000
0000
,
0020
0000
0032
0000
,
2003
0000
3020
0000
,
0230
0000
0002
0003
,
0002
0003
0002
0300
,
2003
0000
3002
0000
,
0203
0000
0302
0000
,
0023
0000
0000
0030
,
0010
0100
0010
0100
,
2000
0000
3020
0000
,
0230
0000
0302
0000
,
1003
0000
0100
0000
,
1000
0000
0100
0000
,
0020
0000
0032
0000
,
2003
0000
3200
0000
,
1300
0000
0001
0000
,
0001
0100
0100
0001
,
2000
3000
0200
0300
,
0020
0030
0200
0300
,
1000
0010
0000
0010
,
0100
0010
0100
0000
,
0002
0003
0200
0300
,
0020
0030
0200
0300
,
0001
0010
0000
0020
,
0230
0320
0032
0003
,
0000
1000
0000
1000
,
0000
0100
0000
0100
,
0000
0010
0000
0010
,
0000
0001
0000
0001
,
0000
0001
0000
0001
,
0000
0100
0000
0100
,
0000
0010
0000
0010
,
0000
1000
0000
1000
,
0002
0000
0203
0000
,
0302
0000
2003
0000
,
3020
0000
2030
0000
,
3100
0000
0100
0000
,
2000
0000
3200
0000
,
2300
0000
3002
0000
,
0023
0000
0032
0000
,
2003
0000
3002
0000
,
0103
0000
0010
0000
,
1000
0000
0001
0000
,
0020
0000
0130
0000
,
0200
0000
0310
0000
,
1001
0000
0000
0000
,
0001
0100
0010
0000
,
1000
0010
0100
0000
,
0002
0000
2003
0000
,
3001
0001
1000
1000
,
1000
0100
0010
0000
,
0001
0010
0100
0000
,
2000
0000
3002
0000
,
0103
0010
0100
0010
,
1000
1000
0100
0000
,
1000
1000
0001
0000
,
0020
0030
0020
0030
,
0001
0100
0010
1000
,
0001
0001
0100
0000
,
0001
0001
0010
0000
,
2002
0000
0000
3003
,
0001
1000
1000
0001
,
0020
0000
0032
0000
,
2003
0000
3020
0000
,
0000
0000
0030
0000
;

//---------------dance-single - ----------------
#NOTEDATA:;
#CHARTNAME:;
#STEPSTYPE:dance-single;
#DESCRIPTION:;
#CHARTSTYLE:;
#DIFFICULTY:Medium;
#METER:5;
#RADARVALUES:0.373134,0.373507,0.097015,0.500000,0.123134,270.000000,13.000000,67.000000,0.000000,0.000000,0.000000,0.000000,0.000000,0.373134,0.373507,0.097015,0.500000,0.123134,270.000000,13.000000,67.000000,0.000000,0.000000,0.000000,0.000000,0.000000;
#CREDIT:;
#NOTES:
0000
0000
0000
0000
,
0000
0000
0000
0000
,
0000
0000
0000
0000
,
0000
0000
0000
0000
,
0000
0000
0000
0000
,
0000
0000
0000
0000
,
0000
0000
0000
0000
,
0000
0000
0000
0000
,
2000
3010
0020
0130
,
0200
0301
0002
0103
,
0020
0000
2000
3000
,
0002
0003
2000
3030
,
0002
0103
0020
0130
,
2000
3100
0020
0130
,
0002
0000
2003
0000
,
3002
0023
0230
2300
,
3001
0100
0010
1000
,
0100
1000
0010
0100
,
0001
0000
0000
0100
0000
0000
0001
0000
0000
0001
0100
0000
,
0020
0000
2030
0000
3002
0000
0103
0010
,
1000
0100
0010
0100
,
1000
0001
0100
0001
,
0020
0000
0000
0030
,
0100
1100
0011
1001
,
1000
0000
0000
0000
0000
0000
0010
0000
0000
0000
0000
0010
0000
0000
0000
0100
0000
0000
0010
0000
0000
0000
0000
0000
,
1000
0000
0000
0000
0000
0000
0100
0000
0000
0000
0000
0100
0000
0000
0000
0010
0000
0000
0001
0000
0010
0000
0000
0000
,
0001
0000
0000
0000
0000
0000
0100
0000
0000
0000
0000
0010
0000
0000
0000
0010
0000
0000
2000
0000
0000
0000
0000
0000
,
3002
0000
0203
0000
0320
0000
1030
1000
,
0001
0000
0000
0000
0000
0000
0010
0000
0000
0000
0000
0010
0000
0000
0000
0100
0000
0000
0010
0000
0000
0000
0000
0000
,
0001
0000
0000
0000
0000
0000
0100
0000
0000
0000
0000
0100
0000
0000
0000
0010
0000
0000
1000
0000
0010
0000
0000
0000
,
1000
0100
1000
0000
0001
0100
0001
0000
,
0200
0302
0023
0030
,
0001
0000
0000
0000
0000
0000
1000
0000
0000
0000
0000
0010
0000
0000
0000
0000
0000
0000
1000
0000
0000
0000
0000
0001
,
0000
0000
0000
0000
0000
0000
1000
0000
0000
0000
0000
0100
0000
0000
0000
1000
0000
0000
1000
0000
0000
0000
0000
0000
,
0010
0000
0000
0000
0000
0000
0100
0000
0000
0000
0000
0001
0000
0000
0000
0001
0000
0000
0100
0000
0000
0000
0000
0000
,
0010
1010
0100
0101
,
1000
0000
0000
0000
0000
0000
0001
0000
0000
0000
0000
0100
0000
0000
0000
0000
0000
0000
0001
0000
0000
0000
0000
1000
,
0000
0000
0000
0000
0000
0000
0001
0000
0000
0000
0000
0010
0000
0000
0000
0001
0000
0000
0100
0000
0000
0000
0000
0000
,
0010
0000
0000
0000
0000
0000
1000
0000
0000
0000
0000
0100
0000
0000
0000
0100
0000
0000
1000
0000
0000
0000
0000
0000
,
0200
0000
0000
0000
0000
0000
2300
0000
0000
0000
0000
0000
3002
0000
0000
0000
0000
0000
0103
0000
0000
0000
0000
0200
,
0000
0000
0000
0000
0000
0000
0301
0000
0000
0000
0000
0002
0000
0000
0000
0000
0000
0000
0013
0000
0000
0000
0000
0010
,
0001
0000
0000
0000
0000
0000
1000
0000
0000
0000
0000
0010
0100
0000
0000
0100
0000
0000
0001
0000
0000
1000
0000
0000
,
0100
0000
0000
0000
0000
0000
1000
0000
0100
0000
0000
2000
0000
0000
0000
0000
0000
0000
3000
0000
0000
0100
0000
0000
,
0020
0000
0000
0000
0000
0000
0030
0000
0000
0100
0000
0000
2000
0000
0000
0000
0000
0000
3001
0000
0000
0000
0000
0002
,
0000
0000
0000
0000
0000
0000
0103
0000
0000
0000
0000
0200
0000
0000
0000
0000
0000
0000
0310
0000
0000
0000
0000
0010
,
1000
0000
0000
0000
0000
0000
0001
0000
0000
0000
0000
0010
0100
0000
0000
0100
0000
0000
1000
0000
0000
0001
0000
0000
,
0010
0000
0000
0000
0000
0000
0001
0000
1000
0000
0000
0002
0000
0000
0000
0000
0000
0000
0003
0000
0000
0100
0000
0000
,
0020
0000
0030
1000
0200
0000
0300
0000
,
1000
0000
0100
0000
,
0010
0000
0001
0000
,
1000
0000
0000
0000
0000
0000
0000
0000
0010
0000
0100
0000
0001
0000
0000
0000
0000
0000
0000
0000
0000
1000
0000
0000
,
0020
0000
0000
1030
0200
0000
0000
0000
,
0310
0000
0000
0000
0000
0000
0001
1000
0001
1000
0000
0000
,
1000
0100
1000
0000
0010
0100
0010
0000
,
0100
0001
0100
0000
0001
0010
0001
0000
,
1000
1100
0001
0101
,
2000
0000
3200
0000
0320
0000
0031
0100
,
0010
1000
0010
0000
1000
0001
1000
0000
,
0001
0100
0001
0000
0010
0100
0010
0000
,
0110
1001
0002
0023
,
2030
0000
3200
0000
0301
0100
1000
0100
,
0002
0100
2003
0100
,
3002
0010
2003
0001
,
3010
0000
0000
0000
0000
0000
0100
0000
0000
0000
0000
0001
0000
0000
0000
0001
0000
0000
0100
0000
0000
0000
0000
0000
,
0020
0000
2030
0000
3002
0000
0013
0001
,
0200
0001
0320
0100
,
2030
0100
3002
1000
,
0023
0000
0000
0030
,
0110
1001
1001
0110
,
2000
0000
3002
0000
,
0023
0000
0230
0000
,
0000
0000
0300
0000
;
