#TITLE:강남거리;
#SUBTITLE:;
#ARTIST:Orange Caramel;
#TITLETRANSLIT:The Gangnam Avenue;
#SUBTITLETRANSLIT:;
#ARTISTTRANSLIT:;
#GENRE:EURODANCE;
#CREDIT:;
#BANNER:[Deja Vu] - The Gangnam Avenue.png;
#BACKGROUND:[Deja Vu] - The Gangnam Avenue-bg.png;
#LYRICSPATH:;
#CDTITLE:cdtitle.png;
#MUSIC:[Deja Vu] - The Gangnam Avenue.ogg;
#OFFSET:-0.374712;
#SAMPLESTART:30.499998;
#SAMPLELENGTH:13.801428;
#SELECTABLE:YES;
#BPMS:0.000000=140.000000
,68.000000=70.000000
,70.000000=140.000000
;
#STOPS:
;
#BGCHANGES:0.000=[Deja Vu] - The Gangnam Avenue.avi=1.000=0=0=0=StretchNoLoop==CrossFade_Fastest==,
99999=-nosongbg-=1.000=0=0=0 // don't automatically add -songbackground-
;
#KEYSOUNDS:;
#ATTACKS:;

//---------------dance-single - ----------------
#NOTES:
     dance-single:
     :
     Medium:
     6:
     0.348856,0.430712,0.248338,0.223504,0.016556,295.000000,265.000000,30.000000,27.000000,0.000000,0.000000,0.348856,0.430712,0.248338,0.223504,0.016556,295.000000,265.000000,30.000000,27.000000,0.000000,0.000000:
0000
0000
0000
0000
,
0000
0000
0000
0000
,
0000
0000
0000
0000
,
0000
0000
0000
0000
,
0000
0000
0000
0000
,
0000
0000
0000
0000
,
2000
0000
0000
0000
,
3020
0000
0000
0000
,
0230
0000
0000
0000
,
0302
0000
0000
0000
,
1003
0100
1000
0001
,
1000
1000
0010
1000
,
0001
0100
0001
1000
,
0001
0000
0001
0000
0010
0000
0100
1000
,
0001
0000
0000
0000
0100
0000
0010
1000
,
0001
0000
0000
0000
1000
0000
0100
0010
,
0001
0000
0000
0000
1000
0000
0010
0100
,
0002
0000
0000
0003
0001
0000
1000
0000
,
1001
0000
0001
0010
,
0100
0100
1000
0001
,
1001
0000
1000
0010
,
0100
0000
0100
0000
0001
0100
0001
0000
,
0100
0001
0100
0000
0001
1000
0001
0000
,
1000
0001
1000
0000
0002
0000
0023
0000
,
0230
1300
1001
1001
,
2002
3003
1010
1010
,
1010
0000
0000
0000
0000
0000
0000
0000
0010
0000
0000
0100
0000
0000
0001
0000
,
1000
0000
0011
0011
,
0011
0000
0000
0000
0000
0000
0000
0000
0010
0000
0000
0100
0000
0000
1000
0000
,
0001
0000
0000
0000
1000
0100
1000
0000
,
0100
1000
0100
0000
1000
0001
1000
0000
,
0001
1000
0001
0000
2000
0000
3020
0000
,
0230
0301
1001
1001
,
2002
0000
3003
0000
1000
0000
0000
0010
,
1000
0000
0000
0010
1000
0000
0000
0010
,
1000
0000
0000
0000
0001
0000
0000
0010
,
0001
0000
0000
0010
0001
0000
0000
0010
,
0001
0000
1000
1000
,
0100
0100
0010
0010
,
0001
0001
1000
0100
,
0010
0001
0201
0310
,
0120
1030
0010
1000
,
1010
0000
0010
0100
,
0001
1000
0001
0010
,
0011
0000
0001
0010
,
0100
0000
0100
0000
1000
0100
0010
0000
,
0100
0010
0001
0000
0001
0100
0010
0000
,
0100
0010
1000
0000
0020
0000
0230
0000
,
0301
1000
0001
0000
1001
0000
1001
0000
,
2002
3003
0011
1001
,
1010
0000
0000
0000
0000
0000
0000
0000
1000
0000
0000
0010
0000
0000
0100
0000
,
0001
0000
1100
1001
,
0101
0000
0000
0000
0000
0000
0000
0000
0001
0000
0000
0100
0000
0000
0010
0000
,
1000
0000
0010
0000
0100
0001
1000
0000
,
0001
1000
0100
0000
0100
1000
0001
0000
,
1000
0001
0100
0000
0010
0000
1000
0000
,
0001
1000
0001
0000
1001
0000
1001
0000
,
2002
0000
3003
0000
1000
0000
0010
1000
,
0001
0000
1000
0001
0010
0000
0001
0010
,
0100
0000
0010
0001
1000
0000
0001
0100
,
0010
0000
0100
0010
1000
0000
0010
1000
,
0001
0000
1000
0010
0100
0000
0010
1000
,
0001
0000
1000
0001
0010
0000
0001
0010
,
0100
0000
0010
0001
0100
0000
0010
0100
,
0001
0000
0100
0001
2000
0000
3200
0000
,
0320
0000
0031
0100
,
0010
0000
1000
0000
0001
0100
0010
1000
,
0002
0003
1000
0100
,
0010
0000
0001
0000
1000
0100
0010
0001
,
1000
0001
1000
0001
0000
0000
0000
0000
;

//---------------dance-single - ----------------
#NOTES:
     dance-single:
     :
     Easy:
     3:
     0.206949,0.257961,0.033112,0.132447,0.000000,175.000000,171.000000,4.000000,16.000000,0.000000,0.000000,0.206949,0.257961,0.033112,0.132447,0.000000,175.000000,171.000000,4.000000,16.000000,0.000000,0.000000:
0000
0000
0000
0000
,
0000
0000
0000
0000
,
0000
0000
0000
0000
,
0000
0000
0000
0000
,
0000
0000
0000
0000
,
0000
0000
0000
0000
,
0002
0000
0000
0000
,
0023
0000
0000
0000
,
0230
0000
0000
0000
,
2300
0000
0000
0000
,
3100
0000
0100
0000
,
0100
0010
0100
0000
,
1000
0000
1000
0000
,
0001
1000
0001
0000
,
0200
0000
0000
0000
,
0320
0000
0000
0000
,
2030
0000
0000
0000
,
3002
0000
0000
0003
1000
0000
1000
0000
,
1000
0000
1000
0100
,
0010
0010
0001
0001
,
0001
0000
0001
0100
,
0010
0010
1000
0000
,
1000
0000
0001
0000
,
0001
0000
0010
0010
,
0100
0100
1000
0001
,
1001
0000
0001
0100
,
0001
0000
0100
0010
,
1000
0001
1000
0100
,
1000
0000
0100
0010
,
0001
1000
0010
0000
,
0010
0000
0100
0000
,
0100
0000
0001
0001
,
1000
1000
0001
1000
,
1001
0000
0001
0000
,
0001
0000
0001
0001
,
0001
0000
0100
0000
,
0100
0000
0100
0100
,
0100
0000
0010
0000
,
0010
0000
0010
0010
,
0010
0000
1000
0000
,
1000
0000
1000
1000
,
0001
0001
0010
0010
,
0010
0000
0100
0010
,
0001
1000
0010
0010
,
0010
0000
0100
0010
,
1000
0001
2000
0000
,
3200
0000
0320
0000
,
0032
0000
0023
0230
,
2300
3002
1003
0001
,
1001
0000
0100
0100
,
0100
0000
0010
0001
,
1000
0010
0100
0100
,
0100
0000
0010
1000
,
0001
0010
0100
0000
,
0100
0000
1000
0000
,
1000
0000
0010
0010
,
0100
0100
0010
0100
,
0110
0000
0010
0000
,
0010
0000
0100
0000
,
0100
0000
0001
0000
,
0001
0000
1000
0000
,
1000
0000
0100
0000
,
0100
0000
0010
0000
,
0010
0000
0001
0000
,
0001
0000
1000
1000
,
1000
0000
0001
1000
,
0001
1000
0001
0001
,
0001
0000
0100
0010
,
0100
0010
0100
0100
,
0100
0100
0000
0000
;

//---------------dance-single - ----------------
#NOTES:
     dance-single:
     :
     Hard:
     8:
     0.481303,0.545568,0.314562,0.231782,0.103474,407.000000,369.000000,38.000000,28.000000,16.000000,0.000000,0.481303,0.545568,0.314562,0.231782,0.103474,407.000000,369.000000,38.000000,28.000000,16.000000,0.000000:
0000
0000
0000
0000
,
0000
0000
0000
0000
,
0000
0000
0000
0000
,
0000
0000
0000
0000
,
0000
0000
0000
0000
,
0000
0000
0000
0000
,
0002
0000
0000
0000
,
0023
0000
0000
0000
,
0032
0000
0000
0000
,
0203
0000
0000
0000
,
0310
1000
0001
1000
,
0100
1000
0100
0100
0010
0001
0010
0010
,
0001
0010
0001
1000
,
0001
0100
0001
0001
0100
0010
1000
1000
,
0020
0000
0030
0000
1000
0001
1000
0001
,
2000
0000
3000
0000
0001
0010
0001
0010
,
0002
0000
0003
0000
1000
0001
1000
0001
,
2000
0000
0000
3000
0001
0000
101M
0000
,
0001
0010
101M
0000
0010
1000
0010
0100
,
0001
0000
1001
0000
0001
0100
110M
1000
,
0001
0100
110M
0000
1000
0100
0010
0010
,
0001
0000
1001
0000
1000
0010
0001
0001
,
0010
1000
0001
0001
1000
0100
0001
0001
,
0100
0000
1000
0000
0001
0000
0001
0000
0100
0000
0000
0000
0010
0000
0000
0010
,
1000
0100
0010
0001
0011
0000
1010
0000
,
2002
3003
1000
M011
,
1000
0000
0010
0000
M011
0000
0000
0000
0001
0000
0000
0010
0000
0000
0100
0000
,
1000
0000
0001
0001
1000
0000
M101
0000
,
1000
0000
0100
0000
M101
0000
0000
0000
1000
0000
0000
0010
0000
0000
0100
0000
,
0001
0000
1000
1000
0001
0100
1000
1000
,
0100
0001
1000
1000
0001
0010
1000
1000
,
0010
0000
0001
0000
1000
0000
1000
0000
0001
0000
0000
0000
0010
0000
0000
0010
,
0100
1000
0001
0100
0101
0000
1100
0000
,
2002
0000
3003
0000
0001
0100
0001
0000
,
0001
0100
0001
0000
0001
0100
1000
0100
,
0020
0000
0030
0000
1000
0100
1000
0000
,
1000
0100
1000
0000
1000
0100
0001
0100
,
0020
0000
0000
0000
0030
0000
0000
0000
0010
0000
0000
0001
0000
0000
0010
0000
,
0001
0000
0000
1000
0000
0000
0001
0000
1000
0000
0000
0010
0000
0000
1000
0000
,
0020
0000
0000
0000
0100
0000
0100
0000
0130
0000
0000
0010
0000
0000
0100
0000
,
0001
0000
0000
1000
0000
0000
0001
0000
0010
0000
0000
0100
0000
0000
1000
0000
,
0002
0000
1003
1000
0010
0000
M011
0000
,
1000
0010
M011
0000
0001
0010
1000
0010
,
0001
0100
1000
0100
0001
0010
101M
1000
,
0001
0010
101M
0000
1000
0010
0001
0010
,
1000
0010
0100
0000
0201
0000
0010
0000
,
1000
0301
0102
1003
,
1001
0000
1000
0000
0100
0000
0010
0000
0120
0000
0000
0000
0031
0000
0000
0001
,
0010
0100
1000
0001
0101
0000
1100
0000
,
2001
0001
3001
0001
1000
0000
M101
0000
,
1000
0000
0100
0000
M101
0000
0000
0000
0001
0000
0000
0100
0000
0000
0010
0000
,
1000
0000
0001
0001
0100
0000
110M
0000
,
0001
0000
0100
0000
110M
0000
0000
0000
1000
0000
0000
0100
0000
0000
0010
0000
,
0001
0000
1000
1000
0001
0100
0010
0010
,
0100
0010
1000
1000
0010
1000
0001
0001
,
1000
0000
0001
0000
0010
0000
0010
0000
0001
0000
0000
0000
0010
0000
0000
0010
,
0100
1000
0001
0100
0110
0000
1001
0000
,
0220
0000
0000
0000
0330
0000
0000
0000
0001
0000
0000
0001
1000
0000
0010
0000
,
1000
0000
0000
1000
0010
0000
1000
0000
0001
0000
0000
0001
0010
0000
0001
0000
,
0020
0000
0000
0000
0100
0000
0100
0000
0130
0000
0010
0100
0000
0000
1000
0000
,
0001
0000
1000
0001
0000
0000
0100
0000
0010
0000
0100
0010
0000
0000
0100
0000
,
0020
0000
0000
0000
1000
0000
1000
0000
1030
0000
0000
1010
0000
0000
1000
0000
,
0001
0000
0000
1001
0000
0000
0001
0000
0010
0000
0000
0011
0000
0000
0001
0000
,
2000
0000
0000
0000
0001
0000
0001
0000
3001
0000
0100
0001
0000
0000
1000
0000
,
0001
0000
1000
0001
0000
0000
1000
0000
0200
0000
0000
0000
0320
0000
0000
0000
,
0032
0000
0003
0000
1000
0100
1000
0001
,
1000
0010
1000
0100
1000
0010
0100
0001
,
1000
0000
1001
0000
0001
0100
0001
1000
,
0001
0010
0001
0100
0001
0001
0010
0010
,
0100
0100
1000
1000
0000
0000
0000
0000
;
