#VERSION:0.83;
#TITLE:Problem;
#SUBTITLE:;
#ARTIST:Ariana Grande feat. Iggy Azalea;
#TITLETRANSLIT:;
#SUBTITLETRANSLIT:;
#ARTISTTRANSLIT:;
#GENRE:R&B;
#ORIGIN:;
#CREDIT:;
#BANNER:[Deja Vu] - Problem.png;
#BACKGROUND:[Deja Vu] - Problem-bg.png;
#PREVIEWVID:;
#JACKET:[Deja Vu] - Problem-jacket.png;
#CDIMAGE:;
#DISCIMAGE:;
#LYRICSPATH:;
#CDTITLE:;
#MUSIC:[Deja Vu] - Problem.ogg;
#OFFSET:-1.336000;
#SAMPLESTART:110.850998;
#SAMPLELENGTH:15.000000;
#SELECTABLE:YES;
#BPMS:0.000=103.000;
#STOPS:;
#DELAYS:;
#WARPS:;
#TIMESIGNATURES:0.000=4=4;
#TICKCOUNTS:0.000=4;
#COMBOS:0.000=1;
#SPEEDS:0.000=1.000=0.000=0;
#SCROLLS:0.000=1.000;
#FAKES:;
#LABELS:0.000=Song Start;
#BGCHANGES:-2.000=[Deja Vu] - Problem.avi=1.000=0=0=0=StretchNoLoop==CrossFade_Fastest==,
99999=-nosongbg-=1.000=0=0=0 // don't automatically add -songbackground-
;
#KEYSOUNDS:;
#ATTACKS:
;

//---------------dance-single - ----------------
#NOTEDATA:;
#CHARTNAME:;
#STEPSTYPE:dance-single;
#DESCRIPTION:;
#CHARTSTYLE:;
#DIFFICULTY:Beginner;
#METER:1;
#RADARVALUES:0.100485,0.124501,0.000000,0.070339,0.000000,100.000000,100.000000,0.000000,10.000000,0.000000,0.000000,0.000000,0.000000,0.000000,0.100485,0.124501,0.000000,0.070339,0.000000,100.000000,100.000000,0.000000,10.000000,0.000000,0.000000,0.000000,0.000000,0.000000;
#CREDIT:;
#NOTES:
0000
0000
0000
0000
,
0000
0000
0000
0000
,
0000
0000
0000
0000
,
0000
0000
0000
0000
,
1000
0000
0000
0001
,
0001
0000
0000
0100
,
0100
0000
0000
0010
,
0010
0000
0000
1000
,
1000
0000
0000
0001
,
0001
0000
0000
0010
,
0010
0000
0000
0100
,
0100
0000
0000
1000
,
2000
0000
3000
0000
,
0020
0000
0030
0000
,
0200
0000
0300
0000
,
0002
0000
0003
0000
,
1000
0000
1000
0000
,
0010
0000
0010
0000
,
0100
0000
0100
0000
,
0001
0001
0001
0000
,
0001
0000
0001
0000
,
0010
0000
0010
0000
,
0100
0000
0100
0000
,
1000
1000
1000
0000
,
0001
0000
0000
0000
,
0000
0000
0000
0000
,
0001
0000
0001
0000
,
0001
0000
0000
0000
,
1000
0000
1000
0000
,
1000
0000
0000
0000
,
0001
0001
0000
0001
,
0000
0100
0000
0100
,
0000
0010
0000
0010
,
0000
1000
0000
1000
,
0000
1000
0000
1000
,
0000
0100
0000
0100
,
0000
0010
0000
0010
,
0000
0000
0000
0000
,
0002
0000
0003
0000
,
0100
0100
0100
0000
,
0020
0000
0030
0000
,
1000
1000
1000
0000
,
0002
0000
0003
0000
,
0020
0000
0030
0000
,
0200
0000
0300
0000
,
2000
0000
3000
0000
,
0000
0000
0000
0000
,
0001
0000
0001
0000
,
0100
0000
0100
0000
,
0010
0000
0010
0000
,
1000
1000
1000
0000
,
1000
0000
1000
0000
,
0100
0000
0100
0000
,
0010
0000
0010
0000
,
0001
0001
0001
0000
,
0001
0000
0001
0000
,
1000
0000
1000
0000
,
0010
0000
0010
0000
,
0100
0100
0100
0000
,
0100
0000
0000
0000
;

//---------------dance-single - ----------------
#NOTEDATA:;
#CHARTNAME:;
#STEPSTYPE:dance-single;
#DESCRIPTION:;
#CHARTSTYLE:;
#DIFFICULTY:Easy;
#METER:3;
#RADARVALUES:0.191926,0.186751,0.000000,0.042204,0.000000,191.000000,191.000000,0.000000,6.000000,0.000000,0.000000,0.000000,0.000000,0.000000,0.191926,0.186751,0.000000,0.042204,0.000000,191.000000,191.000000,0.000000,6.000000,0.000000,0.000000,0.000000,0.000000,0.000000;
#CREDIT:;
#NOTES:
0000
0000
0000
0000
,
0000
0000
0000
0000
,
0000
0000
0000
0000
,
0000
0000
0000
0000
,
1000
0100
0001
0000
,
0001
0100
1000
1000
,
0001
0100
1000
0000
,
1000
0100
0001
0001
,
1000
0010
0001
0000
,
0001
0010
1000
1000
,
0001
0010
1000
0000
,
1000
0010
0001
0001
,
1000
0010
0100
0000
,
0001
0100
0010
1000
,
0001
0010
0100
0000
,
1000
0100
0010
0001
,
1000
0010
1000
1000
,
0001
0100
0001
0001
,
1000
0100
1000
1000
,
0001
0001
1000
1000
,
0001
0010
0001
0001
,
1000
0100
1000
1000
,
0001
0100
0001
0001
,
1000
1000
0001
0001
,
1000
0000
0000
0000
,
0000
0000
0000
0000
,
1000
0010
0001
0000
,
0001
0010
1000
0000
,
0001
0100
1000
0000
,
1000
0100
0001
0000
,
1000
1000
0100
0100
,
0001
0100
1000
1000
,
0001
0001
0010
0010
,
1000
0010
0001
0001
,
1000
1000
0001
0001
,
0100
0010
1000
1000
,
0001
0001
1000
1000
,
0100
0010
0001
0001
,
2000
0000
0000
3000
,
0010
0010
0100
0100
,
0002
0000
0000
0003
,
0010
0010
0100
0100
,
2000
3000
0002
0003
,
0100
0100
0010
1000
,
0002
0003
2000
3000
,
0100
0100
0010
0001
,
1000
0000
0000
0000
,
0001
0010
0001
0001
,
1000
0100
1000
1000
,
0001
0100
0001
0001
,
1000
1000
0001
0001
,
1000
0010
1000
1000
,
0001
0100
0001
0001
,
1000
0100
1000
1000
,
0001
0001
1000
1000
,
0001
0100
0010
0010
,
1000
0010
0100
0100
,
0001
0010
0100
0100
,
1000
1000
0001
0001
,
0100
0000
0000
0000
;

//---------------dance-single - ----------------
#NOTEDATA:;
#CHARTNAME:;
#STEPSTYPE:dance-single;
#DESCRIPTION:;
#CHARTSTYLE:;
#DIFFICULTY:Medium;
#METER:5;
#RADARVALUES:0.277338,0.292963,0.063305,0.211018,0.052754,276.000000,267.000000,9.000000,30.000000,0.000000,0.000000,0.000000,0.000000,0.000000,0.277338,0.292963,0.063305,0.211018,0.052754,276.000000,267.000000,9.000000,30.000000,0.000000,0.000000,0.000000,0.000000,0.000000;
#CREDIT:;
#NOTES:
// measure 0
0000
0000
0000
0000
,  // measure 1
0000
0000
0000
0000
,  // measure 2
0000
0000
0000
0000
,  // measure 3
0000
0000
0000
0000
,  // measure 4
1000
0000
0001
0000
0100
0010
0100
0000
,  // measure 5
0001
1000
0001
0000
0010
0100
1000
0000
,  // measure 6
0001
0000
1000
0000
0100
0010
0100
0000
,  // measure 7
1000
0001
1000
0000
0010
0100
0001
0000
,  // measure 8
1000
0100
0001
0000
0001
0100
1000
0000
,  // measure 9
0001
0010
1000
0000
1000
0010
0001
0000
,  // measure 10
1000
0000
0001
0000
0010
0100
0010
0000
,  // measure 11
0001
1000
0001
0000
0100
0010
1000
0000
,  // measure 12
0002
0000
0100
0000
0103
0000
0010
1000
,  // measure 13
0001
0000
0010
0100
2000
0000
3001
0000
,  // measure 14
2000
0000
0100
0000
3100
0000
0010
0001
,  // measure 15
1000
0000
0010
0100
0002
0000
1003
0000
,  // measure 16
0001
0000
0000
0100
0000
0000
0010
0000
0000
0000
0100
0000
0001
0000
0000
0000
,  // measure 17
1000
0000
0000
0100
0000
0000
0010
0000
0000
0000
0100
0000
1000
0000
0000
0000
,  // measure 18
0001
0000
0000
0010
0000
0000
0100
0000
0000
0000
0010
0000
0001
0000
0000
0000
,  // measure 19
1000
0010
1000
0000
0001
0100
0001
0000
,  // measure 20
1000
0000
0000
0100
0000
0000
0010
0000
0000
0000
0100
0000
1000
0000
0000
0000
,  // measure 21
0001
0000
0000
0100
0000
0000
0010
0000
0000
0000
0100
0000
0001
0000
0000
0000
,  // measure 22
1000
0000
0000
0001
0000
0000
0010
0000
0000
0000
0100
0000
1000
0000
0000
0000
,  // measure 23
0001
0010
0001
0000
1000
0100
1000
0000
,  // measure 24
2002
0000
0000
0000
,  // measure 25
0000
0000
0000
3003
,  // measure 26
0001
0000
0101
0000
0010
1000
0001
0000
,  // measure 27
1000
0000
1100
0000
0010
0001
1000
0000
,  // measure 28
0001
0000
0011
0000
0100
1000
0001
0000
,  // measure 29
1000
0000
1010
0000
0100
0001
1000
0000
,  // measure 30
0001
0100
0001
0000
1000
0100
1000
0000
,  // measure 31
0001
0010
0001
0000
1000
0010
1000
0000
,  // measure 32
0001
0100
0010
0000
1000
0100
0010
0000
,  // measure 33
0001
1000
0010
0000
0100
0001
1000
0000
,  // measure 34
0001
0100
0010
1000
0000
1000
0001
0000
,  // measure 35
1000
0100
0010
0001
0000
0001
1000
0000
,  // measure 36
0001
1000
0100
0000
0010
0001
1000
0000
,  // measure 37
0001
0100
0010
1000
,  // measure 38
2002
0000
0000
3003
,  // measure 39
0002
2003
3020
0130
,  // measure 40
2002
0000
0000
3003
,  // measure 41
2000
3002
0023
0130
,  // measure 42
2000
0000
3002
0000
,  // measure 43
0203
0320
2030
3001
,  // measure 44
0002
0000
2003
0000
,  // measure 45
3200
0320
0032
1003
,  // measure 46
2002
0000
0000
3003
,  // measure 47
0001
0000
0000
0100
0000
0000
0010
0000
0000
0000
1000
0000
0001
0000
0000
0000
,  // measure 48
1000
0000
0000
0010
0000
0000
0100
0000
0000
0000
0001
0000
0100
0000
0010
0000
,  // measure 49
1000
0000
0000
0001
0000
0000
0010
0000
0000
0000
0100
0000
1000
0000
0000
0000
,  // measure 50
0001
0100
0001
0100
0010
1000
0010
0000
,  // measure 51
1000
0000
0000
0100
0000
0000
0010
0000
0000
0000
0001
0000
1000
0000
0000
0000
,  // measure 52
0001
0000
0000
0010
0000
0000
0100
0000
0000
0000
1000
0000
0100
0000
0010
0000
,  // measure 53
0001
0000
0000
1000
0000
0000
0010
0000
0000
0000
0100
0000
0001
0000
0000
0000
,  // measure 54
1000
0100
1000
0100
0010
0001
0010
0000
,  // measure 55
0001
0000
0000
0010
0000
0000
0100
0000
0000
0000
1000
0000
0001
0000
0000
0000
,  // measure 56
1000
0000
0000
0100
0000
0000
0010
0000
0000
0000
0001
0000
0010
0000
0100
0000
,  // measure 57
1000
0000
0000
0001
0000
0000
0100
0000
0000
0000
0010
0000
1000
0000
0000
0000
,  // measure 58
0001
0010
0001
0010
0100
1000
0001
0000
,  // measure 59
2002
0000
3003
0000
;

//---------------dance-single - ----------------
#NOTEDATA:;
#CHARTNAME:;
#STEPSTYPE:dance-single;
#DESCRIPTION:;
#CHARTSTYLE:;
#DIFFICULTY:Hard;
#METER:7;
#RADARVALUES:0.411987,0.418519,0.147713,0.218052,0.225086,410.000000,389.000000,21.000000,31.000000,0.000000,0.000000,0.000000,0.000000,0.000000,0.411987,0.418519,0.147713,0.218052,0.225086,410.000000,389.000000,21.000000,31.000000,0.000000,0.000000,0.000000,0.000000,0.000000;
#CREDIT:;
#NOTES:
0000
0000
0000
0000
,
0000
0000
0000
0000
,
0000
0000
0000
0000
,
0000
0000
0000
0000
,
2010
0000
0000
0000
3001
0000
0000
1000
0000
0100
1000
0000
0001
0000
0100
0000
,
0101
0000
0000
0000
1010
0000
0000
1000
0000
0001
0100
0000
0001
0000
0000
0000
,
0012
0000
0000
0000
1003
0000
0000
0001
0000
0100
0001
0000
1000
0000
0100
0000
,
1100
0000
0000
0000
0011
0000
0000
0001
0000
1000
0100
0000
1000
0000
0000
0000
,
0012
0000
0000
0000
0103
0000
0000
0001
1000
0000
0001
0000
0100
0000
0010
0000
,
2010
0000
0000
0000
3100
0000
0000
1000
0001
0000
1000
0000
0100
0000
0000
0000
,
2100
0000
0000
0000
3001
0000
0000
1000
0000
0010
1000
0000
0001
0000
0010
0000
,
0011
0000
0000
0000
1100
0000
0000
1000
0000
0001
0010
0000
0001
0000
0000
0000
,
1001
0000
0000
1000
0010
0000
0200
0000
0000
0000
0001
0000
0301
0000
0000
0001
,
1000
0000
0000
1000
0100
0000
0020
0000
0000
0000
0001
0000
0031
0000
1000
0000
,
0001
0000
0000
0001
0010
0000
0200
0000
0000
0000
1000
0000
1300
0000
0000
1000
,
0001
0000
0000
0001
0100
0000
0020
0000
0000
0000
1000
0000
1030
0000
0001
0000
,
2000
0000
0000
0100
0000
0000
0100
0000
3100
0000
1000
0000
0001
0000
0010
0000
,
0002
0000
0000
0100
0000
0000
0100
0000
0103
0000
0001
0000
1000
0000
0010
0000
,
0200
0000
0000
0010
0000
0000
0010
0000
0310
0000
0100
0000
0001
0000
1000
0000
,
0001
0010
1000
0010
0001
0100
0010
1000
,
0001
0000
0100
0010
0000
0100
0001
0000
1000
0000
0100
0000
0001
0000
0100
0000
,
1000
0000
0001
0000
0100
0000
0010
1000
0000
1000
0100
0000
0010
0000
0001
0000
,
1000
0000
0100
0010
0000
0100
1000
0000
0001
0000
0100
0000
1000
0000
0100
0000
,
0001
0010
1000
0010
0001
0100
0010
1000
,
2002
0000
0000
3000
,
0200
0000
0000
0303
,
1001
0000
0000
1000
0010
0000
0100
0000
0001
0000
1000
0000
0100
0000
0010
0001
,
0010
0000
0000
0001
1000
0000
0100
0000
0001
0000
0100
0000
1000
0000
0000
0000
,
1001
0000
0000
0001
0010
0000
0100
0000
1000
0000
0001
0000
0100
0000
0010
1000
,
0010
0000
0000
1000
0001
0000
0100
0000
1000
0000
0100
0000
0001
0000
1000
0000
,
0001
0010
1000
0010
0001
0100
1000
0100
,
0001
0000
0010
0000
0100
0000
1000
0000
0010
0000
0100
0000
0001
0000
1000
0001
,
1000
0010
0001
0010
1000
0100
0001
0100
,
1000
0000
0010
0000
0100
0000
0001
0000
1000
0100
1000
0100
1000
0000
0001
0000
,
1000
0000
0010
0100
0000
0010
1000
0000
0001
0000
0010
0000
1000
0000
0010
0000
,
0001
0000
1000
0000
0100
0000
0010
0001
0000
0001
1000
0000
0010
0000
0100
0000
,
0001
0000
0010
0100
0000
0010
0001
0000
1000
0000
0010
0000
0001
0000
0010
0000
,
2000
0000
3002
0000
0103
0010
1000
0000
,
2002
0000
0000
3003
,
0001
0010
1000
0010
0001
0100
0010
0000
,
2002
0000
0000
3003
,
1000
0010
0001
0010
1000
0100
0010
0000
,
0022
0030
2000
3003
,
0001
0010
1000
0010
0001
0100
0010
0000
,
2020
0030
0002
3003
,
1000
0010
0001
0010
1000
0100
0010
0000
,
2002
0000
0000
3003
,
0001
0000
1000
0100
0000
1000
0010
0000
0100
0000
0001
0000
0010
0000
1000
0000
,
0010
0000
0001
0000
1000
0000
0010
0100
0000
0100
0001
0000
1000
0000
0100
0000
,
0010
0000
0001
1000
0000
0001
0100
0000
0010
0000
1000
0000
0100
0000
0010
0000
,
0001
0000
0100
0000
1000
0000
0100
0000
0001
0000
0010
0000
0100
0000
1000
0100
,
1000
0000
0001
0100
0000
0001
0010
0000
0100
0000
1000
0000
0010
0000
0001
0000
,
0010
0000
1000
0000
0001
0000
0010
0100
0000
0100
1000
0000
0001
0000
0100
0000
,
0010
0000
1000
0001
0000
1000
0100
0000
0010
0000
0001
0000
0100
0000
0010
0000
,
1000
0000
0100
0000
0001
0000
0100
0000
1000
0000
0010
0000
0100
0000
0001
0100
,
0001
0000
1000
0010
0000
0100
0010
0000
1000
0000
0100
0000
0001
0000
0100
0000
,
1000
0000
0010
0000
0100
0000
0001
1000
0000
1000
0100
0000
0001
0000
0100
0000
,
1000
0000
0001
0010
0000
0100
0010
0000
0001
0000
0100
0000
1000
0000
0100
0000
,
0001
0010
1000
0010
0001
0100
0010
1000
,
2002
0000
3003
0000
;

//---------------dance-single - ----------------
#NOTEDATA:;
#CHARTNAME:;
#STEPSTYPE:dance-single;
#DESCRIPTION:;
#CHARTSTYLE:;
#DIFFICULTY:Challenge;
#METER:9;
#RADARVALUES:0.562715,0.585926,0.168814,0.133645,0.499409,560.000000,536.000000,24.000000,19.000000,0.000000,0.000000,0.000000,0.000000,0.000000,0.562715,0.585926,0.168814,0.133645,0.499409,560.000000,536.000000,24.000000,19.000000,0.000000,0.000000,0.000000,0.000000,0.000000;
#CREDIT:;
#NOTES:
0000
0000
0000
0000
,
0000
0000
0000
0000
,
0000
0000
0000
0000
,
0000
0000
0000
0000
,
1000
0000
0001
0100
0001
0000
1000
0010
1000
0000
0001
0000
1000
0000
0100
0010
,
0001
0000
1000
0000
0001
0100
0010
0000
1000
0000
1100
0000
0010
0000
0011
0000
,
0001
0000
1000
0100
1000
0000
0001
0010
0001
0000
1000
0000
0001
0000
0100
0010
,
1000
0000
0001
0000
1000
0100
0010
0000
0001
0000
0101
0000
0010
0000
1010
0000
,
1000
0000
0100
0000
0001
0000
0100
0000
1000
0001
0100
0000
0010
0000
1000
0000
,
0001
0000
0100
0000
1000
0000
0100
0000
0001
1000
0100
0000
0010
0000
0001
0000
,
1000
0000
0001
0010
0001
0000
1000
0100
1000
0000
0001
0000
1000
0000
0010
0100
,
0001
0000
1000
0000
0001
0010
0100
0000
1000
0000
1010
0000
0100
0000
0101
0000
,
0001
0000
0010
0001
0010
0000
0100
0000
1000
0000
0010
0000
0001
0000
0010
1000
,
0001
0000
0100
0001
0100
0000
0010
0000
1000
0000
0001
0000
0010
0000
0100
0000
,
1000
0000
0010
1000
0010
0000
0100
0000
0001
0000
0010
0000
1000
0000
0010
0001
,
1000
0000
0100
1000
0100
0000
0010
0000
0001
0100
0010
0000
1000
0100
0010
0000
,
0001
0000
0100
0000
1000
0000
0100
0001
0000
0001
1000
0000
0010
0000
0100
0000
,
0001
0000
0010
0000
1000
0000
0010
0001
0000
0001
1000
0000
0010
0100
0001
0000
,
1000
0000
0100
0000
0001
0000
0100
1000
0000
1000
0001
0000
0010
0100
1000
0000
,
0001
0000
0101
0000
0010
0000
1010
0000
1001
0000
0001
0100
0001
0100
0010
1000
,
0001
0000
1000
0100
1000
0000
0001
0100
0000
0100
0010
0000
1000
0001
1000
0000
,
0100
0000
0010
0001
0010
0001
1000
0100
0000
1000
0100
0000
0010
0000
0001
0000
,
1000
0000
0001
0100
0001
0000
1000
0100
0000
0100
0010
0000
0001
1000
0001
0000
,
1000
0000
1100
0000
0010
0000
0011
0000
1001
0000
1000
0100
1000
0100
0010
0001
,
2000
0000
0000
0010
0000
0000
3020
0000
0000
0000
0230
0000
0000
0001
0000
0000
,
0302
0000
0000
0010
0000
0000
0023
0000
0000
0000
0230
0000
0000
1000
0000
0000
,
1300
0000
0001
1000
0001
0000
0010
0000
0100
0000
1000
0100
1000
0000
0001
1000
,
0001
0000
0100
0001
0100
0000
0010
0000
1000
0001
1000
0000
0001
0000
0100
0000
,
0001
0000
1000
0001
1000
0000
0010
0000
0100
0000
0001
0100
0001
0000
1000
0001
,
1000
0000
0100
1000
0100
0000
0010
0000
0001
1000
0001
0000
1000
0000
0100
0000
,
1000
0000
0001
0100
0001
0000
1000
0010
1000
0000
0001
0010
0100
0000
0010
0000
,
0001
0000
1000
0010
1000
0000
0001
0010
0001
0000
1000
0100
0010
0001
1000
0000
,
0001
0000
1000
0100
1000
0000
0001
0010
0001
0000
1000
0010
0100
0000
0010
0000
,
1000
0000
0001
0010
0001
0000
1000
0010
0000
1000
0100
0010
0001
0010
0100
1000
,
0001
0000
0100
0010
0100
0000
0001
1000
0100
0000
1000
0001
0010
0000
0001
0000
,
1000
0000
0001
0100
0001
0000
1000
0100
0010
0000
0001
0100
0010
0000
1000
0001
,
1000
0000
0100
0010
0100
0000
1000
0001
0100
0000
0001
1000
0010
0000
1000
0000
,
0001
0000
0100
0000
1000
0000
0100
0000
0001
0000
1000
0100
0000
0100
0010
0000
,
0002
0000
0000
0100
0000
0000
0203
0000
0000
0000
0320
0000
0000
1000
0000
0000
,
1030
0100
0001
0010
1000
0100
0010
0001
,
2000
0000
0000
0100
0000
0000
3200
0000
0000
0000
0320
0000
0000
0001
0000
0000
,
0031
0100
1000
0010
0001
0100
0010
1000
,
0002
0000
0000
0100
0000
0000
0100
0000
0203
0000
0000
1000
0000
0000
1000
0000
,
1300
0000
0100
0000
0001
0000
0010
0000
1000
0000
0010
0000
0001
0000
1000
0001
,
2000
0000
0000
0100
0000
0000
0100
0000
3200
0000
0000
0001
0000
0000
0001
0000
,
0301
0000
0100
0000
1000
0000
0010
0000
0001
0000
0010
0000
1000
0000
0001
2000
,
0002
0000
0000
0000
0000
0000
0000
3003
,
1000
0000
0001
0100
0010
0000
1000
0010
0000
0010
0100
0000
0001
1000
0100
0000
,
1000
0000
0001
0000
0100
0010
1000
0010
1000
0000
0001
0000
0010
0100
1000
0000
,
0001
0000
0100
0010
1000
0000
0001
1000
0000
1000
0010
0000
0100
0001
1000
0000
,
0001
0000
0011
0000
0110
0000
1100
0000
1001
0000
0001
0100
0010
1000
0100
0010
,
0001
0000
1000
0100
0010
0000
0001
0010
0000
0010
0100
0000
1000
0001
0100
0000
,
0001
0000
1000
0000
0100
0010
0001
0010
0001
0000
1000
0000
0010
0100
0001
0000
,
1000
0000
0100
0010
0001
0000
1000
0001
0000
0001
0010
0000
0100
1000
0001
0000
,
1000
0000
1010
0000
0110
0000
0101
0000
1001
0000
1000
0100
0010
0001
0100
0010
,
1000
0000
0001
0100
0001
0000
1000
0100
0010
0001
1000
0000
0010
0100
0010
0000
,
1000
0000
0001
0000
0100
0001
0100
0010
1000
0000
0001
0000
0010
0100
1000
0000
,
0001
0000
1000
0100
1000
0000
0001
0100
0010
1000
0001
0000
0010
0100
1000
0000
,
0001
0000
0101
0000
0110
0000
1010
0000
1001
0000
0001
1000
0100
0010
0001
0100
,
0020
0000
0030
0000
;
