#TITLE:Papaoutai;
#SUBTITLE:;
#ARTIST:Pentatonix ft. Lindsey Stirling;
#TITLETRANSLIT:;
#SUBTITLETRANSLIT:ft. Lindsey Stirling;
#ARTISTTRANSLIT:Pentatonix;
#GENRE:POP-CAPELLA;
#CREDIT:;
#BANNER:[Chordophones] - Papaoutai.png;
#BACKGROUND:[Chordophones] - Papaoutai-bg.png;
#LYRICSPATH:;
#CDTITLE:CDtitle.png;
#MUSIC:[Chordophones] - Papaoutai.ogg;
#OFFSET:0.000000;
#SAMPLESTART:34.754498;
#SAMPLELENGTH:16.330000;
#SELECTABLE:YES;
#DISPLAYBPM:117.000000;
#BPMS:0.000000=117.134308
,24.000000=117.094315
,35.000000=121.000000
,36.000000=116.949997
,60.000000=116.550003
,63.000000=117.000000
,66.000000=58.500000
,66.500000=117.000000
,67.000000=120.000000
,68.000000=117.000000
,130.000000=113.000000
,131.000000=116.000000
,139.000000=117.222435
,147.000000=117.136307
,160.500000=130.000000
,161.000000=117.000000
,163.000000=117.176369
,179.000000=116.900002
,191.000000=117.000000
,192.000000=113.000000
,193.000000=58.500000
,193.500000=120.279984
,194.000000=117.000000
,226.000000=116.699997
;
#STOPS:66.500000=0.256409,
193.500000=0.240000
;
#BGCHANGES:4.000=[Chordophones] - Papaoutai.avi=1.000=0=0=1=====,
239.500=[Chordophones] - Papaoutai-bg.png=1.000=0=0=1=====,
99999=-nosongbg-=1.000=0=0=0 // don't automatically add -songbackground-
;
#KEYSOUNDS:;
#ATTACKS:;

//---------------dance-single - ----------------
#NOTES:
     dance-single:
     :
     Challenge:
     9:
     0.577909,0.706857,0.070833,0.354166,0.665045,514.000000,505.000000,9.000000,45.000000,0.000000,0.000000,0.577909,0.706857,0.070833,0.354166,0.665045,514.000000,505.000000,9.000000,45.000000,0.000000,0.000000:
// measure 0
0000
0000
0000
0000
,  // measure 1
0001
0000
0010
0100
0000
0010
0001
0000
0010
0000
0000
0000
0100
0000
0010
0000
,  // measure 2
0001
0000
0100
0010
0000
0100
0001
0000
0100
0000
0000
0000
0010
0000
1000
0000
,  // measure 3
0010
0000
0100
0001
0000
0100
0000
0010
0000
1000
0000
0000
0001
0000
0010
0000
,  // measure 4
0100
0000
1000
0100
0000
0010
0000
0100
0000
1000
0000
0000
0001
0000
0100
0000
,  // measure 5
0010
0000
1000
0001
0000
0001
0010
0000
0100
0000
0000
0000
0010
0000
0010
0000
,  // measure 6
0001
0000
0001
1000
0000
1000
0010
0000
0100
0000
0000
0000
0010
0000
1000
0000
,  // measure 7
0100
0000
0100
0010
0000
0010
0001
1000
0001
0000
0000
0000
1000
0000
1000
0000
,  // measure 8
0001
0100
0010
1000
0000
1000
0001
0000
0001
0000
0000
0000
1000
0000
0010
0000
,  // measure 9
0110
0000
1000
0001
0000
0010
0100
0000
0200
0000
0000
1000
0300
0000
1000
0000
,  // measure 10
0001
0000
0100
0010
0000
1000
0001
0000
0002
0000
0000
0010
0000
0000
0013
0000
,  // measure 11
0002
0000
0000
1003
0000
0001
0100
0000
0010
0100
0000
0002
0000
0000
0013
0000
,  // measure 12
0100
0000
0010
0001
0000
1000
0100
0000
0200
0000
0310
0000
0001
0000
0100
0000
,  // measure 13
0110
0000
0001
1000
0000
0100
0010
0000
0020
0000
0032
0000
0000
0000
0003
0000
,  // measure 14
1001
0000
0001
0100
0000
0001
1000
0000
0020
0000
0000
0000
0100
0000
0130
0000
,  // measure 15
0001
0000
0000
2001
0000
0000
3001
0000
0010
0000
1000
0000
0010
0000
0001
0000
,  // measure 16
0100
0000
0000
0010
0000
1000
0001
0000
0020
0000
0130
0000
2100
0000
0000
3001
,  // measure 17
0010
0000
2000
0000
3010
0001
0000
0001
0100
0000
0010
0000
1000
0000
0000
0001
,  // measure 18
0100
0000
2000
0000
3100
0001
0000
0001
0010
0000
0100
0000
1000
0000
0000
0001
,  // measure 19
0010
0000
2000
0000
3010
0001
0000
0001
0100
0000
0010
0000
1000
0000
1000
0000
,  // measure 20
0001
0000
0001
0000
0010
0100
0000
0100
0010
0000
0010
0000
0001
0000
0000
1000
,  // measure 21
0010
0000
0002
0000
0013
1000
0000
1000
0100
0000
0010
0000
0001
0000
0000
1000
,  // measure 22
0100
0000
0002
0000
0103
1000
0000
1000
0010
0000
0100
0000
0001
0000
0000
1000
,  // measure 23
0010
0000
0002
0000
0013
1000
0000
1000
0100
0000
0010
0000
0001
0000
0001
0000
,  // measure 24
1000
0000
1000
0000
0010
0100
0000
0100
0010
0000
0010
0000
1000
0010
0000
0010
,  // measure 25
1000
0000
0001
0000
0010
0100
0010
0100
0020
0000
0030
0000
0001
0010
0000
0010
,  // measure 26
0001
0000
1000
0100
0010
0000
0001
0000
0200
0000
0000
0000
0301
1000
0000
1000
,  // measure 27
0001
0000
0010
0000
0100
1000
0100
1000
0200
0000
0000
0000
1300
0000
0100
0000
,  // measure 28
1000
0000
0010
0000
1000
0100
0010
0001
2000
0000
0000
0000
3001
0010
0000
0010
,  // measure 29
0001
0000
1000
0000
0001
0100
0010
0100
0002
0000
0000
0000
1003
0010
0000
0010
,  // measure 30
0100
0000
0010
1000
0001
0000
0010
0000
0200
0000
0000
0000
1300
0001
0000
0001
,  // measure 31
1000
0000
0001
0000
0010
0100
1000
0100
0010
0000
0001
0000
1000
0000
0010
0000
,  // measure 32
0100
0000
0001
0000
0010
0100
1000
0001
0200
0000
0000
0000
0310
0000
0000
0010
,  // measure 33
0000
0000
1000
0000
0000
0000
0000
0000
0000
0000
0000
0000
0100
0000
0000
0100
,  // measure 34
0000
0000
0010
0000
0000
0000
0000
0000
0000
0000
0000
0000
0001
0000
0000
0001
,  // measure 35
0000
0000
1000
0000
0000
0000
0000
0000
0000
0000
1000
0000
0010
0000
0000
0010
,  // measure 36
0000
0000
0001
0000
0000
0000
0000
0000
0000
0000
0000
0000
0010
0000
0000
0010
,  // measure 37
0000
0000
1000
0000
0000
0000
0000
0000
0000
0000
0000
0000
0001
0000
0000
0001
,  // measure 38
0000
0000
0010
0000
0000
0000
0000
0000
0000
0000
0000
0000
0001
0000
0000
0001
,  // measure 39
0000
0000
1000
0000
0000
0000
1000
0000
0000
0010
0000
0000
0100
0000
0000
0001
,  // measure 40
0000
0000
1000
0000
0200
0000
0320
0000
0032
0000
1003
0000
1001
0000
1000
0001
,  // measure 41
0000
0010
0100
0000
0200
0000
0000
0000
0310
0000
0010
0000
0001
0000
1000
0001
,  // measure 42
0000
0100
0010
0000
0020
0000
0000
0000
1030
0000
1000
0000
0001
0000
0000
0100
,  // measure 43
0000
0010
1000
0000
0001
1000
0000
0200
0000
0000
0310
0000
0100
0000
1000
0010
,  // measure 44
0000
0100
0001
0000
0002
0000
0000
0000
1003
0000
1000
0000
0001
0000
1000
0001
,  // measure 45
0000
0010
0100
0000
0200
0000
2300
0000
0000
0000
3000
0000
0001
0000
1000
0001
,  // measure 46
0000
0100
0010
0000
2000
0000
0000
0000
0100
0000
3100
0000
0010
0000
0000
0002
,  // measure 47
0000
0000
1003
0000
0001
0000
0001
0000
0100
0000
0010
0000
1000
0000
0000
0001
,  // measure 48
0000
0010
0100
0000
2000
0000
3001
0000
1000
0100
1000
0000
0001
0100
0001
0000
,  // measure 49
1000
0000
0100
0010
0001
0010
0200
0000
1300
0100
1000
0000
0001
0010
0001
0000
,  // measure 50
0100
0000
0010
0100
0001
1000
0100
0000
0010
0100
0010
0000
0001
1000
0001
0000
,  // measure 51
0100
0010
1000
0000
0010
0100
0001
0000
1000
0001
0010
0000
0001
1000
0100
0000
,  // measure 52
0010
0001
0010
0100
1000
0001
2000
0000
3001
0010
0100
0000
0010
0001
0100
0000
,  // measure 53
0010
0000
1000
0001
0100
0001
1000
0010
0200
0000
0310
1000
0001
0000
0010
0001
,  // measure 54
1000
0000
0100
0010
0001
0010
0100
1000
0002
0000
1003
0010
0100
0001
0100
0010
,  // measure 55
2000
0000
3001
0010
0100
1000
0100
0010
0002
0000
1003
0001
0100
0001
1000
0100
,  // measure 56
0010
0001
0010
1000
0010
0000
0010
0000
0001
0000
1000
0100
0000
0001
1000
0200
,  // measure 57
0000
1300
0100
0010
0001
0000
0001
0000
0001
0000
1000
0010
0000
0001
1000
0020
,  // measure 58
0000
1030
0010
0100
0001
0000
0001
0000
0001
0000
1000
0100
0000
0001
1000
0020
,  // measure 59
0000
0130
0001
1000
0100
0000
0100
0000
0110
0000
0000
1100
0000
0000
0101
0000
;

//---------------dance-single - ----------------
#NOTES:
     dance-single:
     :
     Hard:
     1:
     0.382275,0.541923,0.023611,0.000000,0.326620,340.000000,337.000000,3.000000,0.000000,0.000000,0.000000,0.382275,0.541923,0.023611,0.000000,0.326620,340.000000,337.000000,3.000000,0.000000,0.000000,0.000000:
// measure 0
0000
0000
0000
0000
,  // measure 1
0001
0000
0000
0001
0000
0000
0001
0000
0000
0001
0000
0000
1000
0000
0000
0000
,  // measure 2
1000
0000
0000
1000
0000
0000
1000
0000
0000
1000
0000
0000
0010
0000
0000
0000
,  // measure 3
0010
0000
0000
0010
0000
0000
0010
0000
0000
0010
0000
0000
0100
0000
0000
0000
,  // measure 4
0100
0000
0000
0100
0000
0000
0100
0000
0000
0100
0000
0000
0001
0000
0000
0000
,  // measure 5
0001
0000
0000
0001
0000
0000
0001
0000
0000
0001
0000
0000
0001
0000
0000
0000
,  // measure 6
0100
0000
0000
0100
0000
0000
0100
0000
0000
0100
0000
0000
1000
0000
0000
0000
,  // measure 7
1000
0000
0000
1000
0000
0000
1000
0000
0000
1000
0000
0000
0010
0000
0000
0000
,  // measure 8
0010
0000
0000
0010
0000
0000
0010
0000
0000
0010
0000
0000
0100
0000
0001
0000
,  // measure 9
0100
0000
0000
0010
0000
0000
0010
0000
1000
0001
0000
1000
0000
0000
1000
0000
,  // measure 10
0001
0000
0000
0010
0000
0000
0010
0000
0001
1000
0000
0001
0000
0000
0001
0000
,  // measure 11
0100
0000
0000
0010
0000
0000
0010
0000
1000
0001
0000
1000
0000
0000
1000
0000
,  // measure 12
0100
0000
0000
0010
0000
0000
0010
0000
0001
1000
0000
0001
0000
0000
1000
0000
,  // measure 13
0010
0000
0000
0100
0000
0000
0100
0000
0010
0100
0000
0010
0000
0000
1000
0000
,  // measure 14
0001
0000
0000
0010
0000
0000
0100
0000
1000
0001
0000
1000
0001
0000
1000
0000
,  // measure 15
0010
0000
0000
0100
0000
0000
0010
0000
1000
0001
0000
1000
0000
0000
0001
0000
,  // measure 16
0010
0000
0000
0100
0000
0000
0010
0000
0110
0000
1000
0000
1001
0000
0000
0000
,  // measure 17
0001
0100
0001
1000
,  // measure 18
0001
1000
0001
1000
,  // measure 19
0100
1000
0100
0010
,  // measure 20
0100
0010
0100
0001
,  // measure 21
0010
0001
0010
0100
,  // measure 22
1000
0100
1000
0001
,  // measure 23
0100
0001
0100
0010
,  // measure 24
1000
0010
1000
0001
,  // measure 25
0001
1000
1000
0001
,  // measure 26
0001
0010
0100
1000
,  // measure 27
1000
0010
0010
1000
,  // measure 28
1000
0010
1000
0001
,  // measure 29
0001
0100
0100
0001
,  // measure 30
0001
0100
0001
1000
,  // measure 31
1000
0001
0001
1000
,  // measure 32
0001
0000
0000
0000
0000
0000
0000
0000
1000
0000
0000
0010
0000
0000
1000
0000
0010
0000
0000
0000
0100
0000
0000
0000
0010
0000
0000
0000
1000
0000
0010
0000
,  // measure 33
0000
1000
0010
0000
0010
0000
0000
0000
0010
0000
0000
0000
0100
0000
0100
0001
,  // measure 34
0000
0100
0001
0000
0001
0000
0000
0000
0000
0000
0000
0000
0001
0000
0000
1000
,  // measure 35
0000
0100
1000
0000
0001
1000
0000
0100
0000
0000
1000
0000
0010
0000
0100
0010
,  // measure 36
0000
0100
0010
0000
0010
0000
0000
0000
0000
0000
0000
0000
1000
0000
0001
0100
,  // measure 37
0000
0001
1000
0000
0001
0000
1000
0000
0000
0000
0000
0000
0001
0000
0010
0100
,  // measure 38
0000
1000
0100
0000
0010
0000
0000
0000
0001
0000
1000
0000
0001
0000
0000
0100
,  // measure 39
0000
0000
0010
0000
1000
0000
0001
0000
1000
0000
0001
0000
1000
0000
0000
0001
,  // measure 40
0000
1000
0001
0000
0100
0000
0010
0000
1000
0000
0001
0000
1001
0000
1000
0001
,  // measure 41
0000
1000
0001
0000
0100
0000
0000
0000
0010
0000
0010
0000
0010
0000
1000
0001
,  // measure 42
0000
1000
0001
0000
0100
0000
0000
0000
0010
0000
0010
0000
0010
0000
0000
1000
,  // measure 43
0000
0001
0100
0000
0001
1000
0000
0100
0000
0000
1000
0000
0100
0000
1000
0001
,  // measure 44
0000
1000
0100
0000
1000
0000
0001
0000
0010
0000
0100
0000
1000
0000
0000
0000
,  // measure 45
1000
0001
0001
1000
,  // measure 46
0001
1000
0001
1000
,  // measure 47
0001
1000
0001
1000
,  // measure 48
0001
0000
0100
0010
1000
0000
0001
0000
,  // measure 49
1000
0001
1000
0001
,  // measure 50
1000
0001
1000
0001
,  // measure 51
1000
0001
1000
0001
,  // measure 52
1000
0001
1000
0001
,  // measure 53
1000
0001
1000
0001
,  // measure 54
1000
0001
1000
0001
,  // measure 55
1000
0001
1000
0001
,  // measure 56
1000
0000
0000
0000
0001
0000
0000
0000
1000
0000
0001
1000
0000
0001
1000
0001
,  // measure 57
0000
1000
0001
1000
0001
0000
1000
0000
0001
0000
1000
0001
0000
1000
0001
1000
,  // measure 58
0000
0001
1000
0001
1000
0000
0001
0000
1000
0000
0001
1000
0000
0001
1000
0001
,  // measure 59
0000
1000
0001
1000
0001
0000
1000
0000
0001
0000
0000
1000
0000
0000
0001
0000
;
