#TITLE:One More Lovely;
#SUBTITLE:;
#ARTIST:Risk Junk;
#TITLETRANSLIT:;
#SUBTITLETRANSLIT:;
#ARTISTTRANSLIT:;
#GENRE:;
#CREDIT:;
#BANNER:;
#BACKGROUND:;
#LYRICSPATH:;
#CDTITLE:;
#MUSIC:One More Lovely.ogg;
#OFFSET:-2.664000;
#SAMPLESTART:12.255000;
#SAMPLELENGTH:12.000000;
#SELECTABLE:YES;
#BPMS:0.000000=200.000000
;
#STOPS:140.000000=0.300000
;
#BGCHANGES:;
#KEYSOUNDS:;
#ATTACKS:;

//---------------dance-single - ----------------
#NOTES:
     dance-single:
     :
     Beginner:
     2:
     0.151500,0.225680,0.086220,0.000000,0.000000,123.000000,113.000000,10.000000,0.000000,0.000000,0.000000,0.151500,0.225680,0.086220,0.000000,0.000000,123.000000,113.000000,10.000000,0.000000,0.000000,0.000000:
0001
0000
0000
0000
,
0100
0000
0000
0000
,
0010
0000
0000
0000
,
1000
0000
0000
0000
,
1001
0000
0000
0000
,
0010
0000
0000
0000
,
0100
0000
0000
0000
,
0001
0000
0000
0000
,
1001
0000
0000
0000
,
0100
0000
0000
0000
,
0010
0000
0000
0000
,
1000
0000
0001
0000
,
1001
0000
0000
0000
,
0010
0000
0000
0000
,
1001
0000
0000
0000
,
0001
0000
0000
0000
,
1001
0000
0000
0000
,
0010
0000
0100
0000
,
0010
0000
0001
0000
,
1001
0000
0000
0000
,
0010
0000
0000
0000
,
1000
0000
0000
0000
,
0100
0000
0000
0000
,
0010
0000
0000
0000
,
0001
0000
0000
0000
,
0100
0000
0000
0000
,
0010
0000
0000
0000
,
0100
0000
0000
0000
,
0010
0000
0010
0000
,
0010
0000
0000
0000
,
0100
0000
0100
0000
,
0100
0000
0000
0000
,
1000
0000
0001
0000
,
1000
0000
0000
0000
,
0010
0000
0000
0000
,
0100
0000
0000
0010
,
0000
0010
0000
0010
,
0000
0100
0000
0100
,
0000
0000
0000
1000
,
0000
0001
0000
0100
,
0000
0100
0000
0100
,
0000
0000
0000
0010
,
0000
0010
0000
1000
,
0000
0001
0000
1001
,
0000
0000
0000
1000
,
0000
0001
0000
0100
,
0000
0000
0000
0010
,
0000
1000
0000
0001
,
0000
0000
0000
0010
,
0000
1000
0000
0001
,
0000
0000
0000
0100
,
0000
0000
0000
0010
,
0000
0010
0000
1000
,
0000
0001
0000
0100
,
0000
0010
0000
0000
,
0000
1000
0000
0000
,
0000
0010
0000
0100
,
0000
0010
0000
0000
,
1000
0000
0000
0000
,
0000
1000
0000
0010
,
0000
0000
0000
0010
,
0000
0000
0000
0100
,
0000
0000
0000
0001
,
0000
0000
0000
0010
,
0000
0000
0000
0100
,
0000
0000
0000
1000
,
0000
0000
0000
0010
,
0000
0000
0000
1001
,
0000
0000
0000
0100
,
0000
0000
0000
0010
,
0000
0000
0000
0100
,
0000
0000
0001
0001
,
0000
0000
0000
1000
,
0000
0000
0000
0010
,
0000
0000
0000
0100
,
0000
0000
0000
1001
,
0000
0000
0000
0001
,
0000
1000
0000
0001
,
0000
0000
0000
0010
,
0000
0000
0000
0010
,
0000
0000
0000
0100
,
0000
1000
0000
0001
,
0000
0000
0000
0001
,
0000
0000
0000
1000
,
0000
0000
0000
0001
,
0000
0001
0000
0010
,
0000
0010
0000
0100
,
0000
1001
0000
0000
;

//---------------dance-single - ----------------
#NOTES:
     dance-single:
     :
     Medium:
     10:
     0.751342,0.977945,0.336256,0.198305,0.137951,610.000000,571.000000,39.000000,23.000000,0.000000,0.000000,0.751342,0.977945,0.336256,0.198305,0.137951,610.000000,571.000000,39.000000,23.000000,0.000000,0.000000:
1001
1000
0000
0010
0100
0001
0100
0001
,
0000
1000
0000
0001
0100
0010
1000
0100
,
0000
0011
0000
0001
0100
0010
1000
0100
,
1000
1000
0010
0010
0100
0100
0001
1000
,
1001
0001
0000
1000
0100
0010
0001
0100
,
0000
0101
0000
0010
1000
0100
0010
0001
,
0000
1000
0000
0001
0100
1000
0100
0020
,
0000
0000
1030
0000
0100
0000
0010
0000
0001
1000
0001
0000
1000
0000
0100
0000
,
1100
1000
0000
0001
0100
1000
0100
0001
,
0000
0010
0000
0100
1000
0100
0010
0001
,
0000
1000
0000
0001
0100
1000
0100
0001
,
1000
1000
0010
0010
0100
0100
0001
1000
,
1001
0001
0000
1000
0100
0001
0100
1000
,
0000
0020
0000
0130
0001
1000
0100
0001
,
0000
0200
0000
1300
0010
0001
0010
1000
,
1010
0000
0110
0000
0101
0000
0001
0010
,
0011
0000
0001
0000
1000
0000
0001
1000
,
1001
0001
0100
0000
1010
1000
0010
0100
,
0001
0010
0001
0010
0100
1000
0100
1000
,
1100
0010
0001
0100
,
0010
1000
0100
0010
,
0001
0100
0001
0100
,
0010
1000
0010
1000
,
0001
0100
0001
0100
,
0010
1000
0100
1000
,
0001
0100
0010
2000
,
0000
0000
3000
0010
,
1010
0000
1000
0100
0010
0001
1000
0000
,
1001
0101
1010
1001
,
0110
0000
1000
0100
0010
0001
0100
0000
,
0101
1010
0011
1100
,
1001
0000
1000
0100
0010
0100
1000
0000
,
0011
1100
0011
1001
,
0110
0000
0001
0100
0010
1000
0100
0000
,
0010
0001
0000
0100
0000
0010
0000
0000
,
0000
0000
0000
0000
1000
0001
1000
0000
0001
0000
0000
0000
1001
0000
0001
0000
,
0010
0001
1000
0100
0010
0001
0010
0100
,
1000
0010
0100
0001
0010
0001
0100
0001
,
0010
0100
1000
0001
0100
0010
2000
0000
,
3020
0000
0230
0000
0302
0000
1003
0010
,
1000
0010
0100
0001
0100
0001
0010
0100
,
0010
0001
0100
0010
1000
0100
2000
0000
,
0000
3020
0000
0230
,
0301
0010
0000
0010
0001
0010
0011
0000
,
0001
0100
0010
1000
0100
0000
1000
0010
,
0001
0010
1000
0100
0001
0100
0010
0000
,
0001
0010
0001
1000
0001
0100
1000
0100
,
0001
0010
1000
0010
0100
1000
0010
0000
,
0100
0001
0010
0001
0100
0010
1000
0100
,
0001
0100
0010
0001
0010
1000
0010
0000
,
0001
0100
0010
1000
0010
0000
0100
0001
,
0000
0000
0100
0000
0000
0000
0010
0000
1000
0000
0001
0000
1000
0100
1000
0100
,
1000
0000
0010
0000
0100
0000
0001
0000
1000
0000
0001
0000
0100
0010
0100
0010
,
0100
0000
0001
0000
0010
0000
0100
0000
1000
0000
0001
0000
0100
0010
0100
0010
,
0100
0000
0001
0000
0010
0000
0100
0000
1000
0000
0001
0000
1000
0010
1000
0010
,
1000
0001
0010
0100
1000
0002
0000
1003
,
0100
0010
0001
0010
0100
1000
0010
0100
,
0001
0010
0001
1000
0100
0010
0001
1000
,
0010
0100
0001
0010
0001
1000
0100
0010
,
0001
0000
0010
0000
0100
0000
1000
0000
0001
0000
0010
0000
0100
1000
0100
0000
,
0010
0001
0010
0000
0100
0000
1000
0000
0010
0000
0100
0000
0001
1000
0001
0000
,
0100
0010
0100
0000
0001
0000
0010
0000
0100
0000
1000
0000
0001
0000
0010
0000
,
0100
1000
0001
0100
0010
1000
0010
0100
,
0001
0100
0010
1000
0100
0020
0000
0031
,
0100
0010
1000
0100
0010
0001
0100
0010
,
1000
0001
1000
0100
1000
0001
0100
0010
,
0100
0001
0010
0100
1000
0001
0100
0010
,
0100
0000
0001
0000
1000
0001
1000
0001
1000
0000
0010
0000
0200
0000
0000
0000
,
0001
0010
0301
2000
,
0100
0001
3100
0020
,
0100
0001
0130
0020
,
0032
0000
0000
0203
0000
0000
0310
1000
0010
1000
0000
0000
,
0010
2010
3010
0110
,
0100
0011
0100
1001
,
0010
1100
0001
1000
,
0100
0000
0010
0000
0001
0000
1000
0100
,
0010
0001
1000
0100
0010
0001
0010
0100
,
0010
1000
0010
0001
0010
0100
0010
0001
,
0100
0010
0100
0010
1000
0100
1000
0001
,
1000
0010
1000
0100
1000
0001
0202
0000
,
0000
0000
0303
0000
1000
0100
0001
0100
,
1000
0100
0010
0100
1000
0001
0100
0000
,
0010
1000
0010
0000
0100
0000
0110
0010
,
0000
0100
0000
0001
0100
0010
1010
1000
,
0000
0000
0010
0000
0000
0000
0100
0000
0000
0000
0001
0000
1000
0100
1000
0000
,
0001
0010
0001
0000
0020
0000
0000
0000
0000
0000
0000
0000
0031
1000
0001
1000
,
0001
1000
0001
1000
0010
0100
0010
0100
0010
0100
0010
0100
0001
0010
0100
1000
,
0001
0010
0100
0010
0001
0000
0000
0000
0000
0000
0000
0000
0000
0000
0000
0000
;

//---------------dance-single - ----------------
#NOTES:
     dance-single:
     :
     Hard:
     14:
     1.104842,1.241238,0.336256,0.525939,1.056189,897.000000,858.000000,39.000000,61.000000,0.000000,0.000000,1.104842,1.241238,0.336256,0.525939,1.056189,897.000000,858.000000,39.000000,61.000000,0.000000,0.000000:
1001
0002
0000
1003
0100
0010
0001
2000
,
0000
3010
0000
0010
1000
0100
0010
0002
,
0000
2003
0000
3010
0100
0001
0010
0001
,
1000
1000
0010
0010
0100
0100
0001
1000
,
1001
0020
0000
0130
0010
0001
0010
0200
,
0000
0320
0000
0031
0100
0010
0100
0002
,
0000
2003
0000
3100
0010
0001
0010
0200
,
0000
0000
1300
0000
0010
0000
1000
0000
0010
0000
0100
0001
0100
0000
0010
0000
,
1010
1000
0010
0100
0001
0100
0001
0100
,
0010
2000
3100
0010
0001
0010
0001
0010
,
0100
2000
3001
0100
0010
0100
0010
0100
,
0001
0010
0001
0010
0100
1000
0001
0010
0100
1000
0100
0010
0001
1000
0010
0100
,
0001
1000
0010
0100
0001
0100
0001
0100
,
0010
1000
0100
0010
0001
0010
0001
0010
,
0001
0100
0010
1000
0100
1000
0100
1000
,
2020
3030
0220
0330
0202
0303
1000
0001
,
2002
3003
1010
0000
0110
0000
0100
0001
,
0101
0100
0010
1000
1010
1000
0001
1000
,
1001
0000
0001
0000
0100
0000
0010
0000
0100
0010
1000
0000
1010
0000
0000
0000
,
1000
0100
1000
0100
1000
0100
1000
0100
,
0010
0001
0010
0001
0010
0001
0010
0001
,
1000
0010
1000
0100
0010
0001
0010
0100
,
1000
0100
0010
0001
1000
0010
1000
0100
,
0010
0001
0010
0100
1000
0001
0100
0010
,
1000
0001
0010
0100
1000
0001
0100
0010
,
0100
0000
0001
0000
0010
0000
0001
0000
1000
0000
0100
0000
0010
0001
1000
0100
,
1000
0001
0010
0100
1000
0001
0100
0010
0100
0001
0010
0100
1000
0000
0010
0000
,
1010
1000
0001
0010
0100
1000
0002
0103
,
0002
0013
0002
1003
0002
0103
0002
1003
,
0002
0013
0100
1000
0001
0001
2000
3100
,
2000
3001
2000
3100
2000
3010
2000
3001
,
2000
3100
0010
0001
0010
0001
0200
0310
,
0200
0301
0200
0310
2000
3010
2000
3001
,
2000
3010
0100
0001
1000
0100
0010
0000
,
0001
0100
0000
0010
0000
1000
0000
0000
,
0000
0000
0000
0000
0001
0100
0001
0000
1000
0000
0000
0000
0001
0010
0100
1000
,
0001
0100
0010
0100
0001
0010
0001
1000
0100
0000
0000
0000
1000
0100
0010
0001
,
1000
0100
0010
0001
1000
0010
0100
0001
0100
0010
1000
0001
0010
0100
1000
0001
,
0100
0010
0100
0001
1000
0100
0010
0001
1000
0000
0010
0000
0200
0000
0000
0000
,
0302
0000
0000
0000
2003
0000
0000
0000
3200
0000
0000
0000
0310
0001
1000
0100
,
1000
0001
0010
0100
1000
0001
0100
0010
0100
0001
0010
0001
1000
0100
0010
0001
,
0010
0100
1000
0001
0100
0010
0100
0001
1000
0000
0100
0000
1000
0010
0100
0001
,
1000
0100
0010
0001
1000
0010
0100
0001
0010
0100
1000
0001
0100
0010
1000
0001
,
0010
0100
1000
0001
0100
0010
1000
0001
0100
0000
0010
0000
1010
0000
1000
0000
,
0001
0100
0010
1000
1100
0000
0110
0000
,
0011
0000
0101
0000
1010
0000
1001
0001
,
0100
0010
1000
0100
1100
0000
1001
0000
,
0101
0000
0110
0000
1010
0000
1001
0001
,
0100
0010
1000
0001
0101
0000
1010
0000
,
1100
0000
0011
0000
1001
0000
0110
0010
,
0100
1000
0001
0100
0101
0000
0010
1000
,
0000
0000
0100
0000
0000
0000
1000
0000
0100
0000
0000
0000
1000
0001
1000
0001
,
0100
0010
0100
0010
1000
0100
0010
0001
0010
0100
1000
0001
0010
0001
1000
0100
,
0010
0001
1000
0010
0100
0001
0010
0100
1000
0001
0100
0010
0100
0001
0010
0001
,
1000
0100
0010
0001
1000
0010
1000
0001
0010
0100
1000
0001
0100
0010
0100
0001
,
0010
0001
1000
0100
0010
0001
1000
0100
1000
0001
0010
0100
0010
0001
0100
0010
,
0100
0001
0010
0100
0010
0100
1000
0010
0100
0001
1000
0100
0010
0001
0010
0100
,
1000
0001
0100
0010
0100
0001
0010
0001
1000
0100
0010
0001
0010
0100
1000
0001
,
0100
0010
0100
0001
0010
0100
1000
0100
0010
0001
1000
0100
1000
0001
0100
0010
,
1000
0100
1000
0001
0010
0100
0010
0100
1000
0000
0010
0000
0100
0001
1000
0100
,
0010
0001
0010
0100
1000
0001
0100
0010
0100
0001
0010
0100
1000
0001
0100
0010
,
0100
0001
0010
0001
1000
0100
0010
0001
1000
0100
1000
0001
0010
0100
1000
0001
,
0100
0001
1000
0100
1000
0001
0010
0001
1000
0010
1000
0001
0010
0100
1000
0001
,
0100
0010
0100
0001
0010
0001
1000
0100
0010
0001
1000
0100
1000
0001
0010
0100
,
1000
0001
0010
0001
1000
0100
0010
0001
1000
0010
0100
0001
0010
0001
1000
0100
,
0010
0001
0010
0100
1000
0001
0100
0010
0100
0001
0010
0001
1000
0100
0010
0001
,
1000
0100
1000
0010
1000
0100
0010
0001
0100
0001
1000
0100
0010
0001
0010
0100
,
1000
0001
0100
0010
1000
0001
1000
0001
1000
0000
0010
0000
0210
0000
0000
0000
,
2300
3200
0320
0032
,
0203
0320
2030
3200
,
0320
0032
0203
0320
,
2030
0000
0000
3020
0000
0000
1030
0100
1000
0200
0000
0000
,
0300
0000
0020
0000
0030
0000
0001
0010
,
0001
0010
0100
1000
0100
1000
0001
0100
,
0010
1000
0010
0100
0001
0010
0001
1000
,
0100
0010
0001
1000
0010
0000
1010
1000
,
0100
0000
0010
0000
0001
0000
0010
0000
0100
1000
0001
0010
0001
1000
0100
0010
,
0001
1000
0010
0100
0001
0100
0010
1000
0001
0010
0100
1000
0001
0000
0100
0000
,
0010
0000
1000
0000
0100
0000
0010
0000
0001
1000
0001
1000
0100
0010
0100
0010
,
0100
1000
0001
0100
0010
1000
0100
0010
0001
0010
0100
1000
0001
0000
0000
0000
,
0100
0000
0000
0000
0010
0000
0000
0000
0010
0100
0010
0100
0001
1000
0100
1000
,
0001
0010
0100
0010
0001
1000
0100
0010
0001
1000
0010
0100
0002
0000
0000
0000
,
0000
0000
0003
0000
2000
3000
1001
0001
,
0000
0000
0100
0000
0000
0000
0010
0000
1000
0100
1000
0100
1000
0000
0010
0000
,
0000
0000
0110
0000
0000
0000
0101
0000
0001
0000
0010
0000
0100
1000
0001
0100
,
0010
1000
0100
0010
0001
0010
0100
1000
0001
0100
0010
0100
0001
1000
0100
0010
,
0001
0010
0100
1000
0001
0010
0001
1000
0100
0010
0001
1000
0010
0100
0001
0010
,
0001
1000
0100
1000
0010
0000
0000
0000
0000
0000
0000
0000
0000
0000
0000
0000
;

//---------------dance-single - ----------------
#NOTES:
     dance-single:
     :
     Challenge:
     17:
     1.622159,1.391691,0.060354,0.327634,2.694360,1317.000000,1310.000000,7.000000,38.000000,0.000000,0.000000,1.622159,1.391691,0.060354,0.327634,2.694360,1317.000000,1310.000000,7.000000,38.000000,0.000000,0.000000:
2000
3000
0200
0300
0010
0000
0002
0003
0200
0300
0020
0030
2000
3000
0020
0030
,
0100
0000
0020
0030
1000
0000
0200
0300
0020
0030
0002
0003
0020
0030
0200
0300
,
1000
0000
0002
0003
0010
0000
0200
0300
2000
3000
0002
0003
0200
0300
0020
0030
,
1000
1000
0100
0100
0010
0010
0001
1000
,
1001
0000
0020
0030
0100
0000
0020
0030
0200
0300
0020
0030
0002
0003
0200
0300
,
0010
0000
2000
3000
0100
0000
0020
0030
0002
0003
0020
0030
0200
0300
2000
3000
,
0010
0000
0200
0300
0001
0000
0020
0030
0200
0300
0020
0030
0002
0003
0200
0000
,
0000
0000
0310
0000
1000
0000
0010
0000
0100
0001
0010
0000
0001
0000
1000
0000
,
0001
0010
0001
0010
0100
1000
0001
0100
0010
1000
0010
0100
0001
1000
0010
0100
,
0001
1000
0001
0010
0100
1000
0001
0100
0010
0100
0001
0100
0010
0100
0001
1000
,
0010
0100
0001
0010
0100
1000
0001
0100
0010
1000
0100
0010
0001
0010
0100
1000
,
0001
0010
0001
0010
0100
1000
0100
1000
0001
0100
0001
0100
0010
0000
1000
0000
,
1010
0000
0100
0001
0010
0100
1000
0001
0100
0010
0100
0001
0010
0001
1000
0100
,
0010
0001
1000
0010
0100
0001
1000
0010
1000
0010
0100
0001
0010
0001
1000
0100
,
0010
0001
0100
0010
1000
0010
0100
0001
0010
0001
1000
0100
0010
0001
1000
0010
,
0100
0001
0010
0001
1000
0100
0010
0001
1000
0010
0100
0001
1000
0100
1000
0100
,
0010
0001
0100
0010
1000
0001
0010
0100
1000
0001
0100
0010
1000
0100
1000
0100
,
0010
0001
0010
0001
1000
0010
0100
0001
1000
0100
0010
0001
1000
0010
1000
0010
,
1000
0100
0010
0001
1000
0010
0100
0001
1000
0100
0010
0001
1000
0100
1000
0010
,
0100
0001
0010
0001
1000
0100
0010
0001
1000
0100
1000
0001
0010
0100
1000
0001
,
0010
0001
1000
0010
0100
0001
0100
0010
1000
0001
0100
0010
1000
0001
0100
0010
,
1000
0001
0010
0100
1000
0001
0010
0001
1000
0100
0010
0001
1000
0100
1000
0001
,
0010
0100
1000
0001
0100
0010
0100
0001
0010
0001
1000
0100
1000
0010
0100
0001
,
1000
0100
0010
0001
0010
0100
1000
0001
0100
0010
0100
0001
0010
0001
1000
0100
,
0010
0001
0010
0100
1000
0001
0100
0010
1000
0001
0010
0100
1000
0001
0100
0010
,
0100
0000
0000
0000
0000
0000
0000
0000
0000
0000
0000
0000
0001
0000
0000
0000
0000
0000
0000
0000
0000
0000
0000
0000
0010
0000
0000
0000
0000
0000
0000
0000
0000
0000
0000
0000
0001
0000
0000
0000
0000
0000
0000
0000
0000
0000
0000
0000
1000
0000
0000
0000
0000
0000
0000
0000
0000
0000
0000
0000
0100
0000
0000
0000
0000
0000
0000
0000
0000
0000
0000
0000
0010
0000
0000
0000
0000
0000
0000
0000
0000
0000
0000
0000
0001
0000
0000
0000
0000
0000
0000
0000
0000
0000
0000
0000
1000
0000
0000
0000
0000
0000
0000
0000
0000
0000
0000
0000
0100
0000
0000
0000
0000
0000
0000
0000
0000
0000
0000
0000
1000
0000
0000
0000
0000
0000
0000
0000
0000
0000
0000
0000
0001
0000
0000
0000
0000
0000
0000
0000
0000
0000
0000
0000
1000
0000
0000
0000
0000
0000
0000
0000
0000
0000
0001
0000
0000
0000
0000
0000
0000
0000
0000
1000
0000
0000
0000
0000
0000
0000
0000
0000
0000
0010
0000
0000
0000
0000
0000
0000
0000
0000
0100
0000
0000
0000
0000
0000
0000
0000
0000
0000
,
0010
0000
0000
0000
0000
0000
0000
0000
0000
0000
1000
0000
0000
0000
0000
0000
0000
0000
0000
0100
0000
0000
0000
0000
0000
0000
0000
0000
0000
0010
0000
0000
0000
0000
0000
0000
0000
0000
0001
0000
0000
0000
0000
0000
0000
0000
0000
0000
0010
0000
0000
0000
0000
0000
0000
0000
0000
0000
0100
0000
0000
0000
0000
0000
0000
0000
0000
1000
0000
0000
0000
0000
0000
0000
0000
0000
0000
0001
0000
0000
0000
0000
0000
0000
0000
0000
0100
0000
0000
0000
0000
0000
0000
0000
0000
0000
0010
0000
0000
0000
0000
0000
0000
0000
0000
0000
0100
0000
0000
0000
0000
0000
0000
0000
0000
0001
0000
0000
0000
0000
0000
0000
0000
0000
0000
0010
0000
0000
0000
0000
0000
0000
0000
0000
0001
0000
0000
0000
0000
0000
0000
0000
0000
0000
1000
0000
0000
0000
0000
0000
0000
0000
0000
0000
0000
0000
0100
0000
0000
0000
0000
0000
0000
0000
0000
0000
0000
0000
0010
0000
0000
0000
0000
0000
0000
0000
0000
0000
0000
0000
0001
0000
0000
0000
0000
0000
0000
0000
0000
0000
0000
0000
,
1000
0010
0100
0001
1000
0010
0100
0001
0010
0001
1000
0100
0010
0001
0100
0010
,
1000
0100
0010
0001
1000
0100
1000
0010
0100
0001
0010
0001
1000
0100
0010
0001
,
1000
0010
0100
0001
1000
0100
0010
0001
0010
0100
1000
0001
0100
0010
0100
0010
,
1000
0100
0010
0001
1000
0010
0100
0001
1000
0100
1000
0001
0100
0010
0100
0001
,
1000
0100
0010
0001
0100
0010
1000
0001
0010
0100
1000
0001
0100
0010
1000
0001
,
1000
0001
0010
0001
1000
0100
1000
0001
0100
0010
0100
0001
0100
0010
1000
0100
,
0010
0100
1000
0001
0100
0010
0100
0001
0010
0001
1000
0100
0010
0001
1000
0010
,
1000
0100
0010
0001
0010
0100
1000
0001
0100
0010
0100
0001
0010
0001
1000
0100
,
0010
0000
0000
0000
0100
1000
0100
0000
0000
0000
0000
0000
1000
0100
0010
0001
,
1000
0100
1000
0001
0010
0100
1000
0001
1000
0010
0100
0001
1000
0100
0010
0001
,
0010
0100
1000
0001
1000
0010
0100
0001
0100
0010
1000
0001
1000
0100
0010
0001
,
0010
0100
1000
0001
0100
0010
0100
0001
1000
0100
1000
0001
0100
0001
0010
0100
,
1000
0010
0100
0001
1000
0100
0010
0001
1000
0100
1000
0001
0100
0010
0100
0001
,
0100
0010
1000
0001
1000
0100
0010
0001
0010
0100
1000
0001
1000
0010
0100
0001
,
0010
0001
1000
0010
0100
0001
1000
0100
1000
0010
0100
0001
1000
0100
0010
0100
,
1000
0001
0010
0100
1000
0001
0100
0010
1000
0010
0100
0001
1000
0100
0010
0001
,
1000
0010
0100
0001
1000
0100
0010
0001
1000
0010
0100
0001
1000
0100
1000
0100
,
0010
0001
1000
0010
1000
0100
0010
0001
1000
0010
0100
0001
1000
0100
1000
0001
,
0100
0010
1000
0001
0010
0001
0100
0010
1000
0001
0010
0100
1000
0001
0100
0010
,
0100
0010
1000
0001
0010
0100
1000
0001
0100
0010
0100
0001
1000
0100
0010
0100
,
1000
0010
0100
0001
1000
0100
1000
0010
1000
0100
0010
0001
0100
0010
1000
0001
,
0100
0010
0100
0001
0010
0001
1000
0010
0100
0001
0100
0010
1000
0001
0010
0100
,
1000
0010
0100
0001
1000
0100
0010
0100
1000
0010
0100
0001
1000
0100
0010
0001
,
1000
0010
0100
0001
1000
0100
0010
0001
0100
0010
1000
0001
1000
0100
1000
0100
,
0010
0001
0100
0010
1000
0100
0010
0001
1000
0010
0100
0001
1000
0100
1000
0010
,
1000
0001
0010
0001
0100
0001
1000
0100
0010
0001
0010
0100
1000
0001
0010
0001
,
0100
0001
0010
0100
1000
0001
0100
0010
0100
0001
1000
0100
1000
0010
1000
0100
,
0010
0001
0100
0010
1000
0001
0010
0100
1000
0010
0100
0010
1000
0100
0010
0001
,
0100
0010
0100
0001
0010
0100
1000
0001
0010
0001
0100
0010
0100
0001
1000
0100
,
1000
0010
1000
0100
0010
0001
0100
0001
0010
0100
1000
0010
0100
0001
0010
0001
,
1000
0100
0010
0001
0100
0010
1000
0100
0010
0100
1000
0001
0100
0010
0100
0001
,
0010
0100
1000
0001
0100
0010
0100
0001
0010
0001
1000
0100
0010
0001
0010
0100
,
1000
0010
0100
0001
0010
0001
1000
0100
0010
0000
0000
0000
0001
0100
0010
1000
,
0001
0010
0100
1000
0001
0100
0010
1000
0001
0010
0100
1000
0001
0010
0001
1000
,
0100
1000
0001
0010
0001
1000
0100
1000
0001
0100
0001
0100
0010
1000
0010
0100
,
0001
0100
0010
1000
0010
0100
0001
0100
0010
1000
0100
0010
0001
0100
0010
0100
,
0001
0100
0010
0100
0001
1000
0010
0100
0010
1000
0010
0100
0010
1000
0100
0010
,
0001
0100
0010
0100
0001
0010
0100
1000
0001
0100
0010
0100
0001
1000
0100
0010
,
0001
0100
0010
0100
0001
1000
0100
1000
0001
0100
0010
0100
0001
0010
0100
0010
,
0001
0100
0010
1000
0001
0010
0100
1000
0001
0100
0010
0100
0001
0010
0100
1000
,
0001
0100
0010
0100
0001
0010
0100
1000
0001
0100
0010
1000
0001
0100
0001
0100
,
0010
1000
0100
1000
0001
0100
0001
0100
0010
1000
0100
1000
0001
0010
0100
1000
,
0001
0100
0010
0100
0001
0010
0100
1000
0001
0100
0010
1000
0001
0100
0010
0100
,
0001
0010
0100
1000
0001
0100
0010
0100
0001
0010
0100
1000
0010
0100
0010
0100
,
0001
0010
0100
1000
0001
0100
0010
1000
0100
0010
0100
0010
0001
0100
0010
1000
,
0001
0100
0010
1000
0001
0010
0100
1000
0100
0010
0001
1000
0100
0010
0100
0010
,
0001
1000
0100
1000
0001
0100
0010
0100
0001
1000
0100
1000
0001
0010
0100
1000
,
0001
0100
0010
1000
0001
0010
0100
1000
0001
0100
0010
1000
0001
0010
0001
0010
,
0100
1000
0100
1000
0001
0100
0001
0010
0100
1000
0100
1000
0001
0010
0100
1000
,
0001
0100
0010
0100
0001
1000
0100
0010
0001
0100
0010
1000
0001
0010
0100
1000
,
0001
0100
0010
0100
0001
0010
0100
1000
0001
0100
0010
0100
0001
0010
0100
1000
,
0001
0100
0010
0100
0001
0010
0100
1000
0001
0100
0010
0100
0001
1000
0100
1000
,
0001
0010
0100
1000
0010
0100
0010
0100
0001
1000
0100
0010
0001
0100
0010
1000
,
0001
0010
0001
1000
0100
1000
0001
0100
0001
1000
0100
1000
0001
0100
0010
0100
,
0001
1000
0100
1000
0001
0100
0010
1000
0001
0010
0100
1000
0001
0100
0010
1000
,
0001
0010
0100
1000
0001
0100
0010
0100
0002
0000
0003
0000
1001
0000
1000
0100
,
0010
0000
0000
0001
0000
0000
0010
0000
0000
0100
0000
0000
1000
0000
0000
0001
0000
0000
0010
0000
0000
0000
0000
0000
0100
0000
1000
0000
0100
0000
1000
0000
0000
0000
0000
0000
1100
0000
0000
0000
0000
0000
1100
0000
0000
0000
0000
0000
,
0000
0000
1001
0000
0000
0000
0101
0000
0100
0000
0001
0000
1000
0100
0010
0001
,
1000
0000
0000
0000
0000
0000
0000
0000
0000
0000
0000
0000
0010
0000
0000
0000
0000
0000
0000
0000
0000
0000
0000
0000
0100
0000
0000
0000
0000
0000
0000
0000
0000
0000
0000
0000
0001
0000
0000
0000
0000
0000
0000
0000
0000
0000
0000
0000
1000
0000
0000
0000
0000
0000
0000
0000
0000
0000
0100
0000
0000
0000
0000
0000
0000
0000
0000
1000
0000
0000
0000
0000
0000
0000
0000
0000
0000
0001
0000
0000
0000
0000
0000
0000
0000
0000
0010
0000
0000
0000
0000
0000
0000
0000
0000
0000
0100
0000
0000
0000
0000
0000
0000
0000
0000
0000
1000
0000
0000
0000
0000
0000
0000
0000
0000
0001
0000
0000
0000
0000
0000
0000
0000
0000
0000
0100
0000
0000
0000
0000
0000
0000
0000
0000
0010
0000
0000
0000
0000
0000
0000
0000
0000
0000
1000
0000
0000
0000
0000
0000
0000
0000
0000
0000
0000
0000
0100
0000
0000
0000
0000
0000
0000
0000
0000
0000
0000
0000
1000
0000
0000
0000
0000
0000
0000
0000
0000
0000
0000
0000
0100
0000
0000
0000
0000
0000
0000
0000
0000
0000
0000
0000
,
1000
0100
1000
0100
0010
0001
0010
0001
0010
0001
0010
0001
0100
0010
0100
0001
,
1000
0010
1000
0010
0100
0000
0000
0000
0000
0000
0000
0000
0000
0000
0000
0000
;

//---------------dance-single - Easy----------------
#NOTES:
     dance-single:
     :
     Easy:
     5:
     0.284524,0.375055,0.025866,0.077598,0.000000,231.000000,228.000000,3.000000,9.000000,0.000000,0.000000,0.284524,0.375055,0.025866,0.077598,0.000000,231.000000,228.000000,3.000000,9.000000,0.000000,0.000000:
// measure 0
0100
0000
0000
0000
,  // measure 1
0100
0000
0000
0000
,  // measure 2
0010
0000
0000
0000
,  // measure 3
1000
0100
0001
0010
,  // measure 4
1000
0000
0000
0000
,  // measure 5
0001
0000
0000
0000
,  // measure 6
1000
0000
0000
0000
,  // measure 7
0001
0000
0000
0000
,  // measure 8
1001
0000
0001
0000
,  // measure 9
0100
0000
0010
0000
,  // measure 10
1000
0000
0000
0000
,  // measure 11
0001
0010
1000
0100
,  // measure 12
0001
0000
0010
0000
,  // measure 13
0100
0000
1000
0000
,  // measure 14
0001
0000
0100
0000
,  // measure 15
0010
0010
0010
0000
,  // measure 16
1000
0100
0001
0000
,  // measure 17
0010
1000
0001
0000
,  // measure 18
1000
0100
0001
0010
,  // measure 19
1000
0000
0000
0000
,  // measure 20
0200
0000
0000
0300
,  // measure 21
0020
0000
0000
0030
,  // measure 22
0002
0000
0000
0003
,  // measure 23
0200
0000
0000
0300
,  // measure 24
2000
0000
0000
3000
,  // measure 25
0020
0000
0000
0030
,  // measure 26
0002
0000
0000
0003
,  // measure 27
1000
0000
0000
0001
,  // measure 28
0010
1000
0100
0001
,  // measure 29
0010
0000
0000
0001
,  // measure 30
0100
1000
0010
0001
,  // measure 31
0100
0000
0000
0001
,  // measure 32
0010
1000
0100
0000
,  // measure 33
0000
0000
0000
0000
,  // measure 34
0100
0000
0000
0000
,  // measure 35
1000
0000
0000
0100
,  // measure 36
0000
0100
0000
2000
,  // measure 37
0000
3000
0000
0200
,  // measure 38
0000
0000
0300
0100
,  // measure 39
1000
0010
1000
0100
,  // measure 40
0000
0100
0000
0010
,  // measure 41
0000
0000
0001
0001
,  // measure 42
0000
1000
0000
0010
,  // measure 43
0001
0100
1000
0010
,  // measure 44
0000
0000
1000
0100
,  // measure 45
0001
0010
1000
1000
,  // measure 46
0000
0000
0001
0010
,  // measure 47
1000
0100
0001
0000
,  // measure 48
0000
0000
1000
0100
,  // measure 49
0001
0010
1000
0100
,  // measure 50
0000
0000
0010
0001
,  // measure 51
0000
0000
0000
0010
,  // measure 52
0100
0100
1000
0001
,  // measure 53
0100
0001
0100
0001
,  // measure 54
0010
0001
0010
0001
,  // measure 55
1000
0001
1000
0100
,  // measure 56
0010
0100
1000
0100
,  // measure 57
0010
0100
1000
0001
,  // measure 58
0100
0010
1000
0010
,  // measure 59
0100
0001
0010
0100
,  // measure 60
1000
0001
0100
0010
,  // measure 61
1000
0100
0010
0001
,  // measure 62
0100
0010
1000
0100
,  // measure 63
0010
0001
0000
0100
,  // measure 64
0010
1000
0010
0000
,  // measure 65
0100
0001
0010
0000
,  // measure 66
0100
1000
0001
0000
,  // measure 67
1000
0001
1000
1001
,  // measure 68
0000
0000
0001
0010
,  // measure 69
1000
0100
0001
0010
,  // measure 70
1000
0100
0001
0010
,  // measure 71
0001
0001
1000
0001
,  // measure 72
0000
0100
0000
0010
,  // measure 73
1000
0100
0010
0010
,  // measure 74
0010
0100
1000
0001
,  // measure 75
0100
0010
1000
1001
,  // measure 76
0000
0000
1000
0100
,  // measure 77
0001
0010
1000
0100
,  // measure 78
0000
0000
0001
0010
,  // measure 79
1000
0100
0001
0010
,  // measure 80
0000
0000
1000
0010
,  // measure 81
0001
0100
1000
0010
,  // measure 82
0000
0000
0001
1000
,  // measure 83
0000
0100
0000
0100
0000
0000
0010
0000
,  // measure 84
0000
0001
0000
0001
0000
0000
0100
0000
,  // measure 85
0010
0100
0010
1000
,  // measure 86
0100
0010
0001
0010
,  // measure 87
0100
0000
0000
0000
;
