#TITLE:Let's Have A Kiki;
#SUBTITLE:;
#ARTIST:Scissor Sisters;
#TITLETRANSLIT:;
#SUBTITLETRANSLIT:;
#ARTISTTRANSLIT:;
#GENRE:House;
#CREDIT:TiKAL;
#MUSIC:[Deja Vu] - Let's Have A Kiki.ogg;
#BANNER:[Deja Vu] - Let's Have A Kiki.png;
#BACKGROUND:[Deja Vu] - Let's Have A Kiki-bg.png;
#CDTITLE:cdtitle.png;
#SAMPLESTART:116.131;
#SAMPLELENGTH:15.484;
#SELECTABLE:YES;
#OFFSET:-0.002;
#BPMS:0.000=124.000;
#STOPS:;
#BGCHANGES:;
#FGCHANGES:;

//--------------- dance-single - TiKAL ----------------
#NOTES:
     dance-single:
     TiKAL:
     Hard:
     6:
     0,0,0,0,0:
0000
0000
0000
0000
,
0000
0000
0000
0000
,
0000
0000
0000
0000
,
0000
0000
0000
0000
,
0000
0000
0000
0000
,
0000
0000
0000
0000
,
0000
0000
0000
0000
,
0000
0000
0000
0000
,
1100
0000
0000
0100
0000
0000
1000
0000
0010
0000
0000
0000
0100
0000
0000
0000
,
0001
0000
0000
0010
0000
0000
0001
0000
1000
0000
0010
0000
0100
0000
0001
0000
,
1000
0000
0000
0010
0000
0000
1000
0000
0100
0000
0000
0000
0010
0000
0000
0000
,
0001
0000
1000
0000
0001
0100
0010
1000
,
0001
0000
0000
0100
0000
0000
0001
0000
0010
0000
0000
0000
0100
0000
0000
0000
,
1000
0000
0000
0010
0000
0000
1000
0000
0001
0000
0010
0000
0100
0000
1000
0000
,
0001
0000
0000
0010
0000
0000
0001
0000
0100
0000
0000
0000
0010
0000
0000
0000
,
1000
0000
0001
0000
1000
1000
1000
0000
,
0001
0000
1000
0000
0010
0100
0010
0000
,
1000
0000
0001
0000
0010
0100
0010
0100
,
1000
0000
0001
0000
0100
0010
0100
0000
,
0001
0000
1000
0000
0100
0010
0100
0010
,
0001
0000
0100
0000
0010
1000
0100
0000
,
1000
0000
0100
0000
0010
0001
0100
0001
,
1000
0000
0010
0000
0100
0001
0010
0000
,
0001
0000
0010
0000
0100
1000
0010
1000
,
0001
0001
0001
0001
,
1000
1000
1000
1000
,
0100
0010
0100
0010
,
0001
0000
1000
0000
0001
1000
0001
1000
,
0001
0010
0100
1000
,
0001
0000
0100
0000
0010
1000
0010
1000
,
0001
0000
0010
0000
0100
1000
0001
0000
,
0200
0000
0000
0300
,
0101
0000
0000
0100
0000
0000
0001
0000
0010
0000
0000
0000
0100
0000
0000
0000
,
1000
0000
0000
0010
0000
0000
1000
0000
0001
0000
0010
0000
0100
0000
1000
0000
,
0001
0000
0000
0010
0000
0000
0001
0000
0100
0000
0000
0000
0010
0000
0000
0000
,
1000
0000
0001
0000
1000
0100
0010
0001
,
1000
0000
0000
0100
0000
0000
1000
0000
0010
0000
0000
0000
0100
0000
0000
0000
,
0001
0000
0000
0010
0000
0000
0001
0000
1000
0000
0010
0000
0100
0000
0001
0000
,
1000
0000
0000
0010
0000
0000
1000
0000
0100
0000
0000
0000
0010
0000
0000
0000
,
0001
0000
1000
0000
0001
0001
0001
0000
,
1000
0000
0001
0000
0010
0100
0010
0000
,
0001
0000
1000
0000
0010
0100
0010
0100
,
0001
0000
1000
0000
0100
0010
0100
0000
,
1000
0000
0001
0000
0100
0010
0100
0010
,
1000
0000
0100
0000
0010
0001
0100
0000
,
0001
0000
0100
0000
0010
1000
0100
1000
,
0001
0000
0010
0000
0100
1000
0010
0000
,
0200
0000
0000
0000
0000
0000
0300
0100
,
0101
0100
0000
0100
1000
0100
0000
0100
,
0001
0100
0000
0100
0010
1000
0001
0010
,
0100
0010
0000
0010
0001
0010
0000
0010
,
1000
0010
0000
0010
0100
1000
0001
0100
,
0010
0100
0000
0100
1000
0100
0000
0100
,
0001
0100
0000
0100
1000
0100
0010
0100
,
0001
0010
0000
0010
1000
0010
0000
0010
,
0001
0010
0000
0010
1000
0010
0100
0010
,
0001
0000
0000
0001
0000
0000
0000
0000
,
1000
0000
0000
1000
0000
0000
0000
0000
,
0010
0000
0000
0010
0000
0000
0000
0000
,
0100
0000
0000
0100
0000
0000
0001
0000
,
1001
0000
0000
1000
0010
0000
1000
0000
0100
0000
0000
0000
0010
0000
0000
0000
,
0001
0000
0000
0100
0000
0000
0001
0000
1000
0000
0100
0000
0010
0000
0001
0000
,
1000
0000
0000
1000
0100
0000
1000
0000
0010
0000
0000
0000
0100
0000
0000
0000
,
0001
0000
1000
1000
0001
0010
0100
1000
,
0001
0000
0000
0001
0010
0000
0001
0000
0100
0000
0000
0000
0010
0000
0000
0000
,
1000
0000
0000
0100
0000
0000
1000
0000
0001
0000
0100
0000
0010
0000
1000
0000
,
0001
0000
0000
0001
0100
0000
0001
0000
0010
0000
0010
0000
0100
0000
0000
0000
,
1000
0010
0100
0001
1000
1000
0001
1000
,
1001
0000
0000
0001
0010
0000
0001
0000
0100
0000
0000
0000
0010
0000
0000
0000
,
1000
0000
0000
1000
0100
0000
1000
0000
0001
0000
0100
0000
0010
0000
1000
0000
,
0001
0000
0000
0001
0100
0000
0001
0000
0010
0000
0000
0000
0100
0000
0000
0000
,
1000
0000
0001
0001
1000
0010
0100
0001
,
1000
0000
0000
1000
0010
0000
1000
0000
0100
0000
0000
0000
0010
0000
0000
0000
,
0001
0000
0000
0100
0000
0000
0001
0000
1000
0000
0100
0000
0010
0000
0001
0000
,
1000
0000
0000
1000
0100
0000
1000
0000
0010
0000
0000
0000
0100
0000
0000
0000
,
0001
0000
1000
0000
0001
0001
0001
0000
;

//--------------- dance-single - TiKAL ----------------
#NOTES:
     dance-single:
     TiKAL:
     Challenge:
     9:
     0,0,0,0,0:
0000
0000
0000
0000
,
0000
0000
0000
0000
,
0000
0000
0000
0000
,
0000
0000
0000
0000
,
0000
0000
0000
0000
,
0000
0000
0000
0000
,
0000
0000
0000
0000
,
0000
0000
0000
0000
0000
0000
0000
0000
0000
0000
0000
0000
0001
0000
0001
1000
,
0100
0000
0100
0000
0000
0000
1000
0001
0100
0010
1000
0010
0100
0000
0100
0000
,
0001
0000
0001
2000
0000
0000
3100
0000
0010
0000
0000
0000
0001
0000
0001
1000
,
0010
0000
0010
0000
0000
0000
0100
0001
0100
0001
0000
0000
1000
0000
0000
0000
,
0100
0000
0010
0100
1000
0000
0001
0000
0100
0010
0000
0000
1000
0000
1000
0001
,
0010
0000
0010
0000
0000
0000
0001
1000
0010
0100
0001
0100
0010
0000
0010
0000
,
1000
0000
0000
0001
0010
0000
0100
0010
0001
0000
0000
0000
1000
0000
1000
0001
,
0100
0000
0100
0000
0000
0000
0100
0000
0010
1000
0010
1000
0001
0000
1000
0000
,
0100
0000
0001
0000
0100
0000
1000
0000
0001
0000
0001
0000
0001
0100
0000
0000
,
0010
0000
0000
0010
1000
0010
0000
0000
0100
0001
1000
0000
0100
1000
0000
0000
,
0001
0000
0000
0010
0001
1000
0000
0000
0010
0100
0000
0100
0001
1000
0100
0010
,
0001
0000
0000
0000
0000
0000
0000
0000
0000
1000
0000
0000
0010
0000
0000
0000
0000
0000
0100
0000
0000
0001
0000
0000
0000
0000
0000
0001
0000
0000
0000
0000
0000
0001
0000
0000
1000
0000
0000
0000
0000
0000
0100
0000
1000
0000
0100
0000
,
1000
0000
0000
0000
0000
0000
0000
0000
0000
0100
0000
0000
0010
0000
0000
0000
0000
0000
0001
0000
0000
1000
0000
0000
0000
0000
0000
0010
0000
0000
0000
0000
0000
0010
0000
0000
0100
0000
0000
0000
0000
0000
0001
0000
1000
0000
0001
0000
,
0010
0000
0000
0010
0001
0010
0000
0000
0100
1000
0001
0000
0100
0001
0000
0000
,
1000
0000
0000
0010
1000
0001
0000
0000
0010
0100
0000
0100
1000
0001
0100
0010
,
1000
0000
0000
0000
0000
0000
0000
0000
0000
0001
0000
0000
0010
0000
0000
0000
0000
0000
0100
0000
0000
1000
0000
0000
0000
0000
0000
1000
0000
0000
0000
0000
0000
1000
0000
0000
0001
0000
0000
0000
0000
0000
0100
0000
0001
0000
0100
0000
,
0001
0000
0000
0000
0000
0000
0000
0000
0000
0100
0000
0000
0010
0000
0000
0000
0000
0000
1000
0000
0000
0001
0000
0000
0000
0000
0000
0010
0000
0000
0000
0000
0000
0010
0000
0000
0100
0000
0000
0000
0000
0000
1000
0000
0001
0000
1000
0000
,
0100
0000
0000
0000
0000
0000
0000
0000
0100
0000
0000
0000
0000
0000
0000
0000
0010
0000
0000
0000
0000
0001
0000
0000
0000
0000
2000
0000
0000
0000
0000
0000
0000
0000
0000
0000
0000
0000
0000
0000
3010
0000
0000
0000
0000
0000
0000
0000
0000
0000
0000
0000
0000
0000
0000
0000
0100
0000
0000
0000
0000
0000
0000
0000
,
0001
0000
0100
0010
0000
1000
0000
0002
0000
0000
0000
0000
0013
0000
0100
0000
,
1000
0000
0000
0000
0001
0000
0000
0000
0000
0000
0000
0000
0002
0000
0000
0000
0000
0000
0000
0000
0000
0000
0000
0000
0103
0000
0000
0000
0000
0000
0000
0000
0001
0000
0000
0000
1000
0000
0000
0000
0000
0000
0000
0000
0000
0000
0000
0000
0100
0000
0000
0000
0000
0000
0000
0000
1000
0000
0000
0000
0000
0001
0000
0000
,
0000
0000
0000
0000
0000
0000
0000
0000
0100
0000
0000
0000
0000
0000
0000
0000
0010
0000
0000
0000
0000
0000
0000
0000
1000
0000
0000
0000
0000
0001
0000
0000
0000
0000
0000
0000
0000
0000
0000
0000
0010
0000
0000
0000
0000
0000
0000
0000
0100
0000
0000
0000
0000
0000
0000
0000
1000
0000
0000
0000
0000
0000
0000
0000
,
0001
0000
0001
0000
1000
0100
0000
0020
0000
0000
0130
0000
1000
0000
0000
0000
,
0001
0100
0010
0100
0002
0000
1003
0100
,
0010
0001
0100
0010
1000
0100
0010
0001
,
1000
0000
1000
0000
0010
0000
0100
0000
0001
0000
0000
0000
1000
0000
1000
0001
,
0100
0000
0100
0000
0000
0000
0001
1000
0100
0010
0001
0010
0100
0000
0100
0000
,
1000
0000
1000
0002
0000
0000
0103
0000
0010
0000
0000
0000
1000
0000
1000
0001
,
0010
0000
0010
0000
0000
0000
0100
1000
0100
1000
0000
0000
0001
0000
0000
0000
,
0100
0000
0010
0100
0001
0000
1000
0000
0100
0010
0000
0000
0001
0000
0001
1000
,
0010
0000
0010
0000
0000
0000
1000
0001
0010
0100
1000
0100
0010
0000
0010
0000
,
0001
0000
0000
1000
0010
0000
0100
0010
1000
0000
0000
0000
0001
0000
0001
1000
,
0100
0000
0100
0000
0000
0000
0100
0000
0010
0001
0010
0001
1000
0000
0001
0000
,
0100
0000
1000
0000
0100
0000
0001
0000
1000
0000
1000
0000
1000
0100
0000
0000
,
0010
0000
0000
0010
0001
0010
0000
0000
0100
1000
0001
0000
0100
0001
0000
0000
,
1000
0000
0000
0010
1000
0001
0000
0000
0010
0100
0000
0100
1000
0001
0100
0010
,
1000
0000
0000
0000
0000
0000
0000
0000
0000
0001
0000
0000
0010
0000
0000
0000
0000
0000
0100
0000
0000
1000
0000
0000
0000
0000
0000
1000
0000
0000
0000
0000
0000
1000
0000
0000
0001
0000
0000
0000
0000
0000
0100
0000
0001
0000
0100
0000
,
0001
0000
0000
0000
0000
0000
0000
0000
0000
0100
0000
0000
0010
0000
0000
0000
0000
0000
1000
0000
0000
0001
0000
0000
0000
0000
0000
0010
0000
0000
0000
0000
0000
0010
0000
0000
0100
0000
0000
0000
0000
0000
1000
0000
0001
0000
1000
0000
,
0010
0000
0010
0000
1000
0010
0100
0000
0001
1000
0000
0100
0010
0001
1000
0001
,
0010
0000
0000
0000
0000
0000
0000
0000
0000
0100
0000
0000
1000
0000
0000
0000
0000
0000
0001
0000
0000
0000
0000
0000
0100
0000
0000
0010
0000
0000
0100
0000
0000
0001
0000
0000
1000
0000
0100
0000
0010
0000
0001
0000
0000
1000
0000
0000
,
0001
0000
0000
0000
0000
0000
0000
0000
0000
1000
0000
0000
0010
0000
0000
0000
0000
0000
0100
0000
0000
0001
0000
0000
0000
0000
0000
0001
0000
0000
0000
0000
0000
0001
0000
0000
1000
0000
0000
0000
0000
0000
0100
0000
1000
0000
0100
0000
,
2000
0000
0000
0000
3004
0000
0000
1003
,
1001
0000
0001
1000
0100
0000
1000
0001
0100
0000
0001
1000
0010
0000
1000
0001
,
0010
0000
0100
1000
0001
0000
0100
0001
1000
0000
0001
0010
0100
1000
0100
1000
,
0001
0000
1000
0001
0100
0000
0001
1000
0100
0000
1000
0001
0010
0000
0001
1000
,
0010
0000
0100
0001
1000
0000
0100
1000
0001
0000
1000
0010
0100
0001
0100
0001
,
1000
0000
0001
1000
0010
0000
1000
0001
0010
0000
0001
1000
0100
0000
1000
0001
,
0100
0000
0010
1000
0001
0000
0010
0001
1000
0000
0001
0100
0010
1000
0010
1000
,
0001
0000
1000
0001
0010
0000
0001
1000
0010
0000
1000
0001
0100
0000
0001
1000
,
0100
0010
0001
1000
0000
0001
0100
0010
0100
0001
1000
0100
0010
0001
0010
0001
,
1000
0000
0000
1000
0000
0000
1000
0000
0100
0000
0000
0000
0000
0000
0000
0000
,
0010
0000
0000
0010
0000
0000
0010
0000
0001
0000
0000
0000
0000
0000
0000
0000
,
1000
0000
0000
1000
0000
0000
1000
0000
0010
0000
0000
0000
0000
0000
0000
0000
,
0100
0000
0000
0100
0001
0000
0100
0000
0000
0000
0001
0000
1000
0000
1000
0001
,
0010
0000
0010
0000
0000
0000
0001
1000
0010
0100
0001
0100
0010
0000
0010
0000
,
1000
0000
1000
0002
0000
0000
0013
0000
0100
0000
0000
0000
1000
0000
1000
0001
,
0100
0000
0100
0000
0000
0000
0010
1000
0010
1000
0000
0000
0001
0000
0000
0000
,
0010
0000
0100
0010
0001
0000
1000
0000
0010
0100
0000
0000
0001
0000
0001
1000
,
0100
0000
0100
0000
0000
0000
1000
0001
0100
0010
1000
0010
0100
0000
0100
0000
,
0001
0000
0000
1000
0100
0000
0010
0100
1000
0000
0000
0000
0001
0000
0001
1000
,
0010
0000
0010
0000
0000
0000
0010
0000
0100
0001
0100
0001
1000
0000
0001
0000
,
1000
0010
1000
0010
0100
0001
0100
0001
1000
0100
1000
0100
0010
0001
0010
0001
,
0100
0000
0100
0000
0000
0000
0001
1000
0100
0010
0001
0010
0100
0000
0100
0000
,
1000
0000
1000
0002
0000
0000
0103
0000
0010
0000
0000
0000
1000
0000
1000
0001
,
0010
0000
0010
0000
0200
0000
0000
2300
0000
0000
0001
0000
3001
0000
0000
0000
,
0100
0000
0010
0100
0001
0000
1000
0000
0100
0010
0000
0000
0001
0000
0001
1000
,
0010
0000
0010
0000
0000
0000
1000
0001
0010
0100
1000
0100
0010
0000
0010
0000
,
0001
0000
0000
1000
0010
0000
0100
0010
1000
0000
0000
0000
0001
0000
0001
1000
,
0100
0000
0100
0000
0000
0000
0100
0000
0010
0001
0010
0001
1000
0001
1000
0001
,
0100
0000
1000
0000
0100
0000
0001
0000
1000
0000
1000
0000
1000
0100
0000
0000
;
