#TITLE:Lean On (feat. MØ);
#SUBTITLE:;
#ARTIST:Major Lazer & DJ Snake;
#TITLETRANSLIT:Lean On (feat. M0);
#SUBTITLETRANSLIT:;
#ARTISTTRANSLIT:;
#CREDIT:SupremeX;
#BANNER:Lean On-bn.png;
#BACKGROUND:Lean On-bg.png;
#LYRICSPATH:;
#CDTITLE:cdtitle.png;
#MUSIC:Lean On.ogg;
#OFFSET:-0.304;
#SAMPLESTART:46.785;
#SAMPLELENGTH:12.000;
#SELECTABLE:YES;
#BPMS:0.000=98.030;
#STOPS:;
#BGCHANGES:0.000=Lean On.avi=1.000=1=1=0,
99999=-nosongbg-=1.000=0=0=0 // don't automatically add -songbackground-
;

//---------------dance-single - ----------------
#NOTES:
     dance-single:
     :
     Beginner:
     1:
     0.092,0.096,0.000,0.000,0.000:
0000
0000
0000
0000
,
0000
0000
0000
0000
,
0000
0000
0000
0000
,
0000
0000
0000
0000
,
0000
0010
0000
0100
,
0000
0001
0000
1000
,
0000
0010
0000
0100
,
0000
0001
0000
1000
,
0000
0000
0010
0000
,
0100
0000
0001
0000
,
0000
1000
0000
1000
,
0000
0001
0000
0001
,
0000
0100
0000
0100
,
0000
0010
0000
1000
,
0000
0001
0000
0001
,
0000
0100
0000
0001
,
0000
0100
0000
0100
,
0000
0010
0000
1000
,
0000
0001
0000
0001
,
0000
0100
0000
0010
,
0000
1000
0000
1000
,
0000
0001
0000
0001
,
0000
0100
0000
0100
,
0000
0010
0000
0010
,
0000
1000
0000
1000
,
0000
0001
0000
0001
,
0000
0100
0000
0010
,
0000
0100
0000
0010
,
0000
0000
0000
0000
,
0000
0000
0000
1000
0000
0000
0000
0000
,
0001
0000
0001
0000
,
0001
0000
0001
0000
,
0000
1000
0000
1000
,
0000
1000
0000
1000
,
0000
0010
0000
0010
,
0000
0010
0000
0000
,
0100
0000
0100
0000
,
0100
0000
0000
0000
,
0001
0000
1000
0000
,
0001
0000
1000
0000
,
0010
0000
1000
0000
,
0010
0000
0000
0000
,
0100
0000
0001
0000
,
0100
0000
0000
0000
,
0001
0000
1000
0000
,
0001
0000
1000
0000
;

//---------------dance-single - ----------------
#NOTES:
     dance-single:
     :
     Easy:
     3:
     0.197,0.194,0.059,0.008,0.000:
0000
0000
0000
0000
,
0000
0000
0000
0000
,
0000
0000
0000
0000
,
0000
0000
0000
0000
,
1000
0000
0010
0010
0000
0000
0100
0100
,
0000
0001
1000
0001
,
1000
0000
0010
0010
0000
0000
0100
0100
,
0000
0001
1000
0001
,
1000
0010
0100
0001
,
1000
1000
1000
1000
,
0000
0000
0001
0001
0000
0000
1000
1000
,
0000
0010
0100
0001
,
0100
0010
0000
1000
,
0000
0010
0100
0001
,
1001
0100
0000
0010
,
0010
1000
0001
0100
,
0001
0001
0001
0001
,
0001
1000
1000
1000
,
1000
0010
0010
0010
,
0010
0100
0100
0100
,
0100
0001
1000
0001
,
1000
0010
0100
0010
,
0100
0100
0001
0001
,
1000
1000
1000
0001
,
0100
0100
0010
0010
,
1000
1000
0001
0001
,
0100
0001
0100
0001
,
1000
0010
0010
0010
,
0200
0000
0000
0000
,
0000
0000
0000
0300
0000
0000
0000
0000
,
0001
0001
1000
1000
,
0010
0100
0001
1000
,
1001
0010
0010
0100
,
0001
1000
0001
1000
,
0010
0100
0001
0100
,
0010
1000
0001
0110
,
1000
0001
1000
0000
,
0110
0000
0000
1001
0000
0000
1001
0000
,
0010
0100
0010
0100
,
0100
0001
0001
1000
,
0001
1000
1000
0010
,
0100
0001
0001
1000
,
1000
0010
0100
0001
,
0100
0010
0010
1000
,
1000
0001
0100
0010
,
1000
0001
0100
0110
;

//---------------dance-single - ----------------
#NOTES:
     dance-single:
     :
     Medium:
     7:
     0.282,0.272,0.000,0.000,0.042:
0000
0000
0000
0000
,
0000
0000
0000
0000
,
0000
0000
0000
0000
,
0000
0000
0000
0000
,
1000
0000
1000
0010
0000
0000
0100
0001
,
0000
0000
0100
0000
0010
0000
1000
0010
,
1000
0000
0001
0001
0000
0000
0100
0100
,
0000
0000
0010
0000
1000
0100
1000
0100
,
0100
0000
0010
0000
0001
0010
0001
0000
,
1000
0000
0001
0000
0100
0010
0100
0000
,
0001
0000
1000
1000
0000
0000
0001
0001
,
0010
0100
0010
0100
1000
0001
1000
0010
,
0010
0000
0000
0000
0100
0000
0100
0000
0000
0000
0000
0000
0001
0000
0000
0001
,
0000
1000
0100
0000
0100
1000
0100
0010
,
0001
0000
0000
0000
0100
0000
0100
0000
0000
0000
0000
0000
0010
0000
0000
0010
,
0000
1000
0100
0010
0001
0010
0100
1000
,
0100
0000
0000
0000
1000
0000
1000
0000
0000
0000
0000
0000
0001
0000
0000
0001
,
0000
0000
0100
0000
0010
0100
0010
1000
,
0001
0000
0000
0000
0100
0000
0100
0000
0000
0000
0000
0000
0010
0000
0000
0010
,
0000
0000
1000
0000
0010
0000
0010
0100
,
0001
0000
0100
0100
0001
0000
1000
1000
,
0010
0000
0100
0001
0100
0010
0100
0001
,
0100
0000
0001
0001
1000
0000
0100
0100
,
0010
0000
0010
0001
0100
0010
1000
0001
,
1000
0000
0010
0010
0100
0000
0001
0001
,
1000
0000
0010
1000
0010
0100
0001
0000
,
0010
0000
0100
0100
1000
0000
1000
1000
,
0001
0000
0100
0010
0100
0001
1000
0001
,
0100
0100
0100
0100
,
0001
0001
0001
0000
,
1000
0100
1000
0001
1000
0100
0100
0000
,
0010
0000
0010
0000
1000
0001
1000
0010
,
0010
0000
0100
0000
0100
0000
0001
1000
,
0001
0100
0000
0100
0000
0010
0000
1000
,
0100
0010
0001
0000
1000
0100
1000
0000
,
0100
0010
0001
0000
1000
0010
0100
0000
,
0100
0001
1000
0010
0010
0000
1000
0001
,
0100
0000
0000
0100
0000
0000
0010
0000
0000
0010
0000
0000
1000
0000
0000
0000
,
0001
0000
0000
0000
1000
0000
1000
0000
0000
0000
0000
0000
0010
0000
0000
0010
,
0000
1000
0100
0010
0001
0010
0100
1000
,
0100
0000
0000
0000
0100
0000
0000
0000
0000
0000
0000
0000
1000
0000
0000
1000
,
0000
0001
0100
0000
0100
0001
1000
0010
,
0010
0000
0000
0000
0100
0000
0000
0000
0100
0000
0000
0000
0001
0000
0000
0001
,
0000
1000
0010
0100
0001
1000
0100
1000
,
1000
0000
0000
0000
0010
0000
0000
0000
0000
0000
0000
0000
0100
0000
0000
0100
,
0000
0001
0010
0100
1000
0000
0001
0001
;

//---------------dance-single - ----------------
#NOTES:
     dance-single:
     :
     Hard:
     9:
     0.474,0.488,0.229,0.220,0.437: // measure 1
0000
0000
0000
0000
,  // measure 2
0000
0000
0000
0000
,  // measure 3
0000
0000
0000
0000
,  // measure 4
0000
0000
0000
0000
,  // measure 5
1000
0000
0000
0100
1000
0100
1000
0000
0000
0000
0000
0010
0100
0010
0100
0000
,  // measure 6
0000
0000
0100
0001
1000
0010
0100
0100
,  // measure 7
0001
0000
0000
0000
1000
0100
1000
0000
0000
0000
0000
0100
0010
0000
0110
0000
,  // measure 8
0000
0000
0001
1000
0100
0010
0001
0101
,  // measure 9
1001
0000
0000
0001
0000
0000
0100
0010
0100
0000
0010
0000
2000
0000
0000
0000
,  // measure 10
3002
0000
0203
0000
0310
0100
0001
1000
,  // measure 11
0110
0000
0001
0001
0000
0000
1000
1000
,  // measure 12
0000
0000
0010
0100
0010
0000
0100
0001
0000
0001
0000
1000
0100
0000
1000
0000
,  // measure 13
1001
0000
0000
0000
0001
0100
0020
0000
0000
0000
0030
0000
2000
0000
0000
3100
,  // measure 14
0000
0000
1000
0000
0100
0000
0010
0000
0001
0000
1000
0100
1000
0000
0100
0000
,  // measure 15
0110
0000
0000
0000
0010
0001
0020
0000
0000
0000
0030
0000
0200
0000
0000
1300
,  // measure 16
0000
0000
1000
0010
0100
0000
0100
0001
0000
0001
0000
1000
0010
0000
0010
0000
,  // measure 17
0101
0000
1000
0000
0010
0100
0002
0000
0000
0000
0003
0000
2000
0000
0000
3100
,  // measure 18
0000
0000
1000
0010
0100
0000
0001
1000
0000
1000
0000
0010
0100
0000
0010
0000
,  // measure 19
0110
0000
0000
0000
0001
0010
0002
0000
0000
0000
0003
0000
2000
0000
0000
3010
,  // measure 20
1000
0010
1000
0010
1000
0000
0001
0100
0000
0100
0000
0010
1000
0000
1001
0000
,  // measure 21
0100
0000
0010
0100
0000
0000
1010
0000
0100
0000
0001
0100
0000
0000
0101
0000
,  // measure 22
1000
0000
0010
1000
0000
0000
0110
0000
0001
0100
0001
0100
0000
0000
1001
0000
,  // measure 23
0100
0000
0010
0100
0000
0000
0110
0000
0001
0000
1000
0001
0000
0000
1001
0000
,  // measure 24
0100
0000
0001
1000
0000
0000
1100
0000
0001
0100
0010
1000
0000
0000
1001
0000
,  // measure 25
0010
0000
1000
0100
0000
0000
0110
0000
0001
0000
0010
0100
0000
0000
0110
0000
,  // measure 26
1000
0000
0001
0100
0000
0000
1010
0000
0100
0001
1000
0001
0000
0000
1100
0000
,  // measure 27
0010
0000
0001
0100
0000
0000
0110
0000
1000
0000
0010
0100
0000
0000
1001
0000
,  // measure 28
0100
0010
1000
0010
0100
0000
0001
1000
0000
1000
0000
0001
0100
0000
0100
0000
,  // measure 29
0010
1000
0100
0010
0100
1000
0010
0100
,  // measure 30
1000
0100
0010
0002
0000
0000
0003
0000
,  // measure 31
1000
0000
1000
0000
0010
0000
0100
0000
0001
0000
0100
0000
0010
1000
0010
1000
,  // measure 32
0000
0000
0010
0100
0010
0100
0000
0000
0001
1000
0001
1000
0001
0000
0100
0000
,  // measure 33
0100
0000
0010
1000
0010
0000
1000
0000
0100
0000
0000
0000
0010
0001
0010
0001
,  // measure 34
0010
0100
1000
0100
0010
0100
1000
0001
,  // measure 35
0100
0001
0100
0001
0100
0000
0001
1000
0010
0000
1000
0010
1000
0010
0100
0000
,  // measure 36
0100
0000
0001
0100
0000
0100
0001
0000
1000
0100
1000
0100
1000
0000
0010
0000
,  // measure 37
0100
0000
0001
0000
0010
0000
0100
0000
1001
0000
0000
0000
0100
0010
0100
0010
,  // measure 38
2000
0000
0000
3200
0000
0000
0320
0000
0000
0032
0000
0000
0013
0000
0100
0000
,  // measure 39
1100
0000
0000
0000
0010
0001
0020
0000
0000
0000
0030
0000
0200
0000
0000
1300
,  // measure 40
0000
0000
1000
0100
1000
0000
0100
1000
0000
1000
0000
0100
0010
0000
0001
0000
,  // measure 41
0011
0000
0000
0000
0100
1000
0200
0000
0000
0000
0300
0000
2000
0000
0000
3100
,  // measure 42
0000
0000
0100
1000
0100
0000
0010
0001
0000
0001
0000
1000
0100
0000
1000
0000
,  // measure 43
1000
0000
0000
0000
0001
0010
0002
0000
0000
0000
0003
0000
0020
0000
0000
0130
,  // measure 44
0000
0000
1000
0100
1000
0000
0100
0010
0000
0100
0000
0001
0100
0000
0010
0000
,  // measure 45
1000
0000
0000
0000
1000
0001
0200
0000
0000
0000
0300
0000
0020
0000
0000
1030
,  // measure 46
0010
1000
0010
0100
0001
0000
1000
0010
0000
0010
0000
1000
0001
0000
2002
0000
,  // measure 47
3003
0000
0000
0000
;
