#TITLE:Instruction;
#SUBTITLE:(feat. Demi Lovato);
#ARTIST:Jax Jones;
#TITLETRANSLIT:;
#SUBTITLETRANSLIT:;
#ARTISTTRANSLIT:;
#GENRE:;
#CREDIT:hooky;
#BANNER:Instruction.png;
#BACKGROUND:Instruction-bg.png;
#LYRICSPATH:;
#CDTITLE:;
#MUSIC:Instruction.ogg;
#OFFSET:0.000000;
#SAMPLESTART:44.753010;
#SAMPLELENGTH:17.999992;
#SELECTABLE:YES;
#DISPLAYBPM:121.000000;
#BPMS:0.000000=121.000000
;
#STOPS:
;
#BGCHANGES:;
#KEYSOUNDS:;
#ATTACKS:;

//---------------dance-single - ----------------
#NOTES:
     dance-single:
     :
     Hard:
     8:
     0.482459,0.593533,0.428453,0.260432,0.348643,402.000000,351.000000,51.000000,31.000000,0.000000,0.000000,0.482459,0.593533,0.428453,0.260432,0.348643,402.000000,351.000000,51.000000,31.000000,0.000000,0.000000:
0000
0000
0000
0000
,
0000
0000
0000
0000
,
0000
0000
0000
0000
,
2000
0000
3002
0000
,
0203
0000
0320
0030
,
0220
0000
0000
0330
,
2002
0000
0000
3003
,
1000
0000
0000
0000
0000
1000
0000
0000
0001
0000
0000
0000
0001
0000
0000
0000
,
0100
0000
0000
0000
0100
0000
0000
0000
0010
0000
0000
0000
0000
0010
0000
0000
,
2002
0000
0000
3003
,
0220
0000
0000
0330
,
1010
0000
0000
0010
1000
0000
1000
0000
0001
0000
0000
0100
0001
0000
0010
0000
,
0001
0000
0000
0001
0100
0000
0000
0100
0010
0000
0000
0010
1000
0000
1000
0000
,
1001
0000
0000
0001
0100
0000
0001
0000
0010
0000
0000
0010
0001
0000
0100
0000
,
0001
0000
0000
0001
1000
0000
1000
0000
0010
0000
0000
0010
1000
0000
0100
0000
,
1000
1000
1100
0000
0010
0010
1010
0000
,
0010
0000
0000
0100
0001
0000
0010
0000
0001
0000
0000
0001
0100
0000
0001
0000
,
0010
0010
0011
0000
0001
0001
0101
0000
,
0100
0000
0000
0010
1000
0000
0000
0100
1000
0000
0010
0000
0010
0000
0000
0000
,
0220
0000
0300
0000
0130
0000
0000
0010
,
2020
0000
0030
0000
3100
0000
0000
0001
,
0202
0000
0303
1000
2002
0000
3003
0001
,
1001
0000
0100
0000
0001
1000
0001
0000
,
1000
1000
1000
0000
0001
0001
0001
0000
,
0100
0000
0100
0000
0100
0000
0100
0000
0010
0000
0010
0000
0000
0010
0000
0000
,
1010
0000
0000
0010
1000
0000
1000
0000
0001
0000
0010
0000
0100
0000
1000
0000
,
1001
0000
0000
0001
0100
0000
0100
0000
0001
0000
0010
0000
0001
0000
0100
0000
,
1000
0000
1000
0000
0000
1000
0000
0000
0100
0000
0001
0000
0001
0000
0000
0000
,
0100
0000
0100
0000
0100
0000
0100
0000
0010
0000
0010
0000
0000
0010
0000
0000
,
0101
0000
0000
0100
0001
0000
0001
0000
1000
0000
0100
0000
0010
0000
0001
0000
,
1001
0000
0000
1000
0010
0000
0010
0000
1000
0000
0000
0000
1000
0000
0010
0000
,
0110
0000
0000
0100
0001
0000
0010
0000
0001
0000
0000
0001
1000
0000
0010
0000
,
0100
0000
0100
0000
0100
0000
0100
0100
,
0101
0000
0000
0001
0010
0000
0001
0000
0100
0000
0000
0010
1000
0000
0100
0000
,
1000
0000
0001
0100
0020
0000
0100
0130
,
1010
0010
0100
0001
0010
0010
0001
1000
,
0020
0100
0130
0000
0200
0001
0301
1000
,
1001
0000
0001
0100
1000
0100
0001
0001
,
2000
0000
0001
3001
0200
0000
0010
0310
,
0220
0000
0000
0000
0000
0000
0330
1010
,
2200
0000
0000
3300
,
0011
0000
0000
0011
0000
0000
0011
0000
0101
0000
0000
0101
0000
0000
0101
0000
,
2002
0000
0000
0000
0000
0000
0000
0000
0000
3003
0000
0000
0001
0000
1000
0000
0010
0000
1000
0000
0001
0000
0100
0000
,
0010
0000
1000
0010
1000
0000
0100
0000
0010
0000
0001
0010
0001
0000
0000
0000
,
0001
0100
0100
0000
0001
0000
0100
0000
0010
0100
0010
0000
0000
0010
0000
0000
,
0110
0000
0000
0010
1000
0000
0100
0000
1000
0000
0000
0001
1000
0000
0001
0000
,
0011
0000
0000
0001
1000
0000
0100
0000
1000
0000
0000
1000
0001
0000
0100
0000
,
0010
0000
1000
0010
0000
1000
0000
0000
0010
0000
0100
0001
0001
0000
0000
0000
,
0010
0001
0100
0000
0100
0000
0100
0000
0100
0001
0010
0000
0000
0010
0000
0000
,
0101
0000
0001
0000
1000
0001
0000
0100
0000
0100
0000
0010
0100
0000
0100
0000
,
0110
0000
0000
0110
0000
0000
0011
0000
1010
0000
0000
1100
0000
0000
0101
0000
,
1001
0000
0000
0001
0000
0000
0001
0000
0100
0001
0000
0001
1000
0000
0010
0000
,
1010
0000
0000
1100
0000
0000
1100
0000
1000
0001
0000
1000
0010
0000
0010
0000
,
0100
0000
0100
0000
0001
1000
0000
0001
0000
0100
0000
0100
0010
0000
1000
0000
,
1100
0000
1000
0001
0000
0100
0000
0001
0000
0010
0000
0001
0100
0000
0001
0000
,
1001
0000
0000
1000
0000
0000
1000
0000
0010
1000
0000
1000
0001
0000
0100
0000
,
0101
0000
0000
0011
0000
0000
0011
0000
0001
1000
0000
0001
0100
0000
0100
0000
,
0010
0000
0010
0000
1000
0001
0000
1000
0000
0010
0000
0010
0100
0000
0001
0000
,
0000
0000
0001
1000
0000
0010
0000
1000
0000
0100
0000
1000
0001
0000
1000
0000
;

//---------------dance-single - ----------------
#NOTES:
     dance-single:
     :
     Medium:
     5:
     0.324040,0.370170,0.260432,0.378046,0.042005,270.000000,239.000000,31.000000,45.000000,0.000000,0.000000,0.324040,0.370170,0.260432,0.378046,0.042005,270.000000,239.000000,31.000000,45.000000,0.000000,0.000000:
// measure 0
0000
0000
0000
0000
,  // measure 1
0000
0000
0000
0000
,  // measure 2
0000
0000
0000
0000
,  // measure 3
2000
0000
3002
0000
,  // measure 4
0203
0000
0320
0000
,  // measure 5
0230
0000
0000
0300
,  // measure 6
0020
0000
0000
0030
,  // measure 7
1000
1000
0001
0001
,  // measure 8
0100
0100
0010
0010
,  // measure 9
2020
0000
0000
3030
,  // measure 10
0022
0000
0000
0033
,  // measure 11
0101
0000
0000
0100
0010
0000
0000
0000
1010
0000
0000
1000
0100
0000
0000
0000
,  // measure 12
2000
0100
0001
3010
,  // measure 13
0101
0000
0000
0001
0010
0000
0000
0000
1010
0000
0000
0010
0100
0000
0000
0000
,  // measure 14
0200
0010
1000
0301
,  // measure 15
0001
0001
0001
0000
1000
0010
0100
0000
,  // measure 16
0002
0010
0100
1003
,  // measure 17
1000
0100
1000
0000
0001
0100
0001
0000
,  // measure 18
0001
0010
0001
0000
1000
0010
1000
0000
,  // measure 19
0220
0000
0000
0000
0000
0000
0330
1010
,  // measure 20
2020
0000
0000
0000
0000
0000
3030
0101
,  // measure 21
0202
0000
0303
0011
0022
0000
0033
1100
,  // measure 22
2100
0010
0001
3100
,  // measure 23
1000
0000
1000
0000
0001
0100
0001
0000
,  // measure 24
0100
0000
0100
0000
0010
0010
0010
0000
,  // measure 25
0200
0010
1000
0301
,  // measure 26
0020
0100
1000
0031
,  // measure 27
1000
0000
0000
0000
0000
1000
0000
0000
0001
0000
0000
0000
0001
0000
0000
0000
,  // measure 28
0100
0000
0000
0000
0100
0000
0000
0000
0010
0000
0000
0000
0000
0010
0000
0000
,  // measure 29
2000
0010
0100
3001
,  // measure 30
0002
0000
0100
0000
0010
0000
1003
1000
,  // measure 31
0001
0000
0100
0001
0010
0000
0001
0001
,  // measure 32
1000
0000
1010
0000
0100
0000
0110
0010
,  // measure 33
0100
0000
0010
0010
0001
0000
0100
0000
,  // measure 34
0001
0000
0000
1000
0001
0000
0000
0100
,  // measure 35
0200
0310
0020
1030
,  // measure 36
2000
0000
3001
0000
0002
0000
0013
0010
,  // measure 37
0011
0000
0001
0000
1000
0010
1000
0000
,  // measure 38
0100
0000
0000
0010
0100
0000
0010
0000
,  // measure 39
0022
0000
0000
0000
0000
0000
0033
1010
,  // measure 40
2020
0000
0000
3030
,  // measure 41
0110
0101
1010
0110
,  // measure 42
0022
0033
2002
3003
,  // measure 43
0001
0001
1000
0000
1000
1000
0001
0000
,  // measure 44
0010
0000
0100
0000
0010
0100
0010
0000
,  // measure 45
0002
0000
0100
0000
1000
1000
1003
0000
,  // measure 46
2000
0000
0100
0000
0001
0001
3001
0000
,  // measure 47
0001
0000
0100
0000
0000
1000
0000
0000
1000
0000
0100
0000
0001
0000
0000
0000
,  // measure 48
0010
0000
0001
0000
0100
0000
0100
0000
0001
0000
0010
0000
0000
0010
0000
0000
,  // measure 49
0021
0100
1000
0031
,  // measure 50
0201
0000
0000
0010
0000
0000
0010
0000
0010
0000
0000
0010
0000
0000
0310
0000
,  // measure 51
0100
0000
0110
0000
0010
1000
0100
0000
,  // measure 52
1000
0000
1100
0000
1000
0001
0100
0000
,  // measure 53
0001
0010
0001
0000
1000
0010
1000
0000
,  // measure 54
1000
0010
0100
0001
0010
0010
0001
0000
,  // measure 55
0200
0000
0310
0000
0010
1000
0100
0000
,  // measure 56
2000
0000
3001
0000
0001
0100
0010
0000
,  // measure 57
0100
0100
0010
0000
0100
0100
0001
0000
,  // measure 58
0002
0010
0100
1003
;

//---------------dance-single - ----------------
#NOTES:
     dance-single:
     :
     Easy:
     3:
     0.216027,0.222102,0.126015,0.319239,0.000000,180.000000,165.000000,15.000000,38.000000,0.000000,0.000000,0.216027,0.222102,0.126015,0.319239,0.000000,180.000000,165.000000,15.000000,38.000000,0.000000,0.000000:
0000
0000
0000
0000
,
0000
0000
0000
0000
,
0000
0000
0000
0000
,
2000
0000
3002
0000
,
0203
0000
0320
0030
,
0220
0000
0000
0330
,
2002
0000
0000
3003
,
2000
0000
3002
0000
,
0203
0000
0320
0030
,
2020
0000
0000
3030
,
0202
0000
0000
0303
,
1000
0010
1000
1000
,
0001
0010
0001
0001
,
0100
0010
1000
1000
,
0001
0100
0001
0001
,
0010
0001
0100
0100
,
0001
1000
0010
0100
,
0010
0010
1000
0001
,
2000
0010
3010
0000
,
0110
0000
0000
0000
,
1010
0000
0000
0000
,
0101
0000
0011
0000
,
2002
0000
0000
3003
,
0001
1000
1000
0001
,
0001
0100
0001
0010
,
0002
0000
1003
0000
,
2000
0000
3100
0000
,
1000
1000
0001
0001
,
0010
0100
0100
0010
,
0200
0000
0310
0000
,
0020
0000
0130
0000
,
0010
0001
0100
0001
,
1000
0000
1000
0000
,
0001
0100
0010
1000
,
0100
0000
1000
0000
,
0100
1000
0010
0010
,
0200
0000
0301
0000
,
0001
1000
0001
0001
,
1000
0000
1001
0000
,
0220
0000
0000
0330
,
2020
0000
0000
3030
,
2200
3300
0022
0033
,
2002
0000
0000
3003
,
0001
1000
1000
0001
,
0010
0100
0100
0010
,
0001
0100
0010
1000
,
1000
0100
0010
0001
,
1000
1000
0001
0001
,
0100
0100
0010
0010
,
1000
0010
0100
0001
,
0001
0010
0100
1000
,
2000
0001
0100
3010
,
0020
0100
0001
1030
,
1000
0001
0010
0001
,
1000
0100
0010
0001
,
0002
1000
0010
0103
,
0200
0010
1000
0301
,
0001
1000
0100
1000
,
0001
0010
0100
1000
;

//---------------dance-single - ----------------
#NOTES:
     dance-single:
     :
     Beginner:
     1:
     0.126015,0.197424,0.084010,0.084010,0.000000,105.000000,95.000000,10.000000,10.000000,0.000000,0.000000,0.126015,0.197424,0.084010,0.084010,0.000000,105.000000,95.000000,10.000000,10.000000,0.000000,0.000000:
0000
0000
0000
0000
,
0000
0000
0000
0000
,
0000
0000
0000
0000
,
2000
0000
3000
0000
,
0002
0000
0003
0000
,
0100
0000
0100
0000
,
0010
0000
0010
0000
,
0200
0000
0300
0000
,
0020
0000
0030
0000
,
1000
0000
1000
0000
,
0001
0000
0001
0000
,
1000
0000
0100
0000
,
1000
0000
0000
0000
,
0001
0000
0100
0000
,
0001
0000
0000
0000
,
0001
0000
0010
0000
,
0001
0000
0000
0000
,
1000
0000
0010
0000
,
1000
0000
0000
0000
,
0001
0000
0000
0000
,
1000
0000
0000
0000
,
0010
0000
0100
0000
,
0110
0000
0000
0000
,
1001
0000
0001
0000
,
0100
0000
0010
0000
,
1000
1000
1000
0000
,
0001
0001
0001
0000
,
1000
0000
0001
0000
,
0100
0000
0010
0000
,
1010
0000
0000
0000
,
0101
0000
0000
0000
,
0001
0000
1000
0000
,
0001
0000
0000
0000
,
0100
0000
0010
0000
,
0100
0000
0000
0000
,
0010
0000
1000
0000
,
0100
0000
0000
0000
,
0001
0000
0100
0000
,
0010
0000
0010
0000
,
0110
0000
0000
0000
,
1100
0000
0000
0000
,
0011
0000
0110
0000
,
2002
0000
0000
3003
,
1000
1000
1000
0000
,
0001
0001
0001
0000
,
0200
0000
0300
0000
,
0020
0000
0030
0000
,
1000
0000
0001
0000
,
1000
0000
0010
0000
,
0100
0000
0100
0000
,
0010
0000
1000
1000
,
1000
0000
0001
0000
,
0100
0000
0001
0000
,
1000
0000
0010
0000
,
0100
0000
0001
0000
,
0010
0000
0001
0000
,
1000
0000
0010
0000
,
0100
0000
0001
0000
,
2002
0000
0000
3003
;
