#VERSION:0.83;
#TITLE:Gloss (Niteloop Flip);
#SUBTITLE:;
#ARTIST:KRNE;
#TITLETRANSLIT:;
#SUBTITLETRANSLIT:;
#ARTISTTRANSLIT:;
#GENRE:EDM;
#ORIGIN:;
#CREDIT:CuzcoBlocko (steps), Benpai (song cut);
#BANNER:Gloss (Niteloop Flip).png;
#BACKGROUND:Gloss (Niteloop Flip)-bg.png;
#PREVIEWVID:;
#JACKET:Gloss (Niteloop Flip)-jacket.png;
#CDIMAGE:;
#DISCIMAGE:;
#LYRICSPATH:;
#CDTITLE:cdtitle.png;
#MUSIC:Gloss (Niteloop Flip).ogg;
#OFFSET:-0.917000;
#SAMPLESTART:43.560001;
#SAMPLELENGTH:12.000000;
#SELECTABLE:YES;
#DISPLAYBPM:135.000000;
#BPMS:0.000=67.500,
15.000=135.000,
16.000=481516.000,
16.021=191.250,
16.375=135.000,
16.750=90.000,
17.000=135.000,
19.750=27.000,
20.000=135.000,
23.000=180.000,
23.500=135.000,
23.625=101.250,
24.000=135.000,
26.750=27.000,
27.000=135.000,
30.000=202.500,
30.188=135.000,
30.313=90.000,
30.563=135.000,
30.750=180.000,
31.000=135.000,
33.750=67.500,
34.000=270.000,
34.500=135.000,
38.000=180.000,
38.333=135.000,
38.750=101.250,
39.000=135.000,
39.500=202.500,
39.688=135.000,
39.813=101.250,
40.000=135.000,
41.000=202.500,
41.188=135.000,
41.313=101.250,
41.500=202.500,
42.688=135.000,
42.938=67.500,
43.063=135.000,
43.313=202.500,
43.500=135.000,
44.000=151.875,
44.188=101.250,
44.250=151.875,
44.625=101.250,
44.750=151.875,
45.125=101.250,
45.250=151.875,
45.438=101.250,
45.500=151.875,
45.875=101.250,
46.000=270.000,
46.125=135.000,
46.188=67.500,
46.438=135.000,
46.625=270.000,
47.000=135.000,
49.500=270.000,
49.625=135.000,
49.688=67.500,
49.750=9.000,
49.813=54.000,
49.875=108.000,
50.000=135.000,
53.000=180.000,
53.500=135.000,
53.625=101.250,
54.000=135.000,
56.500=270.000,
56.625=135.000,
56.688=67.500,
56.750=33.750,
56.813=67.500,
56.875=135.000,
57.000=270.000,
57.500=135.000,
61.000=202.500,
61.188=135.000,
61.313=90.000,
61.563=135.000,
61.750=180.000,
62.000=135.000,
64.000=270.000,
64.500=202.500,
65.500=270.000,
66.000=202.500,
67.000=135.000,
75.000=151.875,
75.188=101.250,
75.250=151.875,
75.438=101.250,
75.500=151.875,
75.688=101.250,
75.750=151.875,
75.938=101.250,
76.000=67.500,
76.125=135.000,
76.250=270.000,
77.500=33.750,
77.563=101.250,
77.750=270.000,
78.250=33.750,
78.313=101.250,
78.500=135.000,
81.000=180.000,
81.250=135.000,
81.313=67.500,
81.438=135.000,
81.563=202.500,
81.750=180.000,
82.000=135.000,
82.063=67.500,
82.188=135.000,
82.313=202.500,
82.500=135.000,
85.000=270.000,
85.500=33.750,
85.563=101.250,
85.750=270.000,
86.083=45.000,
86.167=135.000,
89.000=180.000,
89.250=135.000,
89.313=67.500,
89.438=135.000,
89.563=202.500,
89.750=180.000,
90.000=135.000,
90.063=67.500,
90.188=135.000,
90.313=202.500,
90.500=135.000,
93.750=481516.000,
93.771=258.750,
94.250=33.750,
94.313=101.250,
94.500=135.000,
97.000=180.000,
97.250=135.000,
97.313=67.500,
97.438=135.000,
97.563=202.500,
97.750=180.000,
98.000=135.000,
98.063=67.500,
98.188=135.000,
98.313=202.500,
98.500=135.000,
101.000=270.000,
101.500=33.750,
101.563=101.250,
101.750=270.000,
102.083=45.000,
102.167=135.000,
105.000=180.000,
105.250=135.000,
105.313=67.500,
105.438=135.000,
105.563=202.500,
105.750=180.000,
106.000=135.000,
106.063=67.500,
106.188=135.000,
106.313=202.500,
106.500=135.000,
109.000=405.000,
109.188=270.000,
109.313=135.000,
109.438=67.500,
109.688=101.250,
109.771=202.500,
109.875=270.000,
110.000=135.000,
113.000=180.000,
113.250=135.000,
113.313=67.500,
113.438=135.000,
113.563=202.500,
113.750=270.000,
113.875=135.000,
113.938=67.500,
114.000=135.000,
117.000=270.000,
117.250=135.000,
117.375=67.500,
117.625=202.500,
118.000=135.000,
121.000=180.000,
121.250=135.000,
121.313=67.500,
121.438=135.000,
121.563=202.500,
121.750=270.000,
121.875=135.000,
121.938=67.500,
122.000=135.000,
124.000=180.000,
125.000=270.000,
125.250=135.000,
125.375=67.500,
125.438=90.000,
125.688=101.250,
125.771=202.500,
125.875=270.000,
126.000=135.000,
129.000=180.000,
129.250=135.000,
129.313=67.500,
129.438=135.000,
129.563=202.500,
129.750=270.000,
129.875=135.000,
129.938=67.500,
130.000=135.000,
133.000=67.500,
135.500=101.250,
136.500=67.500,
136.625=33.750,
136.688=67.500,
136.813=101.250,
137.000=135.000,
161.000=67.500,
163.000=270.000,
163.500=67.500,
163.750=135.000,
164.000=270.000,
164.500=67.500,
164.750=135.000,
165.000=270.000,
165.500=67.500,
165.750=135.000,
166.000=270.000,
166.500=67.500,
166.750=135.000,
167.000=202.500,
167.375=135.000,
167.750=90.000,
168.000=135.000,
170.750=27.000,
171.000=135.000,
174.000=180.000,
174.500=135.000,
174.625=101.250,
175.000=135.000,
177.750=27.000,
178.000=135.000,
180.000=270.000,
180.750=135.000,
181.000=405.000,
181.250=202.500,
181.313=135.000,
181.438=90.000,
181.813=135.000,
184.750=67.500,
185.000=270.000,
185.500=135.000,
189.000=180.000,
189.333=135.000,
189.750=101.250,
190.000=135.000,
190.500=202.500,
190.688=135.000,
190.813=101.250,
191.000=135.000,
192.000=202.500,
192.188=135.000,
192.313=101.250,
192.500=270.000,
193.000=135.000,
193.375=67.500,
193.500=202.500,
193.688=135.000,
193.875=90.000,
194.000=135.000,
194.250=270.000,
194.625=135.000,
194.813=67.500,
195.000=151.875,
195.250=101.250,
195.333=151.875,
195.583=101.250,
195.667=151.875,
195.917=101.250,
196.000=151.875,
196.250=101.250,
196.333=151.875,
196.583=101.250,
196.667=151.875,
196.917=101.250,
197.000=270.000,
197.125=135.000,
197.188=67.500,
197.438=135.000,
197.625=270.000,
198.000=135.000,
200.500=270.000,
200.625=135.000,
200.688=67.500,
200.750=9.000,
200.813=54.000,
200.875=108.000,
201.000=135.000,
204.000=180.000,
204.500=135.000,
204.625=101.250,
205.000=135.000,
207.500=270.000,
207.625=135.000,
207.688=67.500,
207.750=33.750,
207.813=67.500,
207.875=135.000,
208.000=270.000,
208.500=135.000,
211.000=270.000,
211.750=135.000,
212.000=202.500,
212.188=135.000,
212.313=90.000,
212.563=135.000,
212.750=180.000,
213.000=135.000,
215.500=540.000,
215.750=270.000,
216.125=67.500,
216.250=135.000,
216.500=202.500,
217.500=135.000,
226.000=90.000,
226.167=45.000,
226.417=90.000,
226.583=135.000,
226.833=270.000,
227.500=33.750,
227.563=101.250,
227.750=270.000,
228.083=135.000,
228.167=67.500,
228.333=202.500,
231.000=180.000,
231.250=135.000,
231.313=67.500,
231.438=135.000,
231.563=202.500,
231.750=180.000,
232.000=135.000,
232.063=67.500,
232.188=135.000,
232.313=202.500,
232.500=135.000,
235.000=270.000,
235.500=33.750,
235.563=101.250,
235.750=270.000,
236.083=45.000,
236.167=135.000,
236.667=202.500,
238.500=135.000,
239.000=180.000,
239.250=135.000,
239.313=67.500,
239.438=135.000,
239.563=202.500,
239.750=180.000,
240.000=135.000,
240.063=67.500,
240.188=135.000,
240.313=202.500,
240.500=135.000,
243.750=481516.000,
243.771=258.750,
244.250=33.750,
244.313=101.250,
244.500=135.000,
247.000=180.000,
247.250=135.000,
247.313=67.500,
247.438=135.000,
247.563=202.500,
247.750=180.000,
248.000=135.000,
248.063=67.500,
248.188=135.000,
248.313=202.500,
248.500=135.000,
251.000=270.000,
251.500=33.750,
251.563=101.250,
251.750=270.000,
252.083=45.000,
252.167=135.000,
255.000=180.000,
255.250=135.000,
255.313=67.500,
255.438=135.000,
255.563=202.500,
255.750=180.000,
256.000=135.000,
256.063=67.500,
256.188=135.000,
256.313=202.500,
256.500=135.000,
259.000=405.000,
259.188=270.000,
259.313=135.000,
259.438=67.500,
259.688=101.250,
259.771=202.500,
259.875=270.000,
260.000=135.000,
263.000=180.000,
263.250=135.000,
263.313=67.500,
263.438=135.000,
263.563=202.500,
263.750=270.000,
263.875=135.000,
263.938=67.500,
264.000=135.000,
267.000=270.000,
267.250=135.000,
267.375=67.500,
267.625=202.500,
268.000=135.000,
271.000=180.000,
271.250=135.000,
271.313=67.500,
271.438=135.000,
271.563=202.500,
271.750=270.000,
271.875=135.000,
271.938=67.500,
272.000=135.000,
274.000=180.000,
275.000=270.000,
275.250=135.000,
275.375=67.500,
275.563=202.500,
275.750=135.000,
279.000=180.000,
279.250=135.000,
279.313=67.500,
279.438=135.000,
279.563=202.500,
279.750=270.000,
279.875=135.000,
279.938=67.500,
280.000=135.000,
283.000=67.500;
#STOPS:15.000=0.444,
41.500=0.019,
41.625=0.019,
41.750=0.037,
42.000=0.037,
42.250=0.037,
64.500=0.149,
64.750=0.074,
65.250=0.037,
66.000=0.148,
66.250=0.037,
66.500=0.018,
66.625=0.019,
66.750=0.018,
66.875=0.019,
76.500=0.111,
124.000=0.029,
124.250=0.029,
124.500=0.029,
124.750=0.029,
135.500=0.037,
135.625=0.037,
135.750=0.037,
135.875=0.037,
136.000=0.037,
136.125=0.037,
136.250=0.037,
136.375=0.037,
180.500=0.167,
192.500=0.056,
211.500=0.167,
216.250=0.111,
216.500=0.037,
216.750=0.019,
216.875=0.019,
217.000=0.037,
217.250=0.037,
226.417=0.183,
228.333=0.025,
228.500=0.025,
228.667=0.049,
229.000=0.050,
229.333=0.050,
229.667=0.049,
230.000=0.049,
230.333=0.050,
230.667=0.050,
236.667=0.049,
237.000=0.050,
237.333=0.049,
237.667=0.049,
238.000=0.074,
274.000=0.028,
274.250=0.028,
274.500=0.028,
274.750=0.028;
#DELAYS:;
#WARPS:;
#TIMESIGNATURES:0.000=4=4;
#TICKCOUNTS:0.000=4;
#COMBOS:0.000=1;
#SPEEDS:0.000=1.000=0.000=0;
#SCROLLS:0.000=1.000,
15.000=-2.000,
15.250=-1.000,
15.375=-0.500,
15.438=0.000,
15.563=0.500,
15.625=1.000,
15.750=2.000,
16.000=1.000,
93.000=-0.500,
93.188=0.000,
93.500=0.250,
93.688=0.500,
93.750=1.000,
243.000=-1.000,
243.188=0.000,
243.500=0.500,
243.688=1.000;
#FAKES:;
#LABELS:0.000=Song Start;
#BGCHANGES:8.000=Gloss (Niteloop Flip).avi=1.000=1=0=1===CrossFade==,
286.000=Gloss (Niteloop Flip)-bg.png=1.000=0=0=1=====;
#KEYSOUNDS:;
#ATTACKS:
;

//---------------dance-single - ----------------
#NOTEDATA:;
#CHARTNAME:ITG 11 X 16;
#STEPSTYPE:dance-single;
#DESCRIPTION:;
#CHARTSTYLE:Pad;
#DIFFICULTY:Challenge;
#METER:10;
#RADARVALUES:0.762576,0.750660,0.663760,0.873369,1.096951,764.000000,669.000000,95.000000,125.000000,102.000000,0.000000,44.000000,0.000000,0.000000,0.762576,0.750660,0.663760,0.873369,1.096951,764.000000,669.000000,95.000000,125.000000,102.000000,0.000000,44.000000,0.000000,0.000000;
#CREDIT:CuzcoBlocko;
#DISPLAYBPM:135.000000;
#NOTES:
// measure 0
0000
0000
0000
0000
0000
0000
0000
0000
0000
0000
0000
0000
0000
0000
0000
0000
0000
M000
0000
0000
0000
0000
0M00
0000
0000
0M00
0000
0000
0000
0000
0000
0000
,  // measure 1
0000
0000
0000
0000
0000
0000
0000
0000
0000
0000
0000
0000
0000
0000
0000
0000
0000
00M0
0000
0000
0000
0000
000M
0000
0000
000M
0000
0000
0000
0000
0000
0000
,  // measure 2
2002
0000
0000
0000
0000
0000
0000
0000
0000
0000
0000
0000
0000
0000
0000
0000
0000
00M0
0000
0000
0000
0000
0M00
0000
0000
0M00
0000
0000
3000
0000
0000
0000
,  // measure 3
0103
0010
1000
0001
0010
0100
1000
0000
0000
MM00
0000
0000
,  // measure 4
0000
0021
0000
0000
0000
0000
0000
0000
0000
0000
0000
0000
0000
0000
0000
0000
0000
0000
0000
0000
0000
0000
0000
0000
0000
0000
0000
0000
0000
0000
0000
0000
0000
0000
0000
0000
0000
0000
0000
0000
0000
0000
0000
0000
0000
0000
0000
0000
0130
0000
0000
0000
0000
0000
0000
0000
0000
0000
0000
0000
1000
0000
0000
0000
0000
0000
0000
0000
0000
0000
0000
0000
0001
0000
0000
0000
0000
0000
0000
0000
0000
0000
0000
0000
0010
0000
0000
0000
0000
0000
0000
0000
0000
0000
0000
0000
0100
0000
0000
0000
0000
0000
0000
0000
0000
0000
0000
0000
0000
0000
0000
0000
0000
0000
0000
0000
0000
0000
0000
0000
2000
0000
0000
0000
0000
0000
0000
0000
0000
0000
0000
0000
3001
0000
0000
0000
0000
0000
0000
0000
0000
0000
0000
0000
0000
0000
0000
0000
0000
0000
0000
0000
0000
0000
0000
0000
0000
0000
0000
0000
0000
0000
0000
0000
0000
0000
0000
0000
0011
0000
0000
0000
0000
0000
0000
0000
0000
0000
0000
0000
0000
0000
0000
0000
0000
0000
0000
0000
0000
0000
0000
0000
,  // measure 5
0001
1000
0001
0010
0100
0000
2000
3000
0010
0000
0100
0000
0101
0000
0000
0000
,  // measure 6
1000
0001
0100
0010
1000
0000
0002
0103
0000
0000
0110
0000
1000
0001
1000
0010
,  // measure 7
0100
0000
0000
0000
0002
0000
0003
0000
1000
0000
0000
0000
0100
0000
0000
0000
0120
0000
0000
0000
0000
0000
0000
0000
0034
0000
4000
0000
0000
0003
0000
3000
,  // measure 8
1010
0000
0000
0000
0020
0000
0130
0000
0001
0000
0000
0000
1001
0000
0000
M000
0000
0000
0000
0000
0010
0000
0001
0000
1000
0000
0010
0000
0100
0000
0001
0000
,  // measure 9
1000
0000
0020
0030
0400
0300
0010
0000
1010
0000
0000
0000
1000
0000
1100
0000
,  // measure 10
0100
0000
0020
0030
0014
0000
0000
0000
0000
0003
0101
0000
0000
0000
0001
0000
,  // measure 11
0010
0100
0000
1000
0000
0001
0100
0000
2010
0000
0000
0000
3001
1000
0010
0100
,  // measure 12
0001
0000
2000
3100
0000
0000
0202
0303
1000
0001
0100
0010
1000
0000
0200
0300
,  // measure 13
0010
0000
0100
0000
1100
0000
0000
0000
1000
0001
1000
0010
0100
0000
0002
0103
,  // measure 14
0000
0000
2200
3300
0000
0000
00M0
0000
00M1
1000
00M1
0100
00M1
1000
0200
0310
,  // measure 15
0001
1000
0010
0100
0201
0000
0000
0000
0310
1000
0001
0010
0100
1000
0001
0200
,  // measure 16
0020
0000
0330
0000
0000
0000
1000
0000
0000
0000
0200
0000
0020
0000
0330
0000
0000
0000
0001
0000
4000
3000
0004
0003
0020
0000
0000
0000
0100
0000
0000
0000
,  // measure 17
0230
0000
1000
0300
1002
0003
1000
0001
0000
0000
0200
1300
0100
0001
0000
0001
,  // measure 18
0020
0030
0010
0100
1000
0001
0100
0010
4000
0004
0000
3000
0013
0100
1000
0001
,  // measure 19
0200
0000
0000
0000
0000
0000
0000
0000
0320
0030
0000
0000
0000
0000
0000
0000
2020
0000
0000
0000
3030
0000
0000
0000
0000
0000
0000
0000
1200
0000
0000
0000
0300
0000
0000
0000
0000
0000
0000
0000
0001
0000
0000
0000
0000
0000
0000
0000
0100
0000
0000
0000
1000
0000
0000
0000
0000
0000
0000
0000
1001
0000
0000
0000
,  // measure 20
0000
1000
0100
0000
0022
0033
0000
0102
0003
0000
0100
1000
0000
1000
0100
0000
,  // measure 21
0004
0003
0040
0030
0004
0003
4000
3000
2020
0000
3030
0000
0000
0000
0210
0000
0300
0000
0001
0000
1M00
0000
0100
0000
0010
0000
0M01
0000
1000
0000
0001
0000
,  // measure 22
0M10
0100
1000
0M01
0022
0033
0000
0210
0300
0000
1000
0010
0100
0001
0100
0010
,  // measure 23
4000
0000
0000
0000
0000
0000
3000
0000
0000
0000
0000
0000
0400
0000
0000
0000
0000
0000
0300
0000
0000
0000
0000
0000
0040
0000
0000
0000
0000
0000
0030
0000
0000
0000
0000
0000
0004
0000
0000
0000
0000
0000
0003
0000
0000
0000
0000
0000
0000
0000
0000
0000
0000
0000
0000
0000
0000
0000
0000
0000
0000
0000
0000
0000
0000
0000
0000
0000
0000
0000
0000
0000
0000
0000
0000
0000
0000
0000
0000
0000
0000
0000
0000
0000
0001
0200
0000
0000
0000
0000
0000
0000
0000
0000
0000
0000
0300
0000
0000
0000
0000
0000
0000
0000
0000
0000
0000
0000
0000
0000
0000
0000
0000
0000
0000
0000
0000
0000
0000
0000
1000
0000
0000
0000
0000
0000
0000
0000
0000
0000
0000
0000
0000
0000
0000
0000
0000
0000
0000
0000
0000
0000
0000
0000
0100
0000
0000
0000
0000
0000
0000
0000
0000
0000
0000
0000
0001
0000
0000
0000
0000
0000
0000
0000
0000
0000
0000
0000
0000
0000
0000
0000
0000
0000
0000
0000
0000
0000
0000
0000
1001
0000
0000
0000
0000
0000
0000
0000
0000
0000
0000
0000
,  // measure 24
0000
0001
0100
0000
2020
3030
0000
2200
3300
0000
0100
0010
0000
0010
0100
0000
,  // measure 25
4000
3000
0004
0003
0010
0000
0000
0000
0220
0000
0330
0000
0000
0000
2100
0000
3000
0000
0000
0000
0M10
0000
0000
0000
0100
0000
0001
0000
0000
0000
1001
0000
,  // measure 26
0M00
0001
0100
0000
0220
0330
0000
0102
0003
0000
10M0
0100
0010
0001
1000
0001
,  // measure 27
01M0
0000
0000
0000
0000
0000
0000
0000
0000
0000
0000
0000
0010
0000
0000
0000
0000
0000
0000
0000
0000
0000
0000
0000
1000
0000
0000
0000
0000
0000
0000
0000
0000
0000
0000
0000
0001
0000
0000
0000
0000
0000
0000
0000
0000
0000
0000
0000
0021
0000
0000
0000
0000
0000
0000
0000
0000
0000
0000
0000
0000
0000
0000
0000
0000
0000
0000
0000
0000
0000
0000
0000
0000
0000
0000
0000
0000
0000
0000
0000
0000
0000
0000
0000
0000
0000
0000
0000
0000
0000
0000
0000
0000
0000
0000
0000
0100
0030
0000
0000
0000
0000
0000
0000
0000
0000
0000
0000
1000
0000
0000
0000
0000
0000
0000
0000
0000
0000
0000
0000
0001
0000
0000
0000
0000
0000
0000
0000
0000
0000
0000
0000
0010
0000
0000
0000
0000
0000
0000
0000
0000
0000
0000
0000
0100
0000
0000
0000
0000
0000
0000
0000
0000
0000
0000
0000
1000
0000
0000
0000
0000
0000
0000
0000
0000
0000
0000
0000
0000
0000
0000
0000
0000
0000
0000
0000
0000
0000
0000
0000
0010
0000
0000
0000
0000
0000
0000
0000
0000
0000
0000
0000
,  // measure 28
0000
0001
0010
0000
2010
3000
0000
0100
0010
0001
1000
0010
0100
0001
0000
0010
,  // measure 29
1000
0010
0001
0000
1002
0000
0000
0000
0103
0001
1000
0010
0100
0001
1000
0100
,  // measure 30
0010
0001
1000
0000
2001
3000
0000
0010
1000
0001
0010
0100
1000
0010
0100
0010
,  // measure 31
0001
0010
0100
0010
1020
0000
0000
0000
M130
0001
1000
0010
M100
0001
0000
0010
,  // measure 32
M000
0100
1000
0001
0021
0030
0000
0100
100M
0001
0100
0010
100M
0000
0001
0100
,  // measure 33
004M
0000
0000
0000
0000
0000
0030
0000
0000
0000
0000
0000
4000
0000
0000
0000
0000
0000
3000
0000
0000
0000
0000
0000
0004
0000
0000
0000
0000
0000
0003
0000
0000
0000
0000
0000
4000
0000
0000
0000
0000
0000
3000
0000
0000
0000
0000
0000
01M0
0000
0000
0000
0000
0000
0000
0000
0000
0000
0000
0000
0000
0000
0000
0000
0001
0000
0000
0000
0000
0000
0000
0000
00M0
0000
0000
0000
0000
0000
0000
0000
0100
0000
0000
0000
0000
0000
0000
0000
0000
0000
0000
0000
0000
0000
0000
0000
10M0
0000
0000
0000
0000
0000
0000
0000
0000
0000
0000
0000
0000
0000
0000
0000
0001
0000
0000
0000
0000
0000
0000
0000
00M0
0000
0000
0000
0000
0000
0000
0000
0100
0000
0000
0000
0000
0000
0000
0000
0000
0000
0000
0000
0000
0000
0000
0000
00M1
0000
0000
0000
0000
0000
0000
0000
0000
0000
0000
0000
0000
0000
0000
0000
0000
0000
0000
0000
0000
0000
0000
0000
M000
0000
0000
0000
0000
0000
000M
0000
0000
0000
0000
0000
0M00
0000
0000
0000
0000
0000
000M
0000
0000
0000
0000
0000
,  // measure 34
M000
0M00
00M0
000M
M00M
M0M0
0000
0000
1100
0000
0000
0000
0000
0000
0000
0000
1000
0000
0000
0000
0100
0000
0000
0000
1000
0000
0000
0000
0000
0000
1000
0000
,  // measure 35
0100
0000
1000
0000
0000
000M
1001
0000
0001
0000
0M00
0000
1001
0M00
1000
0001
,  // measure 36
0000
0000
1000
0001
0101
0000
0000
0000
0001
0000
0100
0000
0001
0000
0000
0001
,  // measure 37
0100
0000
0001
0000
0000
00M0
1001
0000
1000
0000
0M00
1000
0001
0M00
1001
0000
,  // measure 38
0000
1000
0000
0000
1100
0000
0000
0000
0100
0000
0010
0000
0100
0000
0000
0100
,  // measure 39
1000
0000
0001
0000
0000
00M0
0101
0000
0100
0000
M000
0000
0110
M000
0100
0010
,  // measure 40
0000
0000
0000
0000
0000
0000
0010
0000
0000
1000
0000
0000
0100
0000
0000
0000
0010
0000
0000
0000
0001
0000
0000
0000
1000
0000
0000
0000
0010
0000
0000
0000
0100
0000
0000
0000
0101
0000
0000
0000
0000
0000
0000
0000
0000
0000
0000
0000
,  // measure 41
1100
1010
0011
0102
,  // measure 42
1003
0001
M100
0000
0010
1000
0200
M310
0000
0000
0011
0000
1000
0001
M100
0000
,  // measure 43
0010
1000
0002
M013
0000
0000
M110
0000
2100
0000
0000
0000
3001
1000
0M10
0000
,  // measure 44
1000
0100
0020
0M31
0000
0000
1001
0000
1000
0001
01M0
0000
0010
1000
0002
0M13
,  // measure 45
M100
0000
0000
0000
0000
0M00
0001
0000
2000
0000
0000
0000
0000
0000
0000
0000
3004
0000
0403
0000
031M
0000
0000
0000
1010
0000
0000
0000
1000
0000
001M
0000
,  // measure 46
0100
0000
0000
0000
0102
0000
0000
0000
0000
0000
0000
0000
0013
0000
0001
0000
1000
0000
0010
0000
010M
0000
0010
0000
1000
0000
0000
0001
0000
0000
120M
0000
,  // measure 47
0000
0000
031M
0000
0021
0000
0000
0000
0031
0000
0101
0000
0000
0100
0020
0030
,  // measure 48
1010
0000
0000
0000
0000
0000
0000
0000
0000
0000
0000
0000
0000
0000
0000
0000
0000
0000
0000
0000
0000
0000
0000
0000
0000
0000
0000
0000
0000
0000
0000
0000
0000
0000
0000
0000
4000
0000
0000
0000
0000
0000
0000
0000
0000
0000
0000
0000
0000
0000
0000
0000
0000
0000
3000
0000
0000
0000
0000
0000
0000
0000
0000
0000
0000
0000
0000
0000
0000
0000
0000
0000
1200
0000
0000
0000
0000
0000
0000
0000
0000
0000
0000
0000
0000
0000
0000
0000
0000
0000
0000
0000
0000
0000
0000
0000
0000
0000
0000
0000
0000
0000
0000
0000
0000
0000
0000
0000
0320
0000
0000
0000
0000
0000
0000
0000
0000
0000
0000
0000
0000
0000
0000
0000
0000
0000
0000
0000
0000
0000
0000
0000
0000
0000
0000
0000
0000
0000
0000
0000
0000
0000
0000
0000
0031
0000
0000
0000
0000
0000
0000
0000
0000
0000
0000
0000
0000
0000
0000
0000
1000
0000
0000
0000
0000
0000
0000
0000
0000
0000
0000
0000
0000
0000
0000
0000
0010
0000
0000
0000
0000
0000
0000
0000
0000
0000
0000
0000
0000
0000
0000
0000
,  // measure 49
0100
0000
0000
0000
0001
0000
0000
0000
1000
0000
0000
0000
1200
0000
0000
0000
0000
0000
0000
0000
0000
0000
0000
0000
0310
0000
0000
0100
0000
0000
10M0
0000
0000
0010
0000
0000
0100
0000
0000
0000
0000
0000
0002
0000
0000
01M3
0000
0000
,  // measure 50
0000
0000
2200
3300
0001
1000
01M0
0010
0100
0000
2000
30M1
0000
0000
01M1
0000
,  // measure 51
2010
0000
0000
0000
3001
1000
001M
0100
0001
0000
2000
310M
0000
0000
0202
0303
,  // measure 52
0000
0000
0000
0000
4000
0000
0004
0000
0000
0000
3000
0000
01M3
0000
0010
0000
1000
0000
0001
0000
0020
0000
013M
0000
10M0
0000
0000
0000
0000
M000
0010
0000
,  // measure 53
0002
0000
0000
0000
0103
0001
1000
0010
0100
0001
1000
0100
M010
0001
0200
0000
,  // measure 54
0000
0000
0300
0000
0000
0000
0001
1000
0001
0000
0100
0000
M010
0000
0000
0000
1000
0000
0100
0000
1000
0000
0001
0000
0100
0000
0010
0000
1000
0000
0000
0000
,  // measure 55
2001
3000
0000
0001
0010
0000
0200
1300
0004
1000
0000
0103
0020
0030
0100
0001
,  // measure 56
1000
0000
0000
0100
0000
0000
0010
0000
0000
0001
0000
0000
4000
0000
0040
0000
0000
0000
0000
0000
0000
3000
0000
0000
0130
0000
0000
0000
0000
0101
0000
0000
0000
0000
0000
0000
2020
0000
0000
3030
0000
0000
0000
0000
0000
1200
0000
0000
,  // measure 57
0300
0000
0000
0000
1000
0000
0100
0000
0010
0000
0000
0000
0001
0000
0000
0000
1000
0000
0000
0000
0001
0000
0000
0000
0010
0000
0000
0000
0001
0000
0000
0000
1000
0000
0000
0000
2020
0000
0000
3030
0000
0000
0000
0000
0000
2200
0000
0000
,  // measure 58
3300
0000
0000
0000
0100
0000
0001
0000
0000
0000
0001
0000
0100
0000
0000
0000
4000
3000
0040
0030
4000
3000
0004
0003
0022
0000
0033
0000
0000
0000
0220
0000
,  // measure 59
0330
0000
0000
0000
0000
0000
0000
0000
0000
0000
0000
0000
0000
0000
0000
0000
0000
0000
0100
0000
0000
0000
0000
0000
1000
0000
0000
0000
0000
0000
0000
0000
0001
0000
0000
0000
0000
0000
0000
0000
0000
0000
0000
0000
0000
0000
0000
0000
0010
0000
0000
0000
0000
0000
0000
0000
0000
0000
0000
0000
0000
0000
0000
0000
0100
0000
0000
0000
0000
0000
0000
0000
0000
0000
0000
0000
0000
0000
0000
0000
0010
0000
0000
0000
0000
0000
0000
0000
0000
0000
0000
0000
0000
0000
0000
0000
0001
0000
0000
0000
0000
0000
0000
0000
0000
0000
0000
0000
0000
0000
0000
0000
0000
0000
0000
0000
0000
0000
0000
0000
0001
0000
0000
0000
0000
0000
0000
0000
0000
0000
0000
0000
1000
0000
0000
0000
0000
0000
0000
0000
0000
0000
0000
0000
2020
0000
0000
0000
0000
0000
0000
0000
0000
0000
0000
0000
3030
0000
0000
0000
0000
0000
0000
0000
0000
0000
0000
0000
0000
0000
0000
0000
0000
0000
0000
0000
0000
0000
0000
0000
0220
0000
0000
0000
0000
0000
0000
0000
0000
0000
0000
0000
,  // measure 60
0330
0000
0000
0000
0000
0000
0000
0000
0001
0000
0000
0000
1000
0000
0000
0000
0001
0000
0000
0000
0100
0000
0000
0000
0001
0000
0000
0000
1000
0000
0000
0000
0400
0000
0300
0000
0004
0000
0003
0000
0400
0000
0300
0000
4000
0000
3000
0000
0000
0000
0000
0000
0000
0000
0000
0000
0000
0000
0000
0000
1000
0020
0000
0000
,  // measure 61
0030
0000
0001
0000
0010
1000
0000
1001
0000
1000
0100
0000
0022
0033
0000
0202
,  // measure 62
0303
0000
0000
0000
0100
0000
0010
0000
0100
0000
0001
0000
0100
0000
0010
0000
4000
3000
0004
0003
0020
0000
0000
0030
0220
0000
0330
0000
0000
0000
2100
0000
,  // measure 63
3000
0000
0M10
0000
0100
0001
0000
1001
0M00
1000
0100
0000
0220
0330
0000
0022
,  // measure 64
0033
0000
01M0
0001
1000
0100
0010
0001
10M0
0001
0100
0010
1020
0000
0000
0000
,  // measure 65
0130
0001
1000
0010
0100
0001
0000
0010
0000
1000
0010
0000
0021
0030
0000
0100
,  // measure 66
1000
0001
0100
0010
1000
0001
0000
0010
1000
0010
0001
0000
0201
0000
0000
0000
,  // measure 67
0310
1000
0001
0010
0100
1000
0001
1000
0010
0100
0001
0000
1002
0003
0000
0010
,  // measure 68
0001
1000
0010
0100
0001
0010
0100
0010
1000
0010
0100
0010
0021
0000
0000
0000
,  // measure 69
013M
1000
0001
0010
010M
1000
0000
0010
000M
0100
0001
1000
1200
0300
0000
0010
,  // measure 70
M001
0000
1000
0000
0010
0000
0100
0000
M001
0000
1000
0000
0100
0000
0000
0000
M040
0030
0004
0003
4000
3000
0004
0003
02M0
0000
0000
0000
00M0
0000
0000
0000
,  // measure 71
00M0
0000
20M0
0000
00M0
0000
0000
0000
3300
000M
00M0
0000
0000
0000
0000
0000
;
