#TITLE:Everybody;
#SUBTITLE:(Backstreet's Back);
#ARTIST:Backstreet Boys;
#TITLETRANSLIT:;
#SUBTITLETRANSLIT:;
#ARTISTTRANSLIT:;
#GENRE:;
#CREDIT:;
#BANNER:Everybody (Backstreet's Back)-bn.png;
#BACKGROUND:Everybody (Backstreet's Back)-bg.png;
#LYRICSPATH:;
#CDTITLE:;
#MUSIC:Everybody (Backstreet's Back).mp3;
#OFFSET:-0.625000;
#SAMPLESTART:27.278999;
#SAMPLELENGTH:20.000000;
#SELECTABLE:YES;
#DISPLAYBPM:108.000000;
#BPMS:0.000000=108.050003
;
#STOPS:
;
#BGCHANGES:;
#KEYSOUNDS:;
#ATTACKS:;

//---------------dance-single - X scale 9----------------
#NOTES:
     dance-single:
     :
     Hard:
     6:
     0.331692,0.354082,0.232185,0.425672,0.019349,240.000000,216.000000,24.000000,44.000000,0.000000,0.000000,0.331692,0.354082,0.232185,0.425672,0.019349,240.000000,216.000000,24.000000,44.000000,0.000000,0.000000:
0000
0000
0000
0000
,
0000
0000
0000
0000
,
0000
0000
0000
0000
,
0000
0000
0000
0000
,
0000
0000
0000
0000
,
0000
0000
0000
0000
,
0000
0000
0000
0000
,
2000
0000
3002
0000
2003
0000
3010
0010
,
1001
0000
1000
0100
0001
0100
1000
0000
,
0011
0000
0001
1000
2010
0000
3010
0000
,
0110
0000
0001
0010
1000
0010
0001
0000
,
0101
0000
0001
1000
2100
0000
3100
0000
,
0020
1000
1000
0000
0100
0100
0130
0000
,
0001
0000
1000
0010
0100
0001
0010
0000
,
2000
0100
0100
0000
0001
0001
3001
0000
,
0010
0000
1000
0010
0100
0001
1000
0000
,
0002
0010
0010
0000
0100
0100
0103
0000
,
1000
0000
0001
1000
0100
0010
0100
0000
,
0002
0100
0100
0000
1000
1000
1003
0000
,
0010
0000
1000
0100
1000
0010
0100
0001
,
0200
0000
0000
0320
0000
0000
2030
0000
0000
0000
0001
0000
3001
0000
0000
0000
,
0102
0000
1003
2100
0000
3010
0100
0001
,
2000
0000
0000
3002
0000
0000
0203
0000
0000
0000
0010
0000
0310
0000
0000
0000
,
2010
0000
0000
0000
3001
0000
0012
0000
0000
0000
0203
0000
0000
0320
0000
0000
,
0230
0000
0000
0302
0000
0000
0023
0000
0000
0000
0001
0000
0031
0000
0000
0000
,
1002
0000
0103
0120
0000
0000
1030
0001
,
1000
0100
1000
0010
0100
0001
0010
0000
,
0001
0100
1000
0100
0001
0000
0010
0010
,
0020
0000
1030
0001
0200
0010
0310
0000
,
2100
0000
3001
0021
0000
0000
0130
0010
,
0002
0000
0103
0010
2000
0001
3001
0000
,
0120
0000
1030
2010
0000
0000
3010
0100
,
0002
0000
1003
0001
0020
0100
0130
0000
,
0201
0000
0320
0000
0230
0000
0301
1000
,
1001
0000
0100
0001
0100
1000
0100
0000
,
0002
0000
2003
0000
3002
0000
0103
0100
,
0001
0010
0100
1000
0100
0010
0001
0000
,
1000
0010
0100
0010
1000
0010
0100
0000
,
1000
0100
0010
0001
0010
0100
1000
0000
,
0001
0100
0010
0100
0001
0100
0010
0000
,
1000
0001
0100
0010
0100
0001
1000
0000
,
0011
0000
0101
0000
1001
0000
1000
1000
,
0010
0000
1000
0100
0001
0100
1000
0000
,
1010
0000
1100
0000
0110
0000
2000
0002
,
0000
0000
0000
0000
,
0000
0000
0000
3003
;

//---------------dance-single - X scale 11----------------
#NOTES:
     dance-single:
     :
     Challenge:
     8:
     0.486482,0.663903,0.715903,0.193487,0.217673,352.000000,278.000000,74.000000,20.000000,0.000000,0.000000,0.486482,0.663903,0.715903,0.193487,0.217673,352.000000,278.000000,74.000000,20.000000,0.000000,0.000000:
0000
0000
0000
0000
,
0000
0000
0000
0000
,
0000
0000
0000
0000
,
0000
0000
0000
0000
,
0000
0000
0000
0000
,
0000
0000
0000
0000
,
0000
0000
0000
0000
,
1100
0000
1001
0000
0101
0000
0010
0010
,
1001
0000
1000
0100
0010
1000
0100
0010
,
0011
0000
0100
0010
1010
0000
1000
0001
,
0101
0000
0001
0010
0100
0001
0010
0100
,
1100
0000
1000
0001
0101
0000
0100
0010
,
1000
0000
0010
0100
0000
0010
0100
0000
0001
0000
1000
0001
0000
1000
0001
0000
,
0011
0000
0100
0010
1010
0000
1000
0001
,
0100
0000
0001
0010
0000
0001
0010
0001
0010
0000
0100
1000
0000
0100
1000
0000
,
1001
0000
0000
0000
1000
0000
0010
0000
0110
0000
0000
0000
0100
0000
0010
1000
,
0010
0000
1000
0001
0000
1000
0001
0000
1000
0000
0010
0100
0000
0010
0100
0000
,
0101
0000
0000
0000
0100
0000
0001
0000
1100
0000
0000
0000
1000
0000
0001
0100
,
0001
0000
0010
0100
0000
1000
0010
1000
0010
0000
0100
0001
0000
0100
0001
0000
,
0110
0000
0001
0100
0001
1000
1000
1000
,
1100
0000
0000
1010
0000
0000
1002
0000
0100
0000
0100
0000
0103
0000
0000
0000
,
0201
0001
0301
0012
0000
1000
1000
1003
,
1001
0000
0000
1010
0000
0000
2100
0000
0001
0000
0001
0000
3001
0000
0000
0000
,
1020
0000
1000
0000
1030
0000
1001
0000
0000
0000
0110
0000
0000
0101
0000
0000
,
0110
0000
0000
1100
0000
0000
0120
0000
1000
0000
1000
0000
1030
0000
0000
0000
,
1002
0010
0013
0012
0000
0100
0100
0103
,
0011
0011
0101
0101
1100
1100
1010
1010
,
0110
1001
0110
1001
0110
0000
1000
1000
,
1002
0100
0013
2100
0001
0100
3100
0000
,
0002
0100
0103
2000
0001
0100
3010
0010
,
2010
0100
3001
0012
1000
0010
0013
0000
,
0200
0001
0310
0002
0100
0013
1000
1000
,
1200
0001
1300
1020
0100
1000
1030
0000
,
0001
0100
0000
0000
1000
0100
0000
0000
0001
1000
0000
0000
1100
0000
0101
0000
,
1001
0000
0001
0100
0010
0001
0100
0010
,
1010
0000
0110
0000
0101
0000
1000
0001
,
1000
0000
0010
0100
0000
0010
0100
0001
1000
0000
0001
0000
0001
0000
0000
0000
,
0010
0000
0001
0100
0000
0001
0100
0010
1000
0000
0100
0000
1000
0000
0001
0000
,
0100
0000
0001
1000
0000
0001
1000
0100
0010
0000
0001
0000
0010
0000
0000
0000
,
0101
0101
1010
1010
1100
1100
0011
0011
,
1001
0000
1000
0100
0000
1000
0010
0100
0001
0000
0001
0000
0010
0000
0000
0000
,
0101
0000
0010
0100
0000
0100
0001
1000
0001
0000
1000
0000
0010
0000
0000
0000
,
0011
0000
1000
0001
0000
1000
0100
0010
0001
0000
0100
0000
0010
0000
0000
0000
,
0110
0000
1010
0000
1100
0000
0110
2002
,
0000
0000
0000
0000
,
0000
0000
0000
3003
;

//---------------dance-single - X scale 7----------------
#NOTES:
     dance-single:
     :
     Medium:
     5:
     0.241859,0.309821,0.116092,0.464369,0.019349,175.000000,163.000000,12.000000,48.000000,0.000000,0.000000,0.241859,0.309821,0.116092,0.464369,0.019349,175.000000,163.000000,12.000000,48.000000,0.000000,0.000000:
0000
0000
0000
0000
,
0000
0000
0000
0000
,
0000
0000
0000
0000
,
0000
0000
0000
0000
,
0000
0000
0000
0000
,
0000
0000
0000
0000
,
0000
0000
0000
0000
,
2000
0000
3002
0000
2003
0000
3010
0010
,
1001
0000
0100
0000
0010
1000
0001
0000
,
0002
0000
0103
0010
2000
0000
3000
0000
,
0110
0000
1000
0000
0100
0010
0001
0000
,
0200
0000
0310
1000
0002
0000
0003
0000
,
0002
0100
1000
0103
,
0020
1030
0020
0130
,
0200
0001
1000
0301
,
2000
3010
0200
0301
,
0200
0010
0001
0310
,
0002
1003
0020
0130
,
2000
0100
0010
3001
,
0020
0000
0130
0000
0001
1000
0100
0000
,
0010
0000
0000
0010
0000
0000
0020
0000
0000
0000
0000
0000
0030
0000
0000
0000
,
0200
0000
0000
0302
0000
1003
0001
0000
,
0100
0000
0000
0100
0000
0000
0200
0000
0000
0000
0000
0000
0300
0000
0000
0000
,
0002
0000
0000
0000
0000
0000
2003
0000
0000
0000
3010
0000
0000
0100
0000
0000
,
0001
0000
0000
0001
0000
0000
0002
0000
0000
0000
0000
0000
0003
0000
0000
0000
,
0200
0000
0000
0320
0000
0000
2030
0000
,
3010
0100
0010
0000
1000
0001
1000
0000
,
0001
0100
0001
0100
0001
0000
1001
0000
,
0020
0000
0000
1000
2030
0000
3100
0000
,
0002
0000
0000
0203
0000
0000
0310
1000
,
0200
0000
0000
1000
2300
0000
3001
0000
,
0020
0000
0000
0032
0000
0000
1003
0100
,
2000
0000
0000
0001
3002
0000
0103
0000
,
0200
0000
0320
0000
2030
0000
3010
0100
,
0110
0000
0010
0000
1000
0001
0100
0000
,
0002
0000
0023
0000
0230
0000
0310
0001
,
1000
0100
0000
0010
0001
0000
0101
0000
,
0001
0010
0000
0100
1000
0000
1010
0000
,
0100
0010
0000
1000
0001
0000
0011
0000
,
0010
0100
0000
0001
1000
0000
1100
0000
,
1000
0001
0000
0010
0100
0000
0101
0000
,
0020
0000
2030
0000
3002
0000
1003
0010
,
0100
0000
0100
0000
1000
0001
1000
0000
,
1010
0000
1100
0000
0011
0000
0200
0001
,
0000
0000
0000
0000
,
0000
0000
0000
0300
;

//---------------dance-single - X scale 5----------------
#NOTES:
     dance-single:
     :
     Easy:
     3:
     0.172756,0.243431,0.135441,0.425672,0.000000,125.000000,111.000000,14.000000,44.000000,0.000000,0.000000,0.172756,0.243431,0.135441,0.425672,0.000000,125.000000,111.000000,14.000000,44.000000,0.000000,0.000000:
0000
0000
0000
0000
,
0000
0000
0000
0000
,
0000
0000
0000
0000
,
0000
0000
0000
0000
,
0000
0000
0000
0000
,
0000
0000
0000
0000
,
0000
0000
0000
0000
,
2000
3002
2003
3010
,
1001
0100
0001
1000
,
0002
0003
2000
3000
,
0110
0100
0001
1000
,
0020
0030
0200
0300
,
2002
3000
0100
0103
,
0010
0000
0100
0000
,
0220
0030
0001
0301
,
1000
0000
0001
0000
,
0220
0300
1000
1030
,
0010
0000
1000
0000
,
2002
0003
0010
3010
,
0100
0000
0001
0000
,
1000
0000
0000
1000
0000
0000
0000
0000
,
0020
0000
0000
0200
0000
0000
0330
0000
,
0010
0000
0000
0010
0000
0000
0000
0000
,
2000
0000
0000
0002
0000
0000
3003
0000
,
0100
0000
0000
0100
0000
0000
0000
0000
,
0020
0000
0000
0200
0000
0000
0330
0000
,
1000
1000
0001
0001
,
0100
0010
0100
0010
,
1002
0000
0000
0200
0000
0000
0303
0000
,
0020
0000
0000
2000
0000
0000
3030
0000
,
2001
0000
0000
0200
0000
0000
3300
0000
,
0002
0000
0000
0020
0000
0000
0033
0000
,
0210
0000
0000
0020
0000
0000
0330
0000
,
2000
3002
2003
3100
,
0110
0100
0001
1000
,
0020
0230
0320
0130
,
0110
0010
1000
0100
,
1000
0001
0010
0100
,
1001
0010
0100
0001
,
0010
0100
0001
1000
,
0110
0100
0010
0001
,
2000
3200
2300
3010
,
1001
0001
1000
0001
,
0200
0000
0320
0000
2030
0000
3001
0002
,
0000
0000
0000
0000
,
0000
0000
0000
0003
;

//---------------dance-single - X scale 1----------------
#NOTES:
     dance-single:
     :
     Beginner:
     1:
     0.087069,0.148139,0.116092,0.077395,0.000000,63.000000,51.000000,12.000000,8.000000,0.000000,0.000000,0.087069,0.148139,0.116092,0.077395,0.000000,63.000000,51.000000,12.000000,8.000000,0.000000,0.000000:
// measure 0
0000
0000
0000
0000
,  // measure 1
0000
0000
0000
0000
,  // measure 2
0000
0000
0000
0000
,  // measure 3
0000
0000
0000
0000
,  // measure 4
0000
0000
0000
0000
,  // measure 5
0000
0000
0000
0000
,  // measure 6
0000
0000
0000
0000
,  // measure 7
1000
0000
0001
0000
,  // measure 8
1001
0000
0000
0000
,  // measure 9
0010
0000
0010
0000
,  // measure 10
0110
0000
0000
0000
,  // measure 11
0100
0000
0100
0000
,  // measure 12
1001
0000
0000
0000
,  // measure 13
0001
0000
1000
0000
,  // measure 14
1001
0000
0000
0000
,  // measure 15
0100
0000
0010
0000
,  // measure 16
0110
0000
0000
0000
,  // measure 17
1000
0000
1000
0000
,  // measure 18
0110
0000
0000
0000
,  // measure 19
0001
0000
0001
0000
,  // measure 20
0100
0000
0000
0000
,  // measure 21
0200
0000
0000
0300
0000
0000
0000
0000
,  // measure 22
0010
0000
0000
0000
,  // measure 23
0020
0000
0000
0030
0000
0000
0000
0000
,  // measure 24
1000
0000
0000
0000
,  // measure 25
2000
0000
0000
3000
0000
0000
0000
0000
,  // measure 26
0010
0000
0100
0000
,  // measure 27
0001
0001
0001
0000
,  // measure 28
1001
0000
0000
0000
,  // measure 29
0002
0000
0000
0003
0000
0000
0000
0000
,  // measure 30
0110
0000
0000
0000
,  // measure 31
2000
0000
0000
3000
0000
0000
0000
0000
,  // measure 32
1001
0000
0000
0000
,  // measure 33
0010
0000
0100
0000
,  // measure 34
0001
0000
0000
0000
,  // measure 35
1000
0000
0001
0000
,  // measure 36
1001
0000
0000
0000
,  // measure 37
0200
0000
0000
0300
0000
0000
0000
0000
,  // measure 38
0110
0000
0000
0000
,  // measure 39
0020
0000
0000
0030
0000
0000
0000
0000
,  // measure 40
0110
0000
0000
0000
,  // measure 41
1000
0000
0010
0000
,  // measure 42
0002
0003
0000
0000
,  // measure 43
0100
0000
0000
0100
;
