#TITLE:Don't let it go;
#SUBTITLE:;
#ARTIST:ウッチ―ズ;
#TITLETRANSLIT:;
#SUBTITLETRANSLIT:;
#ARTISTTRANSLIT:Ucchies;
#GENRE:J-POP REMIX;
#CREDIT:;
#BANNER:[Deja Vu] - Don't let it go.png;
#BACKGROUND:[Deja Vu] - Don't let it go-bg.png;
#LYRICSPATH:;
#CDTITLE:CDTitle.png;
#MUSIC:[Deja Vu] - Don't let it go.ogg;
#OFFSET:-0.341673;
#SAMPLESTART:59.565193;
#SAMPLELENGTH:12.749996;
#SELECTABLE:YES;
#BPMS:0.000000=160.000000
;
#STOPS:
;
#BGCHANGES:;
#KEYSOUNDS:;
#ATTACKS:;

//---------------dance-single - ----------------
#NOTES:
     dance-single:
     :
     Hard:
     7:
     0.527483,0.603186,0.361423,0.371192,0.000000,378.000000,341.000000,37.000000,38.000000,0.000000,0.000000,0.527483,0.603186,0.361423,0.371192,0.000000,378.000000,341.000000,37.000000,38.000000,0.000000,0.000000:
0000
0000
0000
0000
,
0000
0000
0000
0000
,
0000
0000
0000
0000
,
0000
0000
0000
0000
,
0000
0000
0000
0000
,
0000
0000
0000
0000
,
0000
0000
0000
0000
,
1001
1001
0000
0000
0000
1001
0001
1000
,
2100
0000
3200
0000
0310
0001
0100
0000
,
0100
0010
1000
0000
1000
0010
0001
0000
,
0001
0010
1000
0000
2010
0000
3001
0000
,
1000
0100
1000
0010
0100
0001
1000
0010
,
0120
0000
2030
0000
3001
1000
0010
0000
,
0010
1000
0001
0000
0001
0100
1000
0000
,
1000
0100
0001
1000
0010
0100
0001
1000
,
1001
1001
0000
0000
0000
0001
0010
0001
,
1000
0100
0010
0100
0001
0100
0010
0100
,
1000
0000
0001
0000
0100
0000
0010
0100
,
0001
0000
0010
0001
0100
0010
1000
0100
,
2000
0000
3010
0000
1010
0000
0110
0010
,
0200
0000
0301
0010
0100
1000
0010
0000
,
2000
0000
3100
0010
0001
0100
0010
0000
,
2000
0000
3001
0100
1000
0100
0001
0000
,
1001
1001
0000
0000
0000
1000
0100
1000
,
0001
0010
0100
0010
1000
0010
0100
0010
,
0001
0000
0100
0000
0010
0000
1000
0100
,
0010
0000
0100
1000
0010
0100
0001
0010
,
0002
0000
1003
0000
1100
0000
0011
0001
,
0002
0000
0103
0010
1000
0010
0100
0000
,
0002
0000
0013
0100
1000
0100
0010
0000
,
0002
0000
1003
0010
0100
0001
1000
0000
,
0001
0100
0010
1000
0100
0010
0001
0000
,
0012
1003
1200
0310
,
0001
0100
0001
0100
0010
1000
0001
0100
,
0002
0013
0210
1300
,
0001
0010
0001
0010
0100
1000
0010
1000
,
0200
0000
0320
0000
0031
0100
0010
0000
,
2000
0000
3200
0000
0310
0100
1000
0000
,
0010
0100
0001
0010
0100
1000
0001
0000
,
1001
1001
0000
0000
0001
1000
0001
1000
,
2001
0000
3001
0010
0001
0100
1000
0100
,
0002
0000
0103
0010
1000
0001
0100
0000
,
0120
0000
1030
0100
1000
0010
0001
0010
,
2000
0000
3010
0100
0001
1000
0010
0000
,
2010
0000
0001
0000
0100
0100
3100
0000
,
0012
0000
1000
0000
0100
0100
0103
0000
,
0010
1000
0100
0000
0010
0001
0100
0000
,
0010
1000
0100
0010
0001
0100
0010
1000
,
1002
0000
0013
0001
1000
0100
0001
0100
,
1000
0010
0001
0010
1000
1000
0001
0000
,
0021
0000
0031
0010
0100
1000
0010
0100
,
0001
0010
0100
1000
0010
1000
0001
0000
,
1002
0000
0010
0000
0100
0100
0103
0000
,
2001
0000
0010
0000
0100
0100
3100
0000
,
0011
1100
0110
1001
,
0201
0000
0320
0000
0130
0001
0010
0000
,
0010
0100
1000
0000
1000
0010
0001
0000
,
0001
0010
1000
0000
2001
0000
3010
0000
,
0100
0010
1000
0100
0010
0001
0100
0010
,
1020
0000
2030
0000
3001
0010
0100
0000
,
0100
1000
0001
0000
0001
0100
1000
0000
,
1000
0100
0001
1000
0010
0100
0001
1000
,
1001
1001
0000
1000
0001
0010
0100
0100
,
2002
0000
0000
0000
,
0000
0000
0000
0000
,
3003
0000
0000
0000
;

//---------------dance-single - ----------------
#NOTES:
     dance-single:
     :
     Medium:
     5:
     0.373983,0.437651,0.195364,0.351655,0.000000,268.000000,248.000000,20.000000,36.000000,0.000000,0.000000,0.373983,0.437651,0.195364,0.351655,0.000000,268.000000,248.000000,20.000000,36.000000,0.000000,0.000000:
0000
0000
0000
0000
,
0000
0000
0000
0000
,
0000
0000
0000
0000
,
0000
0000
0000
0000
,
0000
0000
0000
0000
,
0000
0000
0000
0000
,
0000
0000
0000
0000
,
1001
1001
0000
0000
0000
1000
0000
0000
,
0001
0000
0010
0000
0100
1000
0001
0000
,
0010
0000
0001
0000
0100
0001
1000
0000
,
0010
1000
0100
0000
0020
0000
0130
0000
,
1000
0010
0100
0000
0002
0000
1003
0000
,
1001
0001
0010
0001
,
0100
0000
0010
0000
1000
0100
0010
0000
,
0001
0010
0100
1000
,
1001
1001
0000
0000
0000
1000
0000
0000
,
0001
0100
0000
0001
0000
0010
0000
0100
,
0000
1000
0000
0010
0000
1000
0000
0100
,
0000
0010
0000
0001
0000
1000
0000
0010
,
0000
0100
0000
0001
0000
1000
0010
1000
,
0000
0001
0000
0100
0000
0001
0000
0010
,
0000
0100
0000
1000
0000
0010
0000
1000
,
0000
0100
0000
0010
0000
0001
0000
1000
,
0001
0001
0000
0000
0000
1000
0100
1000
,
0000
0001
0000
0100
0000
1000
0000
0100
,
0000
0001
0000
1000
0000
0100
0000
0001
,
0000
0100
0000
1000
0000
0001
0000
0010
,
0000
1000
0000
0010
0000
0001
1000
0001
,
0000
1000
0000
0010
0000
0001
0000
0010
,
0000
1000
0000
0001
0000
0010
0000
0001
,
0000
0100
0000
0010
0000
1000
0000
0100
,
0000
0010
0000
0001
0000
1000
0001
1000
,
2001
3100
0020
0031
,
1000
0100
1000
0000
0001
0010
0001
0000
,
0200
0310
0020
0130
,
0100
0000
0002
0000
2003
0000
3100
1000
,
0001
0000
0010
0000
0001
1000
0100
0000
,
0020
0000
0130
0000
1000
0001
0100
0000
,
0020
0000
0130
0000
0001
1000
0100
0000
,
0110
0110
0000
0000
0000
0200
0000
0000
,
0310
0000
0001
0000
0100
0001
0010
0000
,
0100
0000
1000
0000
0010
1000
0100
0000
,
0001
0000
0100
0000
1000
0010
0001
0000
,
0010
0000
1000
0000
0001
0100
1000
0000
,
2200
0300
3100
0001
,
0022
0030
0013
1000
,
2020
0030
3010
0001
,
0100
0000
0010
0000
1000
0001
1000
1000
,
0001
0000
0100
0000
0001
0010
0001
0000
,
0100
0000
0010
0000
1000
0100
0010
0000
,
0100
0000
1000
0000
0010
1000
0010
0000
,
0100
0000
0001
0000
0010
0001
0100
0000
,
0120
2030
3200
0320
,
0032
0203
0320
2030
,
3002
0023
0230
1300
,
1002
0000
2003
0000
3001
1000
0000
0100
,
0000
0001
0000
0100
0000
1000
0001
0000
,
0010
0001
1002
0103
,
0010
1000
2001
3100
,
0210
0000
2300
0000
3001
0100
0000
0010
,
0000
1000
0000
0010
0000
0100
0001
0000
,
1000
0100
1000
0000
0001
0010
0001
0000
,
1001
1001
0000
0000
0000
0110
0000
0000
,
2002
0000
0000
0000
,
0000
3003
0000
0000
0000
0000
0000
0000
0000
0000
0000
0000
0000
0000
0000
0000
0000
0000
0000
0000
0000
0000
0000
0000
0000
0000
0000
0000
0000
0000
0000
0000
0000
0000
0000
0000
0000
0000
0000
0000
0000
0000
0000
0000
0000
0000
0000
0000
0000
0000
0000
0000
0000
0000
0000
0000
0000
0000
0000
0000
0000
0000
0000
0000
0000
0000
0000
0000
0000
0000
0000
0000
0000
0000
0000
0000
0000
0000
0000
0000
0000
0000
0000
0000
0000
0000
0000
0000
0000
0000
0000
0000
0000
0000
0000
0000
0000
0000
0000
0000
0000
0000
0000
0000
0000
0000
0000
0000
0000
0000
0000
0000
0000
0000
0000
0000
0000
0000
0000
0000
0000
0000
0000
0000
0000
0000
0000
0000
0000
0000
0000
0000
0000
0000
0000
0000
0000
0000
0000
0000
0000
0000
0000
0000
0000
0000
0000
0000
0000
0000
0000
0000
0000
0000
0000
0000
0000
0000
0000
0000
0000
0000
0000
0000
0000
0000
0000
0000
0000
0000
0000
0000
0000
0000
0000
0000
0000
0000
0000
0000
0000
0000
0000
0000
0000
0000
0000
0000
0000
0000
0000
0000
;

//---------------dance-single - ----------------
#NOTES:
     dance-single:
     :
     Easy:
     3:
     0.242810,0.281324,0.009768,0.234437,0.000000,174.000000,173.000000,1.000000,24.000000,0.000000,0.000000,0.242810,0.281324,0.009768,0.234437,0.000000,174.000000,173.000000,1.000000,24.000000,0.000000,0.000000:
// measure 0
0000
0000
0000
0000
,  // measure 1
0000
0000
0000
0000
,  // measure 2
0000
0000
0000
0000
,  // measure 3
0000
0000
0000
0000
,  // measure 4
0000
0000
0000
0000
,  // measure 5
0000
0000
0000
0000
,  // measure 6
0000
0000
0000
0000
,  // measure 7
0001
0001
0000
0000
0000
1000
0000
0000
,  // measure 8
0001
0010
0001
0010
,  // measure 9
0100
1000
0100
1000
,  // measure 10
0010
1000
0020
0030
,  // measure 11
0100
0001
0200
0300
,  // measure 12
0001
1000
0001
1000
,  // measure 13
0100
0010
0100
0010
,  // measure 14
0001
1000
0001
1000
,  // measure 15
0001
0001
0000
0000
0000
1000
0000
0000
,  // measure 16
0001
0100
0000
0001
,  // measure 17
1000
0100
0000
1000
,  // measure 18
0001
0010
0000
0001
,  // measure 19
1000
0010
0000
0100
,  // measure 20
0100
0010
0000
0100
,  // measure 21
0001
0001
0000
1000
,  // measure 22
1000
0100
0000
0010
,  // measure 23
0001
0001
0000
0000
0000
1000
0000
0000
,  // measure 24
0001
0100
0001
1000
,  // measure 25
0001
0100
0001
1000
,  // measure 26
0010
0100
0010
1000
,  // measure 27
0010
0000
0100
0100
,  // measure 28
0200
0300
0001
0001
,  // measure 29
0002
0003
1000
1000
,  // measure 30
2000
3000
0200
0300
,  // measure 31
0020
0030
0002
0003
,  // measure 32
2000
0000
0001
0000
,  // measure 33
0100
0100
3100
0000
,  // measure 34
0002
0000
1000
0000
,  // measure 35
0100
0100
0103
0000
,  // measure 36
0020
0000
1030
0000
,  // measure 37
0200
0000
0310
0000
,  // measure 38
0002
0000
1003
0000
,  // measure 39
0001
0001
0000
0000
0000
1000
0000
0000
,  // measure 40
0001
0000
0010
0010
,  // measure 41
0100
1000
0010
0100
,  // measure 42
0001
0000
0100
0100
,  // measure 43
0010
1000
0100
0010
,  // measure 44
0002
0000
0000
0000
,  // measure 45
2003
0000
0000
0000
,  // measure 46
3020
0000
0000
0000
,  // measure 47
0130
0100
0100
0100
,  // measure 48
0001
0000
1000
0100
,  // measure 49
0010
0001
0100
0010
,  // measure 50
1000
0000
0001
0010
,  // measure 51
0100
1000
0010
0100
,  // measure 52
0002
0000
1000
1000
,  // measure 53
2003
0000
0010
0010
,  // measure 54
3020
0000
0230
0000
,  // measure 55
0301
1000
0001
1000
,  // measure 56
0100
1000
0100
1000
,  // measure 57
0100
0010
0002
0003
,  // measure 58
0010
0100
2000
3000
,  // measure 59
0010
0100
0010
0100
,  // measure 60
0001
1000
0001
1000
,  // measure 61
0010
0100
0010
0100
,  // measure 62
0001
0001
0000
0000
0000
1000
0000
0000
,  // measure 63
2002
0000
0000
0000
,  // measure 64
3003
0000
0000
0000
;

//---------------dance-double - ----------------
#NOTES:
     dance-double:
     :
     Easy:
     3:
     0.245600,0.281324,0.029305,0.224669,0.000000,176.000000,173.000000,3.000000,23.000000,0.000000,0.000000,0.245600,0.281324,0.029305,0.224669,0.000000,176.000000,173.000000,3.000000,23.000000,0.000000,0.000000:
00000000
00000000
00000000
00000000
,
00000000
00000000
00000000
00000000
,
00000000
00000000
00000000
00000000
,
00000000
00000000
00000000
00000000
,
00000000
00000000
00000000
00000000
,
00000000
00000000
00000000
00000000
,
00000000
00000000
00000000
00000000
,
00001000
00001000
00000000
00000000
00000000
00001000
00000000
00000000
,
00000001
00000010
00000001
00000010
,
00000100
00001000
00000100
00001000
,
00000010
00001000
00000020
00000030
,
00000100
00000010
00001000
00000000
,
00010000
10000000
00010000
10000000
,
01000000
00100000
01000000
00100000
,
00010000
10000000
00010000
10000000
,
00100000
00100000
00000000
00000000
00000000
01000000
00000000
00000000
,
00010000
00100000
00000000
00010000
,
01000000
00010000
00000000
00100000
,
00001000
00100000
00000000
00001000
,
00010000
00001000
00000000
00010000
,
00010000
00000100
00000000
00010000
,
00001000
00001000
00000000
00010000
,
00010000
00000100
00000000
00001000
,
00000001
00000001
00000000
00000000
00000000
00000001
00000000
00000000
,
00001000
00000100
00000000
00001000
,
00000010
00001000
00000000
00000100
,
00010000
00010000
00000100
00000100
,
00001000
00000000
00000100
00010000
,
00020000
00030000
00001000
00001000
,
00200000
00300000
00010000
00010000
,
20000000
30000000
02000000
03000000
,
00200000
00300000
00020000
00030000
,
00200000
00000000
00001000
00000000
,
00301000
00001000
00010000
00010000
,
00002000
00000000
00000100
00000000
,
00003100
00000100
00000010
00000010
,
00002000
00000000
00003100
00000000
,
00000020
00000000
00000031
00000000
,
00000200
00000000
00000310
00000000
,
00001000
00001000
00000000
00000000
00010000
00000000
00000000
00000000
,
10010000
00000000
00100000
00100000
,
10000000
00010000
01000000
00100000
,
00010000
00000000
00001000
00001000
,
00000010
00000001
00000100
00000100
,
00000020
00000000
00000000
00000000
,
00002030
00000000
00000000
00000000
,
00003200
00000000
00000000
00000000
,
00010300
00010000
00010000
00010000
,
00011000
00000000
00001000
00000100
,
00000010
00000001
00000010
00000010
,
00000100
00000000
00010000
00001000
,
00100000
00010000
01000000
00010000
,
20000000
00000000
00100000
30100000
,
02000000
00000000
00010000
03010000
,
00200000
00000000
00302000
00003000
,
00010000
00001000
00010000
00001000
,
00010000
00000100
00010000
00000100
,
00000010
00000010
00000020
00000030
,
00000001
00000100
00002000
00003000
,
00000100
00000010
00000100
00000010
,
00001000
00000010
00001000
00000010
,
00010000
00001000
00010000
00001000
,
00010000
00010000
00000000
00000000
00000000
00001000
00000000
00000000
,
00022000
00000000
00000000
00000000
,
00033000
00000000
00000000
00000000
;

//---------------dance-double - ----------------
#NOTES:
     dance-double:
     :
     Medium:
     5:
     0.380960,0.437615,0.107450,0.322351,0.000000,273.000000,262.000000,11.000000,33.000000,0.000000,0.000000,0.380960,0.437615,0.107450,0.322351,0.000000,273.000000,262.000000,11.000000,33.000000,0.000000,0.000000:
00000000
00000000
00000000
00000000
,
00000000
00000000
00000000
00000000
,
00000000
00000000
00000000
00000000
,
00000000
00000000
00000000
00000000
,
00000000
00000000
00000000
00000000
,
00000000
00000000
00000000
00000000
,
00000000
00000000
00000000
00000000
,
10010000
10010000
00000000
00000000
00000000
00010000
00000000
00000000
,
00100000
00000000
00020000
00000000
00000000
00100000
00000000
00100000
,
00000000
01000000
00000000
01000000
00000000
10000000
10030000
00000000
,
00100000
10000000
01000000
00000000
00200000
00000000
00310000
00000000
,
00100000
00001000
00010000
00000000
00002000
00000000
00013000
00010000
,
00000100
00000000
00002000
00000000
00000000
00000010
00000000
00000010
,
00000000
00000001
00000000
00000001
00000000
00000100
00003100
00000000
,
00001000
00000100
00010000
00001000
,
00011000
00011000
00000000
00000000
00000000
00001000
00010000
00001000
,
00010000
00001000
00000000
00100000
00000000
00010000
00000000
10000000
,
00000000
00100000
00000000
01000000
00000000
00010000
00000000
10000000
,
00000000
01000000
00000000
10000000
00000000
00010000
00000000
00100000
,
00000000
00010000
00000000
01000000
00000000
00010000
00100000
00001000
,
00000000
00010000
00000000
00000100
00000000
00001000
00000000
00000100
,
00000000
00000010
00000000
00000001
00000000
00001000
00000000
00000001
,
00000000
00000010
00000000
00000100
00000000
00001000
00000000
00000100
,
00010000
00010000
00000000
00000000
00000000
00001000
00001000
00010000
,
00001000
00010000
00000000
00000100
00000000
00001000
00000000
00000001
,
00000000
00000100
00000000
00000010
00000000
00001000
00000000
00000001
,
00000000
00000010
00000000
00000001
00000000
00001000
00000000
00000100
,
00000000
00001000
00000000
00000010
00000000
00001000
00000100
00010000
,
00000000
00001000
00000000
00100000
00000000
00010000
00000000
00100000
,
00000000
01000000
00000000
10000000
00000000
00010000
00000000
10000000
,
00000000
01000000
00000000
00100000
00000000
00010000
00000000
00100000
,
00000000
00010000
00000000
10000000
00010000
10000000
00010000
10000000
,
20010000
00000000
31000000
00000000
02000000
00000000
03100000
00020000
,
00000000
00130000
00100000
00000000
00001000
00010000
00000000
00010000
,
00002000
00000000
00000010
00000000
00003010
00000100
00000001
00000000
,
00000020
00000000
00000001
00000000
00000031
00001000
00000100
00000100
,
00002000
00000000
00003001
00000200
00000000
00000320
00000000
00002030
,
00000001
00000000
00003001
00000000
00001000
00000001
00000100
00000020
,
00000000
00002030
00000000
00003200
00000000
00010300
00001000
00010000
,
00011000
00011000
00000000
00000000
00000000
00002000
00000000
00000000
,
00103000
00000000
00010000
00000000
01000000
00010000
00100000
00000000
,
01000000
00000000
10000000
00000000
00100000
10000000
01000000
00000000
,
00010000
00000000
01000000
00000000
10000000
00100000
00010000
00000000
,
00001000
00000000
00000100
00000000
00000001
00000010
00000100
00000000
,
00000020
00000000
00000000
00000001
00000032
00000000
00000103
00000010
,
00001000
00000000
00001000
00000100
00000000
00010000
00000000
00010000
,
00001000
00000000
00001000
00000000
00100000
00010000
00100000
00020000
,
00000000
01030000
00100000
00000000
10000000
00010000
10000000
00010000
,
00010000
00000000
00001000
00000000
00010000
00100000
01000000
00000000
,
00010000
00000000
01000000
00000000
00100000
00001000
00010000
00000000
,
00001000
00000000
00000100
00000000
00000001
00000010
00000100
00000000
,
00001000
00000000
00000010
00000000
00000001
00000010
00001000
00000000
,
00200000
00000000
00000000
10000000
10300000
00010000
00000000
00200000
,
00000000
00000000
01000000
02300000
00000000
23000000
00000000
30010000
,
00020000
00032000
00003200
00000310
,
00001001
00000000
00002000
00000000
00000000
00000100
00000000
00000100
,
00000000
00000010
00000000
00000010
00000000
00000001
00003001
00000000
,
00000100
00000001
00000010
00000000
00000200
00000000
00001300
00000000
,
00000100
00010000
00001000
00000000
00020000
00000000
00031000
00001000
,
00100000
00000000
00020000
00000000
00000000
01000000
00000000
01000000
,
00000000
10000000
00000000
10000000
00000000
00100000
00130000
00000000
,
00010000
00100000
00001000
00010000
,
00011000
00011000
00000000
00000000
00000000
00010000
00001000
00010000
,
00022000
00000000
00000000
00000000
,
00033000
00000000
00000000
00000000
;

//---------------dance-double - ----------------
#NOTES:
     dance-double:
     :
     Hard:
     8:
     0.533065,0.603186,0.224669,0.341887,0.029305,382.000000,359.000000,23.000000,35.000000,0.000000,0.000000,0.533065,0.603186,0.224669,0.341887,0.029305,382.000000,359.000000,23.000000,35.000000,0.000000,0.000000:
00000000
00000000
00000000
00000000
,
00000000
00000000
00000000
00000000
,
00000000
00000000
00000000
00000000
,
00000000
00000000
00000000
00000000
,
00000000
00000000
00000000
00000000
,
00000000
00000000
00000000
00000000
,
00000000
00000000
00000000
00000000
,
10010000
00000000
10010000
00000000
00000000
00000000
00000000
00000000
00000000
00000000
10000000
00000000
10000000
00000000
00010000
10000000
,
00020000
00000000
02030000
00000000
03100000
10000000
01000000
00000000
,
01000000
00100000
00010000
00000000
00010000
00100000
10000000
00000000
,
10000000
00100000
00010000
00000000
00200000
00000000
00001000
00000000
,
00301000
00000100
00000001
00000000
00000001
00001000
00000001
00000001
,
00002000
00000000
00003020
00000000
00000130
00000001
00000010
00000000
,
00000010
00000100
00001000
00000000
00001000
00000100
00000001
00000000
,
00000001
00000100
00001000
00000010
00010000
00000100
00010000
00001000
,
00011000
00000000
00011000
00000000
00000000
00000000
00000000
00000000
00000000
00000000
00010000
00000000
00001000
00000000
00100000
00010000
,
10000000
00100000
01000000
00100000
00010000
00100000
01000000
00100000
,
10000000
00000000
00010000
00000000
00100000
00000000
01000000
00100000
,
00010000
00000000
00100000
00001000
00010000
00000100
00001000
00000010
,
00002000
00000000
00003001
00000000
00001001
00000000
00000011
00000010
,
00000200
00000000
00001300
00000001
00000100
00000010
00001000
00000020
,
00000001
00000000
00000130
00000001
00000010
00000100
00001000
00001000
,
00000200
00000000
00010300
00001000
00010000
01000000
00100000
00010000
,
10010000
00000000
10010000
00000000
00000000
00000000
00001000
00000000
00001000
00000000
00010000
00000000
00010000
00000000
00001000
00010000
,
00001000
00000100
00000010
00000100
00000001
00000100
00000010
00000100
,
00001000
00000000
00010000
00000000
00001000
00000000
00000100
00000010
,
00001000
00000000
00000100
00000010
00000001
00000100
00000010
00001000
,
00000002
00000000
00001003
00000000
00001100
00000000
00010100
00000200
,
00010000
00000000
00010300
00001000
00100000
01000000
10000000
00000000
,
00020000
00000000
01030000
00100000
00010000
00100000
10000000
10000000
,
00020000
00000000
00130000
01000000
10000000
01000000
00100000
00010000
,
01000000
00010000
00100000
00001000
00010000
00000100
00000010
00000001
,
00002000
00000010
00003020
00000001
,
00000031
00000010
00001000
00000100
00010000
00001000
00100000
10000000
,
00200000
00010000
00320000
10000000
,
10030000
00100000
00010000
00001000
00010000
00000100
00000010
00000100
,
00002000
00003020
00000032
00000203
,
00020300
00000000
00230000
00000000
10300000
01000000
00010000
00000000
,
01000000
10000000
00010000
00100000
00001000
00010000
00000100
00000010
,
00001001
00000000
00001001
00000000
00000000
00000000
00000000
00000000
00000001
00000000
00001000
00000000
00000001
00000000
00001000
00000100
,
00001000
00000010
00001000
00000001
00001000
00000100
00000010
00000001
,
00000200
00000000
00001300
00001000
00010000
00100000
10000000
00000000
,
00010000
00100000
00010000
10000000
00010000
00100000
01000000
00100000
,
00020000
00000000
00130000
00001000
00010000
00000100
00000010
00000000
,
00000021
00000000
00000100
00000000
00000001
00000001
00000031
00000000
,
00001020
00000000
00000100
00000000
00001000
00001000
00001030
00000000
,
00000100
00010000
00000000
00010000
00001000
00100000
01000000
10000000
,
00100000
00000000
10000000
00000000
01000000
00000000
00100000
00000000
00010000
00000000
00010000
00000000
10000000
00000000
10000000
00010000
,
10000000
00100000
01000000
00100000
00010000
10000000
01000000
00010000
,
00100000
00001000
00010000
00100000
00010000
00010000
00001000
00000000
,
00000010
00000001
00000100
00000010
00001000
00000100
00010000
00100000
,
10000000
01000000
00100000
00010000
01000000
00100000
10000000
00000000
,
10020000
00000000
00100000
00000000
01000000
01000000
01030000
00000000
,
20010000
00000000
00100000
00000000
01000000
01000000
31000000
00000000
,
00110000
00000000
00011000
00000000
00001010
00000000
00001100
00001000
,
00002001
00000000
00003020
00000000
00000130
00000001
00000010
00000000
,
00000010
00000100
00001000
00000000
00001000
00000100
00000001
00000000
,
00000001
00000100
00001000
00000000
00000200
00000000
00010000
00000000
,
00010300
00100000
10000000
00000000
10000000
00010000
10000000
10000000
,
00020000
00000000
02030000
00000000
03100000
10000000
01000000
00000000
,
01000000
00100000
00010000
00000000
00010000
00100000
10000000
00000000
,
10000000
00100000
00010000
01000000
00001000
00100000
00001000
00010000
,
00011000
00000000
00011000
00000000
00000000
00000000
00001000
00000000
00010000
00000000
00000100
00000000
00000010
00000000
00000001
00001000
,
00000002
00000000
00000000
00000000
,
00000000
00000000
00000000
00000000
,
00000003
00000000
00000000
00000000
;
