#TITLE:Dirty Little Pop Song;
#SUBTITLE:;
#ARTIST:AQUA;
#TITLETRANSLIT:;
#SUBTITLETRANSLIT:;
#ARTISTTRANSLIT:;
#GENRE:;
#CREDIT:;
#BANNER:dirtylittlepopsong_bn.png;
#BACKGROUND:dirtylittlepopsong_bg.png;
#LYRICSPATH:;
#CDTITLE:cdtitle.png;
#MUSIC:dirtylittlepopsong.ogg;
#OFFSET:0.000000;
#SAMPLESTART:59.760002;
#SAMPLELENGTH:17.040001;
#SELECTABLE:YES;
#BPMS:0.000000=124.999992
;
#STOPS:
;
#BGCHANGES:;
#KEYSOUNDS:;
#ATTACKS:;

//---------------dance-single - ----------------
#NOTES:
     dance-single:
     Hard:
     Hard:
     8:
     0.414683,0.413889,0.027778,0.111111,0.118056,418.000000,414.000000,4.000000,16.000000,0.000000,0.000000,0.414683,0.413889,0.027778,0.111111,0.118056,418.000000,414.000000,4.000000,16.000000,0.000000,0.000000:
0000
0000
0000
0000
,
0000
0000
0000
0000
,
0000
0000
0000
0000
,
0000
0000
0000
0000
,
1000
1000
0001
0001
0010
0100
1000
0000
,
0001
0001
1000
1000
0010
0100
0010
1000
,
0001
0020
0000
0001
0000
0001
0000
0001
,
0031
0000
1000
0000
0000
0000
0000
0000
1000
0000
0001
1000
0000
0000
0010
0000
,
0100
0001
0100
0010
1000
0100
0010
0000
,
0001
0100
1000
0100
0010
1000
0001
0010
,
0100
0020
0000
0100
0000
0100
0000
0100
,
0130
0010
0000
0000
0000
0001
0010
0001
,
0200
0000
0310
1000
0010
0100
0001
0010
,
0100
0010
0001
1000
0000
0000
1000
0001
,
0200
0000
0310
0001
0010
0100
0001
0010
,
0100
0001
0100
1000
0000
1000
0100
1000
,
0020
0000
0230
0000
0320
0000
1030
0010
,
0100
0001
0010
0100
0000
0000
0100
0010
,
0001
1000
0020
0000
0000
0000
0130
0001
,
0100
0000
0101
0000
1010
0000
1000
0100
,
0010
0001
2000
0000
0000
0000
3001
1000
,
0100
1100
2000
0000
,
0002
0000
0000
0000
0000
0000
0000
3003
,
0000
0001
0100
0010
0100
0001
1000
0100
,
0010
0000
0000
0010
0000
0000
0010
0000
0000
0000
0010
0000
0000
0001
0000
0000
,
1000
0000
0000
1000
0000
0000
1000
0000
0000
0000
1000
0000
0000
1000
0000
0000
,
0010
0000
0000
0010
0000
0000
0010
0000
0000
0000
0010
0000
0000
0100
0000
0000
,
0001
1000
0100
0001
0100
1000
0001
0100
,
1000
0000
0000
1000
0000
0000
1000
0000
0000
0000
1000
0000
0000
0100
0000
0000
,
0010
0000
0000
0010
0000
0000
0010
0000
0000
0000
0010
0000
0000
0010
0000
0000
,
1000
0000
0000
1000
0000
0000
1000
0000
0000
0000
0100
0000
0000
0010
0000
0000
,
0001
0100
1000
0100
0001
1000
0100
0001
,
0100
0000
0000
0100
0010
0000
0100
0000
0000
0000
0100
0000
0010
0001
0000
0000
,
1000
0000
0000
1000
0001
0000
1000
0000
0000
0000
1000
0000
0010
0000
0000
0000
,
0010
0100
0000
1000
0000
0100
0000
0001
,
0000
0001
0010
1000
0010
0001
1000
0010
,
0100
0000
0000
0100
0010
0000
0100
0000
0000
0000
0100
0000
0100
0001
0000
0000
,
1000
0000
0000
1000
0001
0000
1000
0000
0000
0000
0100
0000
1000
0000
0010
0000
,
0100
0000
0100
0001
0000
0010
0000
1000
,
0000
1000
0010
0001
0100
1000
0000
0100
,
0001
0100
1000
0100
0001
0100
1000
0000
,
0100
0000
0001
0100
1000
0100
0001
0000
,
0100
0000
1000
0100
0001
0100
1000
0000
,
0100
0001
0010
0100
1000
0001
0000
1000
,
0001
0010
1000
0010
0001
0010
1000
0000
,
0010
0000
0001
0010
1000
0010
0001
0000
,
0010
0000
1000
0010
0001
0010
1000
0000
,
0010
0001
0100
0010
1000
0001
0000
1000
,
0000
0000
0000
0000
0000
0000
0000
0000
0000
0000
0100
0000
0000
0010
0000
0000
,
0001
0000
1000
0000
0001
0000
0000
0000
0000
0000
0100
0000
0000
0010
0000
0000
,
1000
0000
0001
0000
1000
0000
0000
0000
0000
0000
0100
0000
0000
0010
0000
0000
,
0001
0000
1000
0000
0001
0000
0000
0000
0000
0000
0100
0000
0000
0010
0000
0000
,
1000
0000
0000
0001
0000
0000
0010
0000
1000
0000
0010
0000
0001
0000
1000
0000
,
0010
0000
0100
0000
0010
0000
0000
0000
0000
0000
0010
0000
0000
1000
0000
0000
,
0100
0000
0010
0000
0001
0000
0000
0000
0000
0000
0001
0000
0000
0100
0000
0000
,
0010
0000
1000
0000
0010
0000
0000
0000
0000
0000
0100
0000
0000
0001
0000
0000
,
1000
0000
0000
0100
0000
0000
1000
0000
0010
0000
0001
0000
0010
0000
1000
0000
,
0200
0000
0000
0300
2002
0000
3003
0000
,
0100
0000
0000
0100
0010
0000
0100
0000
0000
0000
0100
0000
0010
1000
0000
0000
,
0001
0000
0000
0001
1000
0000
0001
0000
0000
0000
0001
0000
0010
0000
0000
0000
,
0010
0100
0000
0001
0000
0100
0000
1000
,
0000
1000
0010
0001
0010
1000
0001
0010
,
0100
0000
0000
0100
0010
0000
0100
0000
0000
0000
0100
0000
0100
1000
0000
0000
,
0001
0000
0000
0001
1000
0000
0001
0000
0000
0000
0100
0000
0001
0000
0010
0000
,
0100
0000
0100
1000
0000
0010
0000
0001
,
0000
0001
0010
1000
0100
0001
0000
0100
,
1000
0100
0001
0100
1000
0100
0001
0000
,
0100
0000
1000
0100
0001
0100
1000
0000
,
0100
0000
0001
0100
1000
0100
0001
0000
,
0100
1000
0100
0010
0001
1000
0000
0001
,
1000
0010
0001
0010
1000
0010
0001
0000
,
0010
0000
1000
0010
0001
0010
1000
0000
,
0010
0000
0001
0010
1000
0010
0001
0000
,
0010
1000
0010
0100
0001
1000
0000
0002
,
2000
0000
3003
0000
;

//---------------dance-single - ----------------
#NOTES:
     dance-single:
     Easy:
     Easy:
     3:
     0.204365,0.232422,0.000000,0.097222,0.000000,206.000000,206.000000,0.000000,14.000000,0.000000,0.000000,0.204365,0.232422,0.000000,0.097222,0.000000,206.000000,206.000000,0.000000,14.000000,0.000000,0.000000:
0000
0000
0000
0000
,
0000
0000
0000
0000
,
0000
0000
0000
0000
,
0000
0000
0000
0000
,
0001
1000
0010
0100
,
0001
1000
0100
0010
,
0100
0000
0000
0100
0000
0100
0000
0100
,
0000
0010
0000
0000
0000
0000
0000
0000
,
0001
0100
0010
0100
,
0001
1000
0100
0010
,
0100
0000
0000
1000
0000
1000
0000
1000
,
0000
0001
0000
0000
0000
0000
0000
0000
,
1000
0100
1000
0001
,
0100
0010
0100
0000
,
0001
0100
1000
0100
,
0010
1000
0001
0000
,
0001
0010
1000
0010
,
0100
1000
0001
0000
,
0001
0002
0003
0000
,
1000
0100
1000
0000
,
1000
2000
3000
0000
,
0001
0010
0002
0000
,
2000
0000
0000
3003
,
0000
0001
0001
1000
,
0100
0000
0000
0000
0000
0100
0000
0000
,
0010
0000
0000
0000
0000
0010
0000
0000
,
0001
0000
0000
0000
0000
0001
0000
0000
,
1000
1000
0001
0001
,
0100
0000
0000
0000
0000
0100
0000
0000
,
0010
0000
0000
0000
0000
0010
0000
0000
,
1000
0000
0000
0000
0000
1000
0000
0000
,
0001
0001
1000
1000
,
0100
1000
0000
1000
,
0001
0100
0000
0100
,
0001
1000
0000
1000
,
0010
0100
0100
0010
,
0010
1000
0000
1000
,
0001
0010
0000
0010
,
0001
1000
0000
1000
,
0001
0000
0100
0000
0100
0000
0000
0010
,
0000
0010
1000
0100
,
0001
0010
1000
0100
,
0001
0010
1000
0100
,
1000
0000
1000
0000
0001
0000
0000
0001
,
0000
0010
0001
0100
,
1000
0010
0001
0100
,
1000
0010
0001
0100
,
0001
0000
0001
0000
1000
0000
0000
0001
,
0000
0000
0000
0000
,
0020
0000
0030
0000
,
0200
0000
0300
0000
,
2000
0000
3000
0000
,
0002
0000
0100
0100
,
0203
0000
0300
0000
,
0020
0000
0030
0000
,
2000
0000
3000
0000
,
0020
0000
0100
0100
,
0230
0000
0300
0000
,
0100
0001
0000
0001
,
1000
0100
0000
0100
,
1000
0001
0000
0001
,
0010
0100
0100
0010
,
0010
0001
0000
0001
,
1000
0010
0000
0010
,
1000
0001
0000
0001
,
1000
0000
0100
0000
0100
0000
0000
0010
,
0000
0010
0001
0100
,
1000
0010
0001
0100
,
1000
0010
0001
0100
,
0001
0000
0001
0000
1000
0000
0000
1000
,
0000
0010
1000
0100
,
0001
0010
1000
0100
,
0001
0010
1000
0100
,
1000
0000
1000
0000
0001
0000
0000
2000
,
0000
0000
0000
3000
0000
0000
0000
0000
;

//---------------dance-single - ----------------
#NOTES:
     dance-single:
     Normal:
     Medium:
     6:
     0.378968,0.360330,0.048611,0.118056,0.107639,382.000000,375.000000,7.000000,17.000000,0.000000,0.000000,0.378968,0.360330,0.048611,0.118056,0.107639,382.000000,375.000000,7.000000,17.000000,0.000000,0.000000:
// measure 0
0000
0000
0000
0000
,  // measure 1
0000
0000
0000
0000
,  // measure 2
0000
0000
0000
0000
,  // measure 3
0000
0000
0000
0000
,  // measure 4
1000
0100
1000
0100
1000
0000
0010
0000
,  // measure 5
0100
0001
0100
0010
0100
0000
0001
0100
,  // measure 6
0010
1000
0000
1000
0000
1000
0000
1000
,  // measure 7
1000
0010
0000
0000
0000
0000
0000
0000
,  // measure 8
0001
0010
0001
0100
0001
0000
0010
0000
,  // measure 9
0100
1000
0100
1000
0001
0000
1000
0001
,  // measure 10
0100
0001
0000
0100
0000
0100
0000
0100
,  // measure 11
0100
0001
0000
0000
0000
0001
0100
0001
,  // measure 12
1000
0000
0100
1000
0001
0000
0001
0000
,  // measure 13
0100
0010
0100
0001
0000
0000
0001
1000
,  // measure 14
0100
0000
1000
0000
0010
0100
0010
0000
,  // measure 15
1000
0100
1000
0001
0000
0000
0001
1000
,  // measure 16
0010
0100
0010
1000
,  // measure 17
0100
0010
0100
1000
0000
0000
1000
0001
,  // measure 18
1000
0100
1000
0000
0000
0000
1000
0010
,  // measure 19
1000
0000
0100
0000
0001
0000
0001
0100
,  // measure 20
1000
0100
1000
0000
0000
0000
0001
0100
,  // measure 21
1000
0100
0002
0000
,  // measure 22
0020
0000
0000
0000
0000
0000
0000
0033
,  // measure 23
0000
0000
0001
1000
0001
1000
0100
0100
,  // measure 24
1000
0000
0000
0100
0000
0000
1000
0000
0000
0000
0100
0000
0000
1000
0000
0000
,  // measure 25
0010
0000
0000
0100
0000
0000
0010
0000
0000
0000
0100
0000
0000
0001
0000
0000
,  // measure 26
0010
0000
0000
0001
0000
0000
0010
0000
0000
0000
0001
0000
0000
0010
0000
0000
,  // measure 27
0100
0000
0000
1000
0000
0000
0001
0000
1000
0000
0001
0000
1000
0000
0001
0000
,  // measure 28
0100
0000
0000
0010
0000
0000
0100
0000
0000
0000
0100
0000
0000
0001
0000
0000
,  // measure 29
1000
0000
0000
0001
0000
0000
1000
0000
0000
0000
0100
0000
0000
1000
0000
0000
,  // measure 30
0010
0000
0000
1000
0000
0000
0010
0000
0000
0000
1000
0000
0000
0001
0000
0000
,  // measure 31
0100
0000
0010
0100
0010
0100
0010
0000
,  // measure 32
0100
0000
0101
0000
0001
1000
0100
0000
,  // measure 33
0010
0000
0000
0100
0000
0000
0010
0000
0000
0000
0010
0000
0001
0000
0000
0000
,  // measure 34
0001
0020
0000
0100
0000
0001
0000
0100
,  // measure 35
0030
0010
0100
0010
0100
1000
0001
1000
,  // measure 36
0010
0000
1010
0000
1000
0001
0010
0000
,  // measure 37
0100
0000
0000
0010
0000
0000
0100
0000
0000
0000
0010
0000
0001
0000
0010
0000
,  // measure 38
0001
0000
0001
0200
0000
0010
0000
0001
,  // measure 39
0000
0310
0100
0010
1000
0010
0000
0100
,  // measure 40
0000
0010
1000
0010
0100
0010
1000
0000
,  // measure 41
1000
0000
0001
0010
0001
0100
0001
0000
,  // measure 42
0001
0000
1000
0010
1000
0100
1000
0000
,  // measure 43
1000
0000
1000
0001
0100
0010
0000
0100
,  // measure 44
0000
0010
0100
0001
0100
0010
0100
0000
,  // measure 45
0100
0000
0001
0010
0100
0010
0001
0000
,  // measure 46
0010
0000
0100
1000
0010
1000
0100
0000
,  // measure 47
0010
0100
0010
0001
1000
0001
0000
1001
,  // measure 48
0000
0000
0000
0000
,  // measure 49
0020
0000
0000
0100
0000
0000
0130
0000
0000
0000
0100
0000
0000
0001
0000
0000
,  // measure 50
0002
0000
0000
1000
0000
0003
1000
0000
0000
0000
1000
0000
0000
0100
0000
0000
,  // measure 51
0200
0000
0000
0010
0000
0000
0310
0000
0000
0000
0100
0000
0000
1000
0000
0000
,  // measure 52
0002
0000
0000
0100
0000
0000
0103
0000
0001
0000
0100
0000
0001
0000
0100
0000
,  // measure 53
0020
0000
0000
1000
0000
0000
1030
0000
0000
0000
0001
0000
0000
0010
0000
0000
,  // measure 54
0200
0000
0000
0010
0000
0000
0310
0000
0000
0000
0100
0000
0000
1000
0000
0000
,  // measure 55
0002
0000
0000
0100
0000
0000
0103
0000
0000
0000
0001
0000
0000
1000
0000
0000
,  // measure 56
0020
0000
0000
0100
0000
0000
0130
0000
0010
0000
0100
0000
0001
0000
0010
0000
,  // measure 57
0200
0000
0000
0300
0110
0000
0000
0000
,  // measure 58
0100
0000
1100
0000
1000
0001
0100
0000
,  // measure 59
0010
0000
0000
0100
0000
0000
0010
0000
0000
0000
0010
0000
1000
0000
0000
0000
,  // measure 60
1000
0020
0000
0100
0000
1000
0000
0100
,  // measure 61
0030
0010
0100
0010
0100
0001
1000
0001
,  // measure 62
0010
0000
0011
0000
0001
1000
0010
0000
,  // measure 63
0100
0000
0000
0010
0000
0000
0100
0000
0000
0000
0010
0000
1000
0000
0010
0000
,  // measure 64
1000
0000
1000
0200
0000
0010
0000
1000
,  // measure 65
0000
0310
0100
0010
0001
0010
0000
0100
,  // measure 66
0000
0010
0001
0010
0100
0010
0001
0000
,  // measure 67
0001
0000
1000
0010
1000
0100
1000
0000
,  // measure 68
1000
0000
0001
0010
0001
0100
0001
0000
,  // measure 69
0001
0000
0001
1000
0100
0010
0000
0100
,  // measure 70
0000
0010
0100
1000
0100
0010
0100
0000
,  // measure 71
0100
0000
1000
0010
0100
0010
1000
0000
,  // measure 72
0010
0000
0100
0001
0010
0001
0100
0000
,  // measure 73
0010
0100
0010
1000
0001
1000
0000
2002
,  // measure 74
0000
3003
0000
0000
0000
0000
0000
0000
;
