#TITLE:Destiny Bond;
#SUBTITLE:[Lavender Town Glitchhop Mix];
#ARTIST:YZYX & Trickywi;
#TITLETRANSLIT:;
#SUBTITLETRANSLIT:;
#ARTISTTRANSLIT:;
#GENRE:;
#CREDIT:;
#BANNER:[Deja Vu] - Destiny Bond [Lavender Town Glitchhop Mix].png;
#BACKGROUND:[Deja Vu] - Destiny Bond [Lavender Town Glitchhop Mix]-bg.png;
#LYRICSPATH:;
#CDTITLE:;
#MUSIC:[Deja Vu] - Destiny Bond [Lavender Town Glitchhop Mix].ogg;
#OFFSET:-2.460999;
#SAMPLESTART:54.460999;
#SAMPLELENGTH:18.857143;
#SELECTABLE:YES;
#BPMS:0.000000=105.000000
,92.000000=52.500000
,114.000000=105.000000
;
#STOPS:
;
#BGCHANGES:;
#KEYSOUNDS:;
#ATTACKS:;

//---------------dance-single - ----------------
#NOTES:
     dance-single:
     :
     Hard:
     6:
     0.313883,0.470666,0.159473,0.186051,0.124034,248.000000,230.000000,18.000000,21.000000,0.000000,0.000000,0.313883,0.470666,0.159473,0.186051,0.124034,248.000000,230.000000,18.000000,21.000000,0.000000,0.000000:
// measure 0
0000
0000
0000
0000
,  // measure 1
0000
0000
0000
0000
,  // measure 2
1000
0001
1000
0001
0000
0000
0100
0000
0000
0010
0000
0000
,  // measure 3
1000
0100
1000
0001
,  // measure 4
0100
0010
0100
0010
0000
0000
0100
0000
0000
0001
0000
0000
,  // measure 5
0010
0001
0100
0001
,  // measure 6
1000
0010
1000
0001
1000
0100
1000
0001
,  // measure 7
0010
0100
1000
0010
,  // measure 8
0200
0000
0302
0000
0013
0001
1000
0010
,  // measure 9
0100
0000
0001
1000
0100
0000
1000
0000
,  // measure 10
0020
0000
0230
0000
0301
1000
0100
0010
,  // measure 11
0001
0100
0001
1000
,  // measure 12
0200
0000
0320
0000
0030
0100
1000
0001
,  // measure 13
0101
0000
0021
0000
0000
0000
0031
1000
,  // measure 14
1100
1020
0000
0100
,  // measure 15
1030
0100
0001
0100
,  // measure 16
1000
0010
0001
0010
,  // measure 17
0210
0301
0120
1030
,  // measure 18
1002
0013
2001
3010
,  // measure 19
1001
0000
0001
0000
1000
0010
1000
0000
,  // measure 20
0001
0000
0010
0000
0100
1000
0100
0000
,  // measure 21
1000
0000
0001
0000
0100
0010
0100
0000
,  // measure 22
0001
0000
1000
0000
0100
0000
1000
0000
0000
0010
0000
0000
0100
0000
0000
0010
0000
0000
0100
0000
0000
0001
0000
0000
,  // measure 23
1001
0000
0000
0000
0000
0000
0000
0000
0000
0000
0000
0000
0000
0000
0000
0000
0000
0000
0000
0000
0000
0000
0000
0000
0000
0000
0000
0000
0000
0000
0000
0000
0000
0000
0000
0000
0000
0000
0000
0000
0000
0000
0000
0000
0100
0000
0000
0000
0001
0000
0000
0000
0000
0000
0000
0000
0000
0000
0000
0000
0000
0000
0000
0000
0000
0000
0000
0000
0000
0000
0000
0000
0000
0000
0000
0000
0000
0000
0000
0000
0000
0000
0000
0000
0000
0000
0000
0000
0000
0000
0000
0000
0000
0000
0000
0000
0010
0000
0000
0000
0000
0000
0000
0000
0000
0000
0000
0000
0000
0000
0000
0000
0000
0000
0100
0000
0000
0000
0000
0000
0000
0000
0000
0000
0000
0000
0000
0000
0000
0000
0000
0000
1000
0000
0000
0000
0000
0000
0000
0000
0000
0000
0000
0000
1001
0000
0000
0000
0000
0000
0000
0000
0000
0000
0000
0000
0000
0000
0000
0000
0000
0000
0000
0000
0000
0000
0000
0000
0000
0000
0000
0000
0000
0000
0000
0000
0000
0000
0000
0000
0000
0000
0000
0000
0000
0000
0000
0000
0000
0000
0000
0000
,  // measure 24
0110
0000
0000
0000
0000
0000
0000
0000
0000
0000
0000
0000
0000
0000
0000
0000
0000
0000
0000
0000
0000
0000
0000
0000
0000
0000
0000
0000
0000
0000
0000
0000
0000
0000
0000
0000
0000
0000
0000
0000
0000
0000
0000
0000
0010
0000
0000
0000
1000
0000
0000
0000
0000
0000
0000
0000
0000
0000
0000
0000
0000
0000
0000
0000
0000
0000
0000
0000
0000
0000
0000
0000
0000
0000
0000
0000
0000
0000
0000
0000
0000
0000
0000
0000
0000
0000
0000
0000
0000
0000
0000
0000
0000
0000
0000
0000
0001
0000
0000
0000
0000
0000
0000
0000
0000
0000
0000
0000
0000
0000
0000
0000
0000
0000
1000
0000
0000
0000
0000
0000
0000
0000
0000
0000
0000
0000
0000
0000
0000
0000
0000
0000
0100
0000
0000
0000
0000
0000
0000
0000
0000
0000
0000
0000
1100
0000
0000
0000
0000
0000
0000
0000
0000
0000
0000
0000
0000
0000
0000
0000
0000
0000
0000
0000
0000
0000
0000
0000
0000
0000
0000
0000
0000
0000
0000
0000
0000
0000
0000
0000
0000
0000
0000
0000
0000
0000
0000
0000
0000
0000
0000
0000
,  // measure 25
0011
0000
0000
0000
0000
0000
0000
0000
0000
0000
0000
0000
0000
0000
0000
0000
0000
0000
0000
0000
0000
0000
0000
0000
0000
0000
0000
0000
0000
0000
0000
0000
0000
0000
0000
0000
0000
0000
0000
0000
0000
0000
0000
0000
1000
0000
0000
0000
0100
0000
0000
0000
0000
0000
0000
0000
0000
0000
0000
0000
0000
0000
0000
0000
0000
0000
0000
0000
0000
0000
0000
0000
0000
0000
0000
0000
0000
0000
0000
0000
0000
0000
0000
0000
0000
0000
0000
0000
0000
0000
0000
0000
0000
0000
0000
0000
1000
0000
0000
0000
0000
0000
0000
0000
0000
0000
0000
0000
0000
0000
0000
0000
0000
0000
1000
0000
0000
0000
0000
0000
0000
0000
0000
0000
0000
0000
0000
0000
0000
0000
0000
0000
0010
0000
0000
0000
0000
0000
0000
0000
0000
0000
0000
0000
0110
0000
0000
0000
0000
0000
0000
0000
0000
0000
0000
0000
0000
0000
0000
0000
0000
0000
0000
0000
0000
0000
0000
0000
0000
0000
0000
0000
0000
0000
0000
0000
0000
0000
0000
0000
0000
0000
0000
0000
0000
0000
0000
0000
0000
0000
0000
0000
,  // measure 26
1001
0000
0000
0000
0000
0000
0000
0000
0000
0000
0000
0000
0000
0000
0000
0000
0000
0000
0000
0000
0000
0000
0000
0000
0000
0000
0000
0000
0000
0000
0000
0000
0000
0000
0000
0000
0000
0000
0000
0000
0000
0000
0000
0000
0010
0000
0000
0000
0001
0000
0000
0000
0000
0000
0000
0000
0000
0000
0000
0000
0000
0000
0000
0000
0000
0000
0000
0000
0000
0000
0000
0000
0000
0000
0000
0000
0000
0000
0000
0000
0000
0000
0000
0000
0000
0000
0000
0000
0000
0000
0000
0000
0000
0000
0000
0000
0100
0000
0000
0000
0000
0000
0000
0000
0000
0000
0000
0000
0000
0000
0000
0000
0000
0000
0010
0000
0000
0000
0000
0000
0000
0000
0000
0000
0000
0000
0000
0000
0000
0000
0000
0000
1000
0000
0000
0000
0000
0000
0000
0000
0000
0000
0000
0000
1001
0000
0000
0000
0000
0000
0000
0000
0000
0000
0000
0000
0000
0000
0000
0000
0000
0000
0000
0000
0000
0000
0000
0000
0000
0000
0000
0000
0000
0000
0000
0000
0000
0000
0000
0000
0000
0000
0000
0000
0000
0000
0000
0000
0000
0000
0000
0000
,  // measure 27
0011
0000
0000
1000
0000
0000
0010
0000
0100
0000
0001
0000
0010
0000
0000
0000
0100
0000
0000
1000
0000
0000
0100
0000
0010
0000
0001
0000
1000
0000
0000
0000
,  // measure 28
0001
0000
0000
0010
0000
0000
0001
0000
1000
0000
0000
0010
0000
0000
1000
0000
0001
0000
0000
0000
0010
0000
0000
0000
0001
0000
0000
0000
0000
0000
0000
0000
,  // measure 29
0100
0001
0100
0000
0010
0100
0010
0000
,  // measure 30
1000
0010
1000
0000
0001
1000
0100
0000
,  // measure 31
1000
0001
0100
0000
0001
1000
0010
0000
,  // measure 32
1000
0001
0010
0000
0100
0010
0001
0100
,  // measure 33
1000
0100
0010
1000
0001
0100
0020
0000
,  // measure 34
2030
0000
3100
0000
0010
0001
0200
0000
,  // measure 35
0302
0000
0013
0001
1000
0010
0200
0000
,  // measure 36
0320
0000
1030
0000
0100
0010
0002
0000
,  // measure 37
2003
0000
3010
0000
0100
0010
0100
0001
,  // measure 38
0100
1000
0100
0000
0010
0000
1000
0000
,  // measure 39
0100
1000
0001
0010
,  // measure 40
0001
1000
0001
0100
,  // measure 41
0001
0000
1000
0000
0001
0010
0001
1000
,  // measure 42
0001
0100
0020
0000
0030
0000
0000
0000
;

//---------------dance-single - ----------------
#NOTES:
     dance-single:
     :
     Challenge:
     9:
     0.459433,0.922505,0.008860,0.239209,0.571444,363.000000,362.000000,1.000000,27.000000,0.000000,0.000000,0.459433,0.922505,0.008860,0.239209,0.571444,363.000000,362.000000,1.000000,27.000000,0.000000,0.000000:
// measure 0
0000
0000
0000
0000
,  // measure 1
0000
0000
0000
0000
,  // measure 2
1000
0000
1000
0000
0001
0000
1000
0000
0000
0000
0000
0010
0100
0000
0000
0001
0000
0000
0010
0000
0000
0001
0000
0000
,  // measure 3
1000
0000
0000
0000
0000
0100
0010
0000
0000
0000
0000
0000
0100
0000
0000
0010
0000
0000
0001
0000
0000
1000
0000
0000
,  // measure 4
0001
0000
0001
0000
1000
0000
0001
0000
0000
0000
0000
1000
0100
0000
0000
1000
0000
0000
0010
0000
0000
0100
0000
0000
,  // measure 5
0001
0000
0000
0010
0000
0000
0001
0000
1000
0000
0001
0000
1000
0000
0000
0100
0000
0000
0010
0000
0000
0001
0000
0000
,  // measure 6
1000
0000
0100
0000
0001
0000
0100
0000
1000
0000
0100
0000
0010
0001
0100
0010
,  // measure 7
1000
0001
0010
0001
,  // measure 8
1000
0000
0000
0000
0000
0000
0000
0000
0000
0000
0000
0000
0010
0000
0000
0000
0100
0000
0000
0000
0000
0000
0100
0000
0010
0000
0000
0000
0000
0000
0000
0000
0000
0000
0000
0000
1000
0000
0000
0100
0000
0000
1000
0000
0000
0001
0000
0000
,  // measure 9
0010
0000
0100
0010
0001
0000
1000
0000
,  // measure 10
0010
0000
0000
0000
0000
0000
0000
0000
0000
0000
0000
0000
0100
0000
0000
0000
0001
0000
0000
0000
0000
0000
0001
0000
1000
0000
0000
0000
0000
0000
0100
0000
0000
0000
0000
0000
0010
0000
0000
0100
0000
0000
1000
0000
0000
0001
0000
0000
,  // measure 11
0100
0010
1000
0001
,  // measure 12
0010
0000
0000
0000
0000
0000
0000
0000
0000
0000
0000
0000
0100
0000
0000
0000
1000
0000
0000
0000
0000
0000
1000
0000
0001
0000
0000
0000
0000
0000
0100
0000
0000
0000
0000
0000
0010
0000
0000
0100
0000
0000
0001
0000
0000
1000
0000
0000
,  // measure 13
0200
0000
0000
0000
2000
0000
0000
0000
0000
0000
3300
0001
1000
0000
0010
1000
,  // measure 14
0002
0000
0020
0000
0000
0033
0200
0000
,  // measure 15
1300
0010
0100
0001
0010
0100
0010
0001
,  // measure 16
1000
0010
1000
0001
0100
0001
0010
0100
,  // measure 17
1000
0001
0010
0001
1000
0010
1000
0001
0010
0001
1000
0010
1000
0001
0100
0001
1000
0100
1000
0001
0100
0001
1000
0100
,  // measure 18
1000
0100
0010
0100
1000
0100
0010
0100
1000
0100
0010
0100
1000
0001
0010
0001
1000
0010
1000
0001
0010
0001
1000
0010
,  // measure 19
0200
0000
0010
0000
0301
1000
0100
1000
,  // measure 20
0010
0000
0100
0000
0010
1000
0001
0010
,  // measure 21
0100
0000
0010
0000
0001
0010
0001
1000
,  // measure 22
0010
0000
0100
0000
0001
0000
1000
0000
0000
0001
0100
0001
0100
0000
0000
0010
1000
0010
0100
0000
0000
0010
0000
0000
,  // measure 23
2001
0000
3000
2000
0000
0000
0002
0000
0000
0000
0000
0000
0000
0000
0000
3003
0100
0000
0000
0001
0000
0000
0010
0000
0000
0000
0100
0000
0010
0000
0001
0000
,  // measure 24
2000
0000
0000
3020
0000
0000
0230
0000
0000
0000
0310
0000
2000
0000
0000
0000
3100
0000
0000
1000
0000
0000
0010
0000
0001
0000
0000
0010
0000
0000
0100
0000
,  // measure 25
0001
0000
0000
1000
0000
0000
0200
0000
0000
0000
2300
0000
0000
0000
3000
0000
0001
0000
0000
0010
0000
0000
0001
0000
1000
0000
0000
0010
0000
0000
0100
0000
,  // measure 26
0001
0000
0000
1000
0000
0000
0200
0000
0000
0000
0320
0000
0000
0000
0030
0000
0100
0000
0000
0010
0000
0000
0001
0000
0000
0000
1000
0000
0002
0000
0000
0000
,  // measure 27
1003
0000
0000
0010
0000
0000
0100
0000
0010
0000
1000
0000
0001
0000
0000
0000
0010
0000
0000
0001
0000
0000
0010
0000
0100
0000
1000
0000
0001
0000
0100
0000
,  // measure 28
0010
0000
1000
0100
0000
0000
0010
0000
0100
0000
0000
1000
0000
0000
0001
0000
1000
0000
0000
0000
0100
0000
0000
0000
1000
0000
0000
0000
0001
0000
0000
0000
,  // measure 29
1000
0010
0100
0001
1000
0100
1000
0001
,  // measure 30
1000
0010
0100
0001
0010
0001
0100
0010
,  // measure 31
0100
0001
1000
0100
0010
0100
1000
0010
,  // measure 32
0100
0000
0000
0001
0000
0000
1000
0000
0000
0100
0000
0000
0010
0000
0100
0000
1000
0000
0001
0000
0000
0100
0010
0100
,  // measure 33
0010
0000
0000
1000
0001
1000
0001
0000
0000
0000
0000
0000
0100
0000
0000
0001
0000
0000
0020
0000
0000
0000
0000
0000
,  // measure 34
0032
0000
1003
0000
0010
0100
0002
0000
,  // measure 35
2003
0000
3100
0010
0100
1000
0002
0000
,  // measure 36
2003
0000
3010
0000
1000
0001
0200
0000
,  // measure 37
0320
0000
0000
0000
0000
0000
1030
0000
0000
0000
0000
0000
0001
0000
0001
0000
0100
0000
0001
0000
0000
1000
0010
1000
,  // measure 38
0010
0000
0000
0100
0001
0100
0001
0000
0000
0000
0000
0000
1000
0000
1000
0000
0001
0000
1000
0000
0000
0000
0000
0001
,  // measure 39
0010
0000
0000
0001
0000
0000
0100
0000
0000
0010
0000
0000
1000
0000
0000
0000
0000
0001
1000
0000
0000
0000
0000
0001
,  // measure 40
0010
0000
0000
0000
0000
0001
0100
0000
0000
0000
0000
0001
1000
0000
1000
0000
0100
0000
1000
0000
0000
0000
0000
0010
,  // measure 41
0100
0000
0000
0000
0001
0000
0000
0000
1000
0100
0000
0001
0100
0000
0010
0000
,  // measure 42
1000
0001
1000
0001
1000
0001
0020
0000
0000
0000
0000
0000
0030
0000
0000
0000
0000
0000
0000
0000
0000
0000
0000
0000
;

//---------------dance-single - ----------------
#NOTES:
     dance-single:
     :
     Medium:
     4:
     0.230349,0.301226,0.097456,0.070877,0.000000,182.000000,171.000000,11.000000,8.000000,0.000000,0.000000,0.230349,0.301226,0.097456,0.070877,0.000000,182.000000,171.000000,11.000000,8.000000,0.000000,0.000000:
0000
0000
0000
0000
,
0000
0000
0000
0000
,
0001
1000
0001
0000
0100
0000
0001
0000
,
0010
0001
1000
0100
,
1000
0001
1000
0000
0001
0000
0010
0000
,
0001
1000
0100
1000
,
0010
0000
0100
0000
0001
0000
1000
0001
,
0100
0001
0010
0001
,
1000
0000
0200
0000
0000
0000
1300
0010
,
0100
0001
0010
0100
,
0010
0000
0002
0000
0000
0000
1003
0001
,
0100
0001
0010
0001
,
1000
0000
0200
0000
0000
0000
0310
0100
,
1000
0000
1001
0000
0000
0000
0001
0100
,
0010
1001
0000
0001
,
1000
1000
0001
0001
,
0100
0100
0010
0010
,
1000
0010
0100
0001
,
0010
0100
1000
0001
,
0110
0000
0000
0000
,
0010
0000
0000
0100
,
0001
1000
0000
0100
,
1000
0001
1000
0000
0010
0100
0010
0000
,
0010
0000
1001
0000
0100
0001
1001
0000
,
0100
0000
1001
0000
1000
0010
0110
0000
,
0100
0000
1001
0000
0001
0010
0110
0000
,
0010
0000
1001
0000
0001
1000
0110
0000
,
0100
0000
0010
1000
0100
0000
0010
0001
,
0100
0001
1000
0100
0010
0000
0100
0000
,
1000
0010
0100
0001
,
0010
0000
0001
1000
0001
0000
0100
0000
,
0001
0010
0001
1000
,
0100
0000
0010
0000
0001
0010
0001
0000
,
1000
0100
1000
0000
0100
0000
1000
0000
,
0020
0030
0100
0001
,
2000
0000
3001
0100
0010
0000
0100
0000
,
0002
0003
1000
0100
,
0020
0000
0030
0000
0100
1000
0010
0000
,
0100
0001
0010
0000
0100
0000
1000
0000
,
0010
1000
0001
0010
,
0001
1000
0001
0100
,
0001
1000
0001
1000
,
0010
0200
0300
0000
;

//---------------dance-single - ----------------
#NOTES:
     dance-single:
     :
     Easy:
     2:
     0.167067,0.187159,0.017719,0.035438,0.000000,132.000000,130.000000,2.000000,4.000000,0.000000,0.000000,0.167067,0.187159,0.017719,0.035438,0.000000,132.000000,130.000000,2.000000,4.000000,0.000000,0.000000:
0000
0000
0000
0000
,
0000
0000
0000
0000
,
1000
0001
0010
0100
,
0010
0001
1000
0001
,
0100
0010
1000
0001
,
0010
0001
1000
0100
,
1000
0100
0010
0001
,
1001
0000
0010
0000
,
0100
0000
0000
0001
,
1000
0000
0010
0000
,
0100
0000
0000
0010
,
1000
0000
0001
0000
,
0010
0000
0000
0100
,
0010
0001
0000
1000
,
0001
0100
0000
0010
,
1000
0010
0100
0001
,
1000
0100
0010
0001
,
1000
1000
0001
0001
,
0100
0100
0010
0010
,
1001
0000
0000
0000
,
0010
0000
0000
0100
,
0100
0010
0000
0000
,
0000
0000
1000
0000
0001
0000
0100
0010
,
0100
0010
1000
0100
,
1000
0001
0100
0010
,
1000
0001
0010
0001
,
0100
0010
1000
0001
,
0010
0001
1000
0100
,
1000
0001
0100
0000
,
0010
0000
1000
0000
,
0001
1000
0001
0000
,
0010
0000
0001
0000
,
1000
0000
0100
1000
,
0010
0100
0001
1000
,
0200
0300
1000
0001
,
0020
0030
0001
0010
,
0200
0300
1000
0100
,
0020
0030
0100
0010
,
0001
1000
0001
1000
,
0001
1000
0001
1000
,
0001
1000
0001
1000
,
0001
1000
0001
1000
,
0001
1000
0000
0000
;

//---------------dance-single - ----------------
#NOTES:
     dance-single:
     :
     Beginner:
     1:
     0.086065,0.131011,0.062017,0.000000,0.000000,68.000000,61.000000,7.000000,0.000000,0.000000,0.000000,0.086065,0.131011,0.062017,0.000000,0.000000,68.000000,61.000000,7.000000,0.000000,0.000000,0.000000:
0000
0000
0000
0000
,
0000
0000
0000
0000
,
0010
0000
0000
0000
,
1000
0000
0000
0000
,
0010
0000
0000
0000
,
1000
0000
0000
0000
,
0001
0000
1000
0000
,
0110
0000
0100
0000
,
0100
0000
0000
0000
,
0010
0000
0010
0000
,
0010
0000
0000
0000
,
1000
0000
1000
0000
,
1000
0000
0000
0000
,
0001
0001
0000
0000
,
0100
0100
0000
0000
,
0010
0000
0000
0000
,
1000
0000
0000
0000
,
0001
0000
0000
0000
,
0100
0000
0010
0000
,
1001
0000
0000
0000
,
0000
0000
0000
1000
,
1000
0000
0000
0000
,
0000
0001
0001
0000
,
0110
0000
0010
0000
,
1000
0000
0001
0000
,
0010
0000
0001
0000
,
1000
0000
0010
0000
,
0100
0000
0010
0000
,
1000
0001
0110
0000
,
0000
0000
0010
0000
,
0000
1000
1000
0000
,
0000
0000
0001
0000
,
0000
0000
0010
0000
,
0001
0000
0000
1000
,
1000
0000
0000
0001
,
0001
0000
0000
0100
,
0100
0000
0000
0010
,
0010
0000
0100
0000
,
0010
0000
1001
0000
,
0000
0000
0000
0000
,
0000
0000
0110
0000
,
0000
0000
0000
0000
,
0000
1001
0000
0000
;
