#TITLE:Almagest;
#SUBTITLE:;
#ARTIST:Galdeira;
#TITLETRANSLIT:;
#SUBTITLETRANSLIT:;
#ARTISTTRANSLIT:;
#GENRE:;
#CREDIT:;
#BANNER:;
#BACKGROUND:;
#LYRICSPATH:;
#CDTITLE:;
#MUSIC:Almagest.ogg;
#OFFSET:-0.540000;
#SAMPLESTART:50.360001;
#SAMPLELENGTH:13.500000;
#SELECTABLE:YES;
#BPMS:0.000000=178.000000
;
#STOPS:
;
#BGCHANGES:;
#KEYSOUNDS:;
#ATTACKS:;

//---------------dance-single - ----------------
#NOTES:
     dance-single:
     :
     Challenge:
     10:
     0.976361,1.181866,0.368090,0.407883,0.671515,687.000000,650.000000,37.000000,41.000000,0.000000,0.000000,0.976361,1.181866,0.368090,0.407883,0.671515,687.000000,650.000000,37.000000,41.000000,0.000000,0.000000:
// measure 0
0000
0000
0000
0000
,  // measure 1
0000
0000
0000
0000
,  // measure 2
1000
0010
1000
0010
0100
0001
0100
0001
,  // measure 3
1000
0001
1000
0001
1000
0100
0010
0001
,  // measure 4
0100
0001
0100
0001
1000
0010
1000
0010
,  // measure 5
0100
0010
0100
0010
1000
0100
0010
0001
,  // measure 6
0100
1000
0100
1000
0001
0010
0001
0010
,  // measure 7
1000
0010
0100
0001
0010
0100
0001
1000
,  // measure 8
0010
0100
0010
0100
0010
0100
0010
0100
0001
1000
0001
1000
0001
1000
0001
1000
,  // measure 9
0002
0000
2003
3100
,  // measure 10
0001
0100
0001
0100
0010
1000
0010
1000
0001
0010
0100
1000
0010
0100
0001
1000
,  // measure 11
0100
0010
0001
0100
0010
1000
0100
0010
0001
0100
0000
0001
0000
0100
0000
0000
,  // measure 12
0010
1000
0100
1000
0010
1000
0001
0100
,  // measure 13
0010
0100
0001
0100
0010
1000
0100
0001
,  // measure 14
0100
0010
1000
0010
0100
0001
0010
1000
,  // measure 15
0001
1000
0100
1000
0010
0100
0001
0010
,  // measure 16
0001
0100
0010
0100
0001
0010
1000
0100
,  // measure 17
0010
0001
0010
0100
1000
0001
0100
0010
,  // measure 18
1000
0100
1000
0010
0100
0001
0010
1000
,  // measure 19
1100
1100
0000
1001
2000
3001
1000
1010
,  // measure 20
1010
0010
0100
0001
0100
0010
1000
0100
,  // measure 21
1000
0001
0100
0001
1000
0010
0100
0010
,  // measure 22
1000
0100
0001
0100
0010
1000
0001
0101
,  // measure 23
0000
0000
1001
0000
0000
0000
1010
0000
0001
1000
0001
1000
0001
0010
0100
1000
,  // measure 24
0010
0100
0001
0100
0010
1000
0100
0001
,  // measure 25
1001
0010
1000
0100
0001
0100
0010
1000
,  // measure 26
1010
0000
0100
0000
0001
0000
0010
0000
0011
0000
1000
0001
1000
0000
0001
1000
,  // measure 27
0002
0000
0000
0000
0000
0000
0000
0000
1003
0100
1000
0100
0001
0100
0001
0100
,  // measure 28
0002
0000
0000
0020
0000
0033
2002
3003
,  // measure 29
1001
1000
0010
1000
0001
0100
0001
1000
,  // measure 30
0001
0000
0010
0000
0001
1000
0000
0001
0100
0000
0001
1000
0001
0000
0100
0000
,  // measure 31
0110
0010
0100
0001
1000
0010
1000
0100
,  // measure 32
2000
0000
0010
0000
3002
0000
0100
0000
1003
0100
0010
0001
0100
0000
0010
0000
,  // measure 33
1001
0001
0100
0001
1000
0100
0010
1000
,  // measure 34
0001
0100
0001
0100
0002
0000
1000
0000
0003
0000
0010
0100
0010
0000
2000
3000
,  // measure 35
2002
0000
3000
0000
0103
0000
0100
0001
0100
0010
1000
0000
0001
0100
0001
0100
,  // measure 36
0002
0000
0000
2000
0000
3003
2002
3003
,  // measure 37
0110
0000
0010
0000
1000
0100
0010
0001
1000
0010
0100
0001
1000
0001
0100
0010
,  // measure 38
0100
0000
0001
0000
0100
0001
0000
1000
0010
0000
0100
0010
0100
0000
0001
0000
,  // measure 39
1001
0000
1000
0000
0001
0010
0100
1000
0001
0100
0010
1000
0001
1000
0010
0100
,  // measure 40
0020
0000
1030
0000
0200
0000
0301
0000
0010
0100
0001
1000
0200
0000
0310
0000
,  // measure 41
1100
0000
0100
0000
0100
0001
1000
0010
0100
0010
0001
1000
0100
1000
0010
0000
,  // measure 42
1010
0000
1000
0000
0010
1000
0001
0100
0010
0100
0001
1000
0010
0001
1000
0000
,  // measure 43
0001
0100
0001
0100
0001
0100
0001
0100
0010
1000
0010
1000
0010
1000
0010
1000
,  // measure 44
0001
0010
0100
1000
0001
0010
0100
1000
0001
1000
0001
1000
0001
1000
0001
1000
,  // measure 45
0002
0000
0103
0010
0100
0010
0100
0010
0200
0000
0300
0000
0001
1000
0001
1000
,  // measure 46
0002
0000
0000
0000
0103
0001
0000
0000
1000
0010
0000
1000
0001
0000
1000
0001
,  // measure 47
0200
0001
0010
0001
1000
0001
0010
0001
,  // measure 48
0302
1000
0010
1000
0100
1000
0010
1000
,  // measure 49
2003
0100
0001
0100
0010
0100
0001
0010
,  // measure 50
3020
0001
0100
1000
0230
1000
0010
0001
,  // measure 51
0302
0010
0100
1000
0100
0010
0100
1000
,  // measure 52
2003
0010
0001
0010
0100
0010
0001
0010
,  // measure 53
3020
0001
0100
1000
0100
0001
0100
1030
,  // measure 54
1010
1010
0000
1001
0002
1003
0001
0011
,  // measure 55
0012
0100
0010
0100
1000
0100
0010
0100
,  // measure 56
0203
0010
0001
0010
1000
0010
0001
0010
,  // measure 57
0320
0001
0100
0001
1000
0001
0130
1010
,  // measure 58
0000
0000
0110
0000
0000
0000
0011
0000
0001
0100
0001
0100
0010
0000
0001
0000
,  // measure 59
2001
0001
0010
0001
0100
0001
0010
3001
,  // measure 60
1002
0010
1000
0010
0100
0010
1000
0013
,  // measure 61
0110
0000
0100
0000
0001
0000
0100
0000
0110
0000
1000
0010
1000
0000
0001
0100
,  // measure 62
0002
0000
0000
0000
1000
0000
0000
0000
0103
0001
0100
0000
0001
0000
1000
0000
,  // measure 63
1001
0100
0001
0100
0010
0100
0001
0100
,  // measure 64
0010
1000
0100
1000
0010
1000
1010
0000
,  // measure 65
0101
0000
1001
0001
0010
0001
0100
0001
,  // measure 66
0100
1000
0100
0001
0010
0100
1000
0001
,  // measure 67
1000
0010
0100
0001
0100
0010
1000
0100
0010
0001
0100
0001
0010
0001
0100
0010
,  // measure 68
1000
0100
0001
0100
0010
1000
0100
0010
0001
0100
0010
1000
0010
0100
0001
0010
,  // measure 69
0100
0010
1000
0100
0001
1000
0001
0010
0100
0010
0001
1000
0100
1000
0001
0100
,  // measure 70
0010
0100
0001
0010
0100
1000
0010
0100
0001
1000
0100
1000
0010
0100
0001
1000
,  // measure 71
0001
2000
0002
0000
0000
0000
0000
0000
0000
0000
0000
0000
0000
0000
0000
0000
,  // measure 72
3003
0000
0000
0000
;
