#TITLE:Waiting for Tonight;
#SUBTITLE:;
#ARTIST:Jennifer Lopez;
#TITLETRANSLIT:;
#SUBTITLETRANSLIT:;
#ARTISTTRANSLIT:;
#GENRE:;
#CREDIT:hooky;
#BANNER:[Covered Up] - Waiting for Tonight.png;
#BACKGROUND:[Covered Up] - Waiting for Tonight-bg.png;
#LYRICSPATH:;
#CDTITLE:;
#MUSIC:[Covered Up] - Waiting for Tonight.ogg;
#OFFSET:0.000000;
#SAMPLESTART:46.972965;
#SAMPLELENGTH:15.000000;
#SELECTABLE:YES;
#DISPLAYBPM:125.000000;
#BPMS:0.000000=124.999992
;
#STOPS:
;
#BGCHANGES:0.000=[Covered Up] - Waiting for Tonight.avi=1.000=0=0=0=StretchNoLoop====,
99999=-nosongbg-=1.000=0=0=0 // don't automatically add -songbackground-
;
#KEYSOUNDS:;
#ATTACKS:;

//---------------dance-single - ----------------
#NOTES:
     dance-single:
     :
     Hard:
     8:
     0.426357,0.480440,0.284917,0.106844,0.163827,419.000000,379.000000,40.000000,15.000000,0.000000,0.000000,0.426357,0.480440,0.284917,0.106844,0.163827,419.000000,379.000000,40.000000,15.000000,0.000000,0.000000:
0000
0000
0000
0000
,
0000
0000
0000
0000
,
0000
0000
0000
0000
,
0000
0000
0000
0000
,
0000
0000
0000
0000
,
1010
0000
1100
0000
1000
0001
0100
0001
,
0011
0000
0101
0000
0001
0010
0100
0000
,
0010
0001
0100
0000
0100
0010
1000
0001
,
0100
0001
0000
0001
0100
0000
0001
0000
0010
0001
0010
0000
0001
1000
0001
0000
,
1000
0000
1000
0000
0010
1000
0100
0000
,
1000
0000
1000
0000
0010
1000
0100
0000
,
1000
0000
1000
0000
0010
0100
0001
0010
,
0001
0000
0101
0000
0100
0000
0110
0010
,
1000
0000
0100
0000
1000
0010
0100
0000
,
0010
0000
1000
0000
0001
0010
0100
0000
,
0010
0000
0001
0000
0001
0010
0100
1000
,
0001
0000
0001
0000
1000
0001
1000
0010
,
0110
0000
0000
0100
0000
0000
0100
0000
0001
0000
0000
0001
0000
0000
0001
0000
,
1000
0000
0000
0001
0000
0000
1000
0000
0020
0000
0100
0000
0130
0000
0001
0000
,
0100
0000
0000
0100
0000
0000
0100
0000
0010
0000
0000
0010
0000
0000
0010
0000
,
1000
0000
0000
0001
0000
0000
0010
0000
0020
0000
0001
0000
0031
0000
0010
0000
,
0001
0000
0000
1000
0000
0000
1000
0000
0010
0000
0000
1000
0000
0000
1000
0000
,
0001
0000
0000
0100
0000
0000
0001
0000
0010
0000
0010
0000
0010
0000
0000
0000
,
0001
0000
0000
0001
0000
0000
0001
0000
0001
0000
0000
0001
0000
0000
0001
0000
,
2000
0000
0010
3010
,
0110
0000
0000
0000
1010
0000
0000
1000
0001
0000
1000
0000
1000
0000
0001
0000
,
0101
0000
0000
0000
0110
0000
0000
0100
0001
0000
0010
0000
0001
0000
0100
0000
,
0010
0000
0000
0010
0000
0000
0010
0000
1000
0000
0000
1000
0000
0000
1000
0000
,
0001
0000
0101
0000
0001
0010
0100
1000
,
0001
0000
0000
0000
0101
0000
0000
0010
0100
0000
0010
0000
1000
0000
0100
0000
,
1000
0000
0000
0000
1100
0000
0000
0010
1000
0000
0100
0000
0010
0000
0001
0000
,
0100
0001
0010
1000
0010
0001
1000
0010
,
0010
0000
0110
0000
0001
1000
0001
0100
,
0200
0001
0000
0301
,
0002
0100
0000
1003
,
2000
0010
0000
3100
,
0200
0010
1000
0301
,
0101
0000
0110
0000
0010
1000
0100
0000
,
1010
0000
0000
0000
1001
0000
0000
0001
1000
0000
0000
1000
0001
0000
0000
0000
,
0101
0000
0011
0000
0001
0010
0001
0100
,
0002
1000
0010
0103
,
0011
0000
0110
0000
0010
1000
0100
0000
,
1000
0000
1000
0000
0001
0100
0020
0000
,
0130
0000
0100
0000
0001
0100
0010
1000
,
0100
0000
0100
0000
0010
0001
1000
0001
,
0110
0000
0000
0010
0000
0000
0010
0000
1000
0000
0000
1000
0000
0000
1000
0000
,
0001
0000
0000
1000
0000
0000
0001
0000
0200
0000
0010
0000
0310
0000
1000
0000
,
0010
0000
0000
0010
0000
0000
0010
0000
0100
0000
0000
0100
0000
0000
0100
0000
,
0001
0000
0000
1000
0000
0000
0100
0000
0000
0000
1000
0000
0000
0000
0000
0000
,
1000
0000
0000
0001
0000
0000
0001
0000
0100
0000
0000
0001
0000
0000
0001
0000
,
1000
0000
0000
0010
0000
0000
1000
0000
0100
0000
0100
0000
0100
0000
0000
0000
,
1000
0000
0000
1000
0000
0000
1000
0000
1000
0000
0000
1000
0000
0000
1000
0000
,
0002
0000
0000
0000
0100
0100
0103
0000
,
0110
0000
0000
0000
1010
0000
0000
0010
0100
0000
0001
0000
0010
0000
0001
0000
,
0101
0000
0000
0000
1010
0000
0000
0010
1000
0000
1000
0000
0001
0000
1000
0000
,
0100
1000
0001
0100
1000
0010
0001
0100
,
0020
1000
0100
0031
,
0110
0000
0000
0000
1100
0000
0000
0000
0101
0000
0000
0001
0100
0000
0001
0000
,
0010
0000
0000
0000
0001
0000
0000
1000
0001
0000
0100
0000
0010
0000
0010
0000
,
1000
0000
0000
1000
0000
0000
1000
0000
0001
0000
0000
0001
0000
0000
0001
0000
,
0200
0010
0001
1300
,
0110
0000
0000
0000
0101
0000
0000
0001
1000
0000
0001
0000
0001
0000
1000
0000
,
1010
0000
0000
0000
0110
0000
0000
0010
1000
0000
0100
0000
1000
0000
0010
0000
,
0100
0000
0000
0100
0000
0000
0100
0000
0001
0000
0000
0001
0000
0000
0001
0000
,
1000
0000
1010
0000
1000
0100
0010
0001
,
1000
0000
0000
0000
1010
0000
0000
0100
0010
0000
0100
0000
0001
0000
0010
0000
,
0001
0000
0000
0000
0011
0000
0000
0100
0001
0000
0010
0000
0100
0000
1000
0000
,
0010
1000
0100
0001
0100
1000
0001
0100
,
0110
0000
1001
0000
1000
0010
0001
0010
,
2000
0000
0000
0002
,
0000
0000
0000
0000
,
3003
0000
0000
0000
;

//---------------dance-single - ----------------
#NOTES:
     dance-single:
     :
     Medium:
     6:
     0.313408,0.379295,0.206564,0.263548,0.000000,308.000000,279.000000,29.000000,37.000000,0.000000,0.000000,0.313408,0.379295,0.206564,0.263548,0.000000,308.000000,279.000000,29.000000,37.000000,0.000000,0.000000:
0000
0000
0000
0000
,
0000
0000
0000
0000
,
0000
0000
0000
0000
,
0000
0000
0000
0000
,
0000
0000
0000
0000
,
1010
0000
1100
0000
1000
0001
0100
0000
,
0101
0000
0011
0000
0010
0001
0100
0000
,
0010
0000
1000
0000
0010
1000
0100
0000
,
1000
0001
1000
1000
0001
1000
0001
0000
,
0101
0000
0110
0000
0010
1000
0100
0000
,
0010
0000
0010
0000
0010
1000
0100
0000
,
0010
0000
0010
0000
0010
1000
0100
0001
,
0100
2000
0000
3001
,
0001
0000
0001
0000
0001
0100
1000
0000
,
0001
0000
0001
0000
0001
0100
1000
0000
,
0001
0000
0001
0000
0001
0100
1000
0000
,
0010
0010
0100
0001
,
2000
3010
2000
3100
,
2000
0001
3001
0000
,
0002
0103
0002
0013
,
0002
1000
1003
0000
,
0020
0130
0020
0031
,
0020
1000
1030
0000
,
0001
0000
0100
0000
0001
0010
0001
0100
,
0020
0000
0100
0130
,
1001
0000
1010
0000
0010
1000
0100
0000
,
1100
0000
0011
0000
0001
0010
0100
0000
,
0010
0001
1000
0001
,
2000
0000
0010
3010
,
0110
0000
0101
0000
0001
0010
0100
0000
,
0110
0000
1010
0000
0010
1000
0100
0000
,
1000
0001
1000
0001
,
0200
0000
0000
0000
0001
0001
0301
0000
,
0002
1000
0000
1003
,
2000
0010
0000
3010
,
0020
0100
0000
0130
,
0200
0001
0000
0301
,
1001
0000
1010
0000
0010
1000
0100
0000
,
2000
0001
3001
1000
,
0101
0000
0010
0000
0100
0000
0010
0010
,
1000
0000
1000
0000
0001
0001
0001
0000
,
0200
0301
0200
0310
,
0200
0000
1300
0000
0200
0001
0301
0000
,
0001
0100
1000
0100
,
0001
0000
0001
0000
1000
0001
1000
0000
,
0002
0103
0002
0013
,
0002
1000
1003
0000
,
2000
3010
2000
3100
,
2000
0000
0001
0000
0000
3001
0000
0000
,
0200
0310
0200
1300
,
0200
0001
0301
0000
,
1000
0000
0010
0000
1000
0100
1000
0010
,
0200
0000
0010
0310
,
1000
0000
0001
0000
1000
0001
1000
0000
,
0001
0000
0100
0000
0001
0100
0001
0000
,
2000
0100
0010
3001
,
0101
0000
0011
0011
,
1100
0000
0010
0010
,
0100
0010
1000
0000
0001
0000
0001
0000
,
1000
1000
1000
0000
1000
1000
1000
0000
,
0001
0001
0001
0000
0001
0001
0001
0000
,
1001
0000
0101
0000
0100
0001
0010
0000
,
0011
0000
1100
0000
1000
0100
0010
0000
,
0100
1000
0001
1000
,
0002
0000
0100
0103
,
0110
0000
1010
0000
1000
0100
0010
0000
,
0110
0000
0101
0000
0100
0001
0010
0000
,
0001
1000
0001
1000
,
0020
0000
0000
0000
1000
1000
1030
1000
,
0002
0000
0000
2000
,
0000
0000
0000
0000
,
3003
0000
0000
0000
;

//---------------dance-single - ----------------
#NOTES:
     dance-single:
     :
     Easy:
     3:
     0.201477,0.252863,0.085475,0.135335,0.000000,198.000000,186.000000,12.000000,19.000000,0.000000,0.000000,0.201477,0.252863,0.085475,0.135335,0.000000,198.000000,186.000000,12.000000,19.000000,0.000000,0.000000:
0000
0000
0000
0000
,
0000
0000
0000
0000
,
0000
0000
0000
0000
,
0000
0000
0000
0000
,
0000
0000
0000
0000
,
1000
0001
1000
0000
,
0010
1000
0100
0000
,
1000
0010
0100
0000
,
0001
0001
1000
0001
,
0101
0000
0100
0100
,
0110
0000
0010
0010
,
1010
0000
0010
1000
,
0200
0000
1300
0000
,
1000
0001
0001
0100
,
0001
1000
0010
0010
,
0100
0001
0010
0001
,
2000
0000
3001
0000
,
0002
0000
0103
0000
,
0200
0000
0310
0000
,
0020
0000
1030
0000
,
2000
0000
3100
0000
,
1000
0010
0100
0000
,
0100
0001
0010
0000
,
0002
0000
2000
0003
,
0002
0000
0000
3003
,
0010
0000
0010
0000
,
0100
0001
0010
0000
,
0001
0001
1000
1000
,
1010
0000
0010
0100
,
0001
0000
0001
1000
,
0100
0000
1000
0000
,
0010
0010
0100
0100
,
0010
0000
0000
0000
1000
0000
0001
0001
,
0001
0000
0001
0000
,
1000
0000
1000
0000
,
0010
0000
0010
0000
,
0200
0000
0010
0310
,
0010
1000
0100
0000
,
0010
1000
0100
1000
,
0001
0000
0001
0100
,
0002
1000
0000
1003
,
0010
0100
0001
0000
,
0010
0001
0100
0000
,
0010
1000
0100
1000
,
0001
0001
0001
0000
0000
0000
0000
0000
,
0010
0000
0010
0000
,
0100
0100
1010
0000
,
1000
0000
1000
0000
,
0001
0100
0101
0000
,
0010
0000
1000
0000
,
0100
1000
1010
0000
,
0020
0000
0100
0100
,
0130
0000
0100
0010
,
0110
0000
0101
0000
,
0010
0001
0100
0000
,
0010
1000
0100
1000
,
0002
0000
1000
1003
,
1010
0000
0010
0100
,
0020
0000
0030
0000
,
0010
1000
0100
0000
,
1000
1000
0001
1000
,
0002
0000
0100
0103
,
0020
0000
1000
1030
,
1000
0100
1000
1000
,
1001
0000
0010
0010
,
0110
0000
0100
0001
,
0020
0000
0031
0000
,
0001
1000
0001
0001
,
0100
0000
0001
0010
,
0002
0000
0000
2000
,
0000
0000
0000
0000
,
3003
0000
0000
0000
;

//---------------dance-single - ----------------
#NOTES:
     dance-single:
     :
     Beginner:
     2:
     0.138388,0.202291,0.021369,0.021369,0.000000,136.000000,133.000000,3.000000,3.000000,0.000000,0.000000,0.138388,0.202291,0.021369,0.021369,0.000000,136.000000,133.000000,3.000000,3.000000,0.000000,0.000000:
// measure 0
0000
0000
0000
0000
,  // measure 1
0000
0000
0000
0000
,  // measure 2
0000
0000
0000
0000
,  // measure 3
0000
0000
0000
0000
,  // measure 4
0000
0000
0000
0000
,  // measure 5
1000
0000
1000
0000
,  // measure 6
1000
0000
1000
0000
,  // measure 7
0001
0000
0001
0000
,  // measure 8
0001
0000
0001
0000
,  // measure 9
1000
0000
0010
0000
,  // measure 10
1000
0000
0010
0000
,  // measure 11
1000
0000
0010
0000
,  // measure 12
0100
0000
0000
0000
,  // measure 13
0001
0000
0010
0000
,  // measure 14
0001
0000
0010
0000
,  // measure 15
0001
0000
0010
0000
,  // measure 16
0100
0000
0000
0000
,  // measure 17
1000
0000
0001
0000
,  // measure 18
1000
1000
1000
0000
,  // measure 19
0010
0000
0100
0000
,  // measure 20
0001
0001
0001
0000
,  // measure 21
0010
0000
0100
0000
,  // measure 22
1000
1000
1000
0000
,  // measure 23
0001
0001
0001
0000
,  // measure 24
1001
0000
0000
0000
,  // measure 25
0010
0000
1000
0000
,  // measure 26
0100
0000
0100
0000
,  // measure 27
1000
0000
0001
0000
,  // measure 28
1000
0000
0001
0001
,  // measure 29
0001
0000
0010
0000
,  // measure 30
0100
0000
1000
0000
,  // measure 31
0010
0000
1000
0000
,  // measure 32
0001
0000
0001
0001
,  // measure 33
0001
0000
0000
0000
,  // measure 34
1000
0000
0000
0000
,  // measure 35
0010
0000
0000
0000
,  // measure 36
0100
0000
0000
0000
,  // measure 37
0001
0000
1000
0000
,  // measure 38
0001
0000
0001
0000
,  // measure 39
1000
0000
0001
0000
,  // measure 40
0100
0000
0000
0000
,  // measure 41
0010
0000
1000
0000
,  // measure 42
0100
0000
1000
0000
,  // measure 43
0010
0000
0010
0000
,  // measure 44
0100
0000
0000
0000
,  // measure 45
0001
0000
1000
0000
,  // measure 46
0001
0001
0001
0000
,  // measure 47
1000
0000
0010
0000
,  // measure 48
1000
1000
1000
0000
,  // measure 49
0100
0000
1000
0000
,  // measure 50
0100
0100
0100
0000
,  // measure 51
0010
0000
0001
0000
,  // measure 52
0020
0000
0000
0030
,  // measure 53
0001
0000
1000
0000
,  // measure 54
0001
0000
0001
0000
,  // measure 55
0100
0000
0010
0000
,  // measure 56
1000
0000
0001
0001
,  // measure 57
0001
0000
1000
0000
,  // measure 58
0010
0000
0100
0000
,  // measure 59
0010
0000
1000
1000
,  // measure 60
1000
0000
0100
0100
,  // measure 61
0100
0000
0010
0000
,  // measure 62
0001
0000
1000
0000
,  // measure 63
0001
0000
0010
0010
,  // measure 64
0010
0000
0001
0000
,  // measure 65
0101
0000
0010
0000
,  // measure 66
1000
0000
0100
0000
,  // measure 67
1000
1000
1000
0000
,  // measure 68
0010
0000
0100
0000
,  // measure 69
2002
0000
0000
0000
,  // measure 70
0000
0000
0000
0000
,  // measure 71
3003
0000
0000
0000
;
