#TITLE:UPSIDE DOWN;
#SUBTITLE:;
#ARTIST:CUT N MOVE;
#TITLETRANSLIT:;
#SUBTITLETRANSLIT:;
#ARTISTTRANSLIT:;
#CREDIT:DanceMania 2;
#BANNER:upsidedown-bn.png;
#BACKGROUND:upsidedown-bg.png;
#LYRICSPATH:;
#CDTITLE:Dancemania.png;
#MUSIC:Upside Down.mp3;
#OFFSET:-1.045;
#SAMPLESTART:38.429;
#SAMPLELENGTH:14.400;
#SELECTABLE:YES;
#BPMS:0.000=125.146;
#STOPS:;
#BGCHANGES:;

//---------------dance-single - ----------------
#NOTES:
     dance-single:
     :
     Easy:
     2:
     0.173,0.184,0.043,0.064,0.000:
0000
0000
0000
0000
,
0000
0000
0000
0000
,
0000
0000
0000
0000
,
0000
0000
0010
0001
,
0100
0000
0000
0001
,
0001
0000
0100
1000
,
0010
0000
0000
0001
,
1000
0000
0010
1000
,
0100
0000
0000
0010
,
0010
0000
0100
0001
,
0010
0000
0000
0001
,
1000
0000
0000
0000
,
1001
0000
0100
0100
,
0010
0000
0100
0100
,
0001
0000
0100
0001
,
1000
0000
0000
0000
,
0110
0000
0001
0001
,
0010
0000
1000
1000
,
0100
0000
0010
0100
,
1001
0000
0010
0010
,
0010
1000
0100
0001
,
0010
0000
0001
0001
,
0001
0100
1000
0010
,
0010
0000
1000
1000
,
1000
0100
0001
0010
,
1000
0000
0001
0001
,
0001
0000
0000
0000
0000
0010
0000
0010
,
0000
0000
0000
0000
,
0200
0000
0300
0001
,
0002
0000
0003
1000
,
2000
0000
0000
3000
,
0000
0000
0000
0000
,
0020
0000
0030
1000
,
2000
0000
3000
0001
,
0002
0000
0003
0000
,
1001
0000
0010
0010
,
1000
0010
1000
0001
,
1000
0000
0001
0001
,
0010
0001
1000
0001
,
0010
0000
1000
1000
,
1000
0100
0001
0010
,
0010
0000
0001
0001
,
0010
0000
0000
0000
0000
1000
0000
1000
;

//---------------dance-single - ----------------
#NOTES:
     dance-single:
     :
     Medium:
     4:
     0.258,0.280,0.183,0.054,0.129:
0000
0000
0000
0000
,
0000
0000
0000
0000
,
0000
0000
0000
0000
,
0000
0000
0010
0001
,
0100
0000
0001
0001
,
0010
0000
0110
1001
,
0110
0000
0000
0000
1000
0000
1000
0010
,
0010
0000
0010
1000
,
0100
0000
1000
0001
,
1000
0000
0110
1001
,
0110
0000
0000
0000
0001
0000
0001
0100
,
0100
0000
0000
0000
,
1001
0000
0000
0000
0000
0000
0000
0010
0000
0000
1000
0000
0000
0010
0000
0000
,
1000
0000
0000
0000
0000
0000
0000
0001
0000
0000
0100
0000
0000
0001
0000
0000
,
0100
0000
0000
0000
0000
0000
0000
0010
0000
0000
0010
0000
0000
0010
0000
0000
,
0020
0000
0000
0000
0000
0000
0000
0030
0000
0000
0000
0000
0000
0000
0000
0000
,
0001
0000
0000
0000
0000
0000
0000
0010
0000
0000
0100
0000
0000
0010
0000
0000
,
0100
0000
0000
0000
0000
0000
0000
1000
0000
0000
0001
0000
0000
1000
0000
0000
,
0001
0000
0000
0000
0000
0000
0000
0100
0000
0000
0100
0000
0000
0010
0000
0000
,
0010
0000
1001
0110
,
1001
0000
0010
0000
1000
0001
0000
0000
,
0100
1000
1000
0010
,
0100
0000
0010
0000
0001
0100
0000
0000
,
0001
0010
1000
0100
,
0001
0000
0010
0000
1000
0001
0000
0000
,
0010
1000
1000
0001
,
0010
0000
0001
0000
1000
0100
0000
0000
,
1001
0010
0010
0010
,
0020
0000
0000
0000
0000
0000
0000
0100
0000
0000
0100
0000
0000
0130
0000
0000
,
2000
0000
0000
0000
0000
0000
0000
0001
0000
0000
0001
0000
0000
3001
0000
0000
,
1001
0000
0000
0000
0000
0000
0000
0100
0000
0000
0010
0000
0000
0100
0000
0000
,
0110
0000
0000
0000
,
0010
0000
0000
0000
1000
0000
0000
0001
0000
0000
0100
0000
0000
0001
0000
0000
,
0100
0000
0000
0000
1000
0000
0000
0100
0000
0000
1000
0000
0000
0100
0000
0000
,
1000
0000
0000
0000
0001
0000
0000
0010
0000
0000
1000
0000
0000
0100
0000
0000
,
0001
0000
1001
0110
,
1001
0000
0010
0000
0001
1000
0000
0000
,
0100
1000
0010
0001
,
0100
0000
1000
0000
0010
0001
0000
0000
,
1000
0100
1000
0100
,
0010
0000
0001
0000
1000
0001
0000
0000
,
0010
1000
0100
0001
,
0010
0000
0001
0000
1000
0100
0000
0000
,
2002
0000
3003
0000
;

//---------------dance-single - Copied from----------------
#NOTES:
     dance-single:
     Copied from:
     Beginner:
     1:
     0.109,0.135,0.032,0.064,0.000:
0000
0000
0000
0000
,
0000
0000
0000
0000
,
0000
0000
0000
0000
,
0000
0000
0010
0010
,
0010
0000
0000
0000
,
0000
0000
1000
1000
,
1000
0000
0000
0000
,
0000
0000
0100
0100
,
0100
0000
0000
0000
,
0000
0000
0001
0001
,
0001
0000
0000
0000
,
0000
0000
0000
0000
,
1001
0000
0000
0000
,
0010
0000
0000
0000
,
0100
0000
0000
0000
,
0000
0000
0000
0000
,
0110
0000
0000
0000
,
0001
0000
0000
0000
,
1000
0000
0000
0000
,
1001
0000
0010
0010
,
0010
0000
0100
0000
,
0010
0000
0001
0001
,
0001
0000
1000
0000
,
0001
0000
0100
0100
,
0100
0000
0010
0000
,
0100
0000
1000
1000
,
1000
0000
0000
0000
,
0000
0000
0000
0000
,
0200
0000
0300
0000
,
0020
0000
0030
0000
,
2000
0000
3000
0000
,
0000
0000
0000
0000
,
0002
0000
0003
0000
,
2000
0000
3000
0000
,
0020
0000
0030
0000
,
0010
0000
0100
0100
,
0100
0000
1000
0000
,
0001
0000
0010
0010
,
0010
0000
1000
0000
,
0010
0000
0001
0001
,
0001
0000
0100
0000
,
0001
0000
0010
0010
,
0010
0000
0000
0000
;

//---------------dance-single - ----------------
#NOTES:
     dance-single:
     :
     Hard:
     7:
     0.426,0.472,0.183,0.032,0.306: // measure 1
0000
0000
0000
0000
,  // measure 2
0000
0000
0000
0000
,  // measure 3
0000
0000
0000
0000
,  // measure 4
0000
0000
0110
1001
,  // measure 5
0110
0000
1000
0001
0000
0100
0010
0100
,  // measure 6
0000
0001
1000
0000
1001
0000
0110
0000
,  // measure 7
1001
0000
0000
0000
0010
0000
0100
0000
0000
0000
1000
0000
0100
0000
0010
0100
,  // measure 8
0000
0000
0110
1001
,  // measure 9
0110
0000
0001
0010
0000
0010
0001
1000
,  // measure 10
0000
0100
1000
0000
1001
0000
0110
0000
,  // measure 11
1001
0000
0000
0000
0010
0000
0001
0000
0000
0000
1000
0000
0001
0000
0010
0001
,  // measure 12
0000
0000
0010
0010
,  // measure 13
0010
0000
0001
0000
1000
0000
0100
1000
0000
0100
1000
0000
0100
1000
0000
0000
,  // measure 14
0100
0000
1000
0000
0001
0000
0010
0001
0000
0010
0001
0000
0010
0001
0000
0000
,  // measure 15
0010
0000
0001
0000
1000
0000
0001
1000
0000
0001
0010
0000
0001
1000
0000
0000
,  // measure 16
0011
0000
0000
0000
0010
0000
0000
0020
0000
0000
0100
0000
0000
0130
0000
0000
,  // measure 17
0110
0000
0001
0000
0010
0000
0001
1000
0000
0001
1000
0000
0001
1000
0000
0000
,  // measure 18
0100
0000
1000
0000
0001
0000
0010
0001
0000
0010
0001
0000
0010
0001
0000
0000
,  // measure 19
0010
0000
0100
0000
1000
0000
0001
1000
0000
0100
1000
0000
0001
1000
0000
0000
,  // measure 20
1001
0000
0000
0000
0010
0100
0010
0100
,  // measure 21
0001
0000
1000
0001
0000
0000
0100
0000
0001
0000
1000
0010
0000
0000
0100
0000
,  // measure 22
0001
0000
1000
0001
0000
0000
0000
0000
0100
0000
0010
0000
0100
0000
0010
0000
,  // measure 23
0100
0000
0001
1000
0000
0000
0010
0000
0100
0000
0001
1000
0000
0000
0010
0000
,  // measure 24
1000
0000
0001
0100
0000
0000
0000
0000
0001
0000
1000
0000
0001
0000
1000
0000
,  // measure 25
0100
0000
1000
0001
0000
0000
0010
0000
0001
0000
1000
0001
0000
0000
1000
0000
,  // measure 26
0100
0000
0010
0100
0000
0000
0000
0000
0001
0000
1000
0000
0001
0000
1000
0000
,  // measure 27
0100
1000
0010
0001
,  // measure 28
0100
1000
1000
1000
,  // measure 29
0020
0000
0000
0000
0000
0000
0000
1000
0000
0000
1000
0000
0000
1030
0000
0000
,  // measure 30
0200
0000
0000
0000
0000
0000
0000
0001
0000
0000
0001
0000
0000
0301
0000
0000
,  // measure 31
0001
0000
0000
0000
0000
0000
0000
0010
0000
0000
1000
0000
0000
0100
0000
0000
,  // measure 32
0001
0000
0000
0000
0000
0000
0000
1000
0000
0000
0001
0000
0000
1000
0000
0000
,  // measure 33
0010
0000
0000
0000
0001
0000
0100
0001
0000
1000
0001
0000
0100
0001
0000
0000
,  // measure 34
1000
0000
0000
0000
1000
0000
0010
0100
0000
0010
1000
0000
0010
0100
0000
0000
,  // measure 35
0001
0000
0000
0000
0001
0000
0100
0001
0000
1000
0010
0000
0100
0001
0000
0000
,  // measure 36
1001
0000
0000
0000
0010
1000
0010
1000
,  // measure 37
0010
0000
0100
0001
0000
0000
0010
0000
0100
0000
0010
1000
0000
0000
0001
0000
,  // measure 38
1000
0000
0001
1000
0000
0000
0000
0000
0001
0000
0100
0000
0001
0000
0100
0000
,  // measure 39
0001
0000
1000
0010
0000
0000
1000
0000
0001
0000
0100
0001
0000
0000
0100
0000
,  // measure 40
0010
0000
0100
0010
0000
0000
0000
0000
1000
0000
0001
0000
1000
0000
0001
0000
,  // measure 41
1000
0000
0010
0100
0000
0000
0001
0000
0100
0000
0010
0100
0000
0000
0001
0000
,  // measure 42
1000
0000
0001
1000
0000
0000
0000
0000
0010
0000
0100
0000
0010
0000
0100
0000
,  // measure 43
0010
0010
0001
0100
,  // measure 44
1000
0000
0010
0000
0010
0010
0010
0100
,  // measure 45
1001
0000
0000
0000
;
