#TITLE:Two Months Off;
#SUBTITLE:;
#ARTIST:TECHNO MASTERS;
#TITLETRANSLIT:;
#SUBTITLETRANSLIT:;
#ARTISTTRANSLIT:;
#GENRE:;
#CREDIT:;
#BANNER:;
#BACKGROUND:;
#LYRICSPATH:;
#CDTITLE:;
#MUSIC:Two Months Off.ogg;
#OFFSET:0.000000;
#SAMPLESTART:42.900002;
#SAMPLELENGTH:13.700000;
#SELECTABLE:YES;
#BPMS:0.000000=140.009995
;
#STOPS:
;
#BGCHANGES:;
#KEYSOUNDS:;
#ATTACKS:;

//---------------dance-single - ----------------
#NOTES:
     dance-single:
     :
     Challenge:
     10:
     0.755291,0.828125,0.379630,0.240741,1.013889,571.000000,530.000000,41.000000,26.000000,0.000000,0.000000,0.755291,0.828125,0.379630,0.240741,1.013889,571.000000,530.000000,41.000000,26.000000,0.000000,0.000000:
// measure 0
0000
0000
0000
0000
,  // measure 1
0000
0000
0000
0000
,  // measure 2
0000
0000
0000
0000
,  // measure 3
1000
0001
1000
0001
1000
0000
0000
0000
0100
0000
0001
0000
0000
0001
0000
0000
,  // measure 4
0100
0010
0100
0010
0100
0000
0000
0000
0001
0000
1000
0000
0000
1000
0000
0000
,  // measure 5
0100
0001
0100
0001
0100
0000
0000
0000
0010
0000
1000
0000
0000
0100
0000
0000
,  // measure 6
1000
0001
1000
0001
1000
0000
0000
0000
0100
0000
0001
0000
0000
0010
0000
0000
,  // measure 7
0100
1000
0100
1000
0100
0000
0000
0000
0010
0000
0100
0000
0000
1000
0000
0000
,  // measure 8
0001
0010
0001
0010
0001
0000
0000
0000
0100
0000
0010
0000
0000
1000
0000
0000
,  // measure 9
0001
0100
0001
1000
0001
0000
0000
1000
0001
0000
0100
0000
0010
1000
0000
0000
,  // measure 10
0100
0001
0100
0010
0100
0000
0000
0001
1000
0000
0010
0000
0100
0001
0000
0000
,  // measure 11
1000
0001
1000
0100
1000
0000
0000
0010
0100
0000
0001
0000
1000
0010
0000
0000
,  // measure 12
0100
1000
0100
0010
0100
0000
0000
0010
1000
0000
0001
0000
0100
0001
0000
0000
,  // measure 13
1000
0010
1000
0100
0010
0000
0000
0100
0001
0000
1000
0000
0010
1000
0000
0000
,  // measure 14
0001
0100
0010
0100
1000
0000
0000
0001
0100
0000
1000
0000
0100
0010
0000
0000
,  // measure 15
1000
0001
0010
0001
0100
0000
0000
0010
0100
0000
0001
0000
1000
0100
0000
0000
,  // measure 16
0010
0100
0001
0100
0010
0000
1000
0000
0001
1000
0001
1000
0001
1000
0001
1000
,  // measure 17
0002
0000
1000
0000
0000
1000
0000
0000
2003
0000
3010
0000
0000
0010
0000
0000
,  // measure 18
2010
0000
0010
0000
0000
0010
0000
0000
3020
0000
1030
0000
0000
1000
0000
0000
,  // measure 19
2100
0000
0100
0000
0000
0100
0000
0000
3200
0000
0310
0000
0000
0100
0000
0000
,  // measure 20
0012
0000
0010
0000
0000
0010
0000
0000
2003
0000
3010
0000
0000
1000
0000
0000
,  // measure 21
0210
0000
0010
0000
0000
0001
0000
0000
0320
0000
0130
0000
0000
0001
0000
0000
,  // measure 22
0201
0000
0001
0000
0000
0010
0000
0000
2300
0000
3100
0000
0000
0001
0000
0000
,  // measure 23
1002
0000
0100
0000
0000
0010
0000
0000
0203
0000
0310
0000
0000
1000
0000
0000
,  // measure 24
2100
0000
0010
0000
0000
0001
0000
0000
3020
0000
0130
0000
0000
1000
0000
0000
,  // measure 25
1000
0010
1000
0001
1000
0000
0000
0100
0001
0000
1000
0000
0010
0100
0000
0000
,  // measure 26
0001
0010
0001
1000
0001
0000
0000
0100
0010
0000
1000
0000
0001
0100
0000
0000
,  // measure 27
0100
0001
0100
0010
0100
0000
0000
0010
1000
0000
0001
0000
0100
0001
0000
0000
,  // measure 28
1000
0001
1000
0100
1000
0000
0000
0010
0100
0000
0001
0000
0010
0001
0000
0000
,  // measure 29
1000
0010
0100
0001
1000
0000
0000
0100
0001
0000
1000
0000
0010
0100
0000
0000
,  // measure 30
0001
0100
0010
1000
0001
0000
0000
0100
0010
0000
1000
0000
0001
0100
0000
0000
,  // measure 31
0010
0100
0001
1000
0100
0000
0000
0010
0100
0000
0001
0000
1000
0010
0000
0000
,  // measure 32
0100
0010
1000
0100
0010
0000
0100
0000
0001
0100
0001
1000
0001
0010
0001
1000
,  // measure 33
0001
0100
0010
0100
0001
0000
0000
0010
0100
0000
0001
0000
1000
0010
0000
0100
,  // measure 34
0001
1000
0010
1000
0100
0000
0000
0010
0100
0000
0001
0000
1000
0010
0000
1000
,  // measure 35
0001
0100
0010
1000
0100
0000
0000
0010
0100
0000
1000
0000
0001
0100
0000
1000
,  // measure 36
0001
0010
0100
1000
0001
0000
0000
0100
0010
0000
1000
0000
0001
0100
0000
1000
,  // measure 37
0100
0010
1000
0001
0100
0000
0000
0001
0010
0000
0100
0000
1000
0001
0000
0100
,  // measure 38
0001
1000
0100
1000
0010
0000
0000
0100
0001
0000
1000
0000
0010
0100
0000
0001
,  // measure 39
1000
0100
0010
1000
0001
0000
0000
0100
0010
0000
1000
0000
0001
0100
0000
1000
,  // measure 40
0001
1000
0001
1000
0001
1000
0001
1000
0001
0100
0010
1000
0100
1000
0001
0100
,  // measure 41
0010
0100
0010
0100
0010
0000
0000
0100
0001
0000
0100
0000
0001
0100
0000
0001
,  // measure 42
1000
0010
1000
0010
1000
0000
0000
1000
0010
0000
1000
0000
0010
0100
0000
0010
,  // measure 43
0100
0001
0100
0001
0100
0000
0000
0010
0100
0000
0001
0000
1000
0100
0000
1000
,  // measure 44
0001
1000
0001
1000
0001
0000
0000
1000
0001
0000
0100
0000
0001
1000
0000
0001
,  // measure 45
1000
0010
1000
0010
1000
0000
0000
0010
1000
0000
0010
0000
1000
0010
0000
1000
,  // measure 46
0010
0100
0010
0100
0010
0000
0000
0100
0010
0000
0100
0000
0001
0100
0000
0001
,  // measure 47
1000
0001
1000
0001
1000
0000
0000
1000
0001
0000
0100
0000
0001
1000
0000
0001
,  // measure 48
1000
0010
0100
0001
1000
0001
0010
0100
1000
0001
0010
0100
0001
0100
0010
1000
,  // measure 49
0001
0100
0010
0100
0001
0000
0000
0000
1000
0000
1010
0000
0000
1010
0000
0000
,  // measure 50
0100
0001
0010
0001
0100
0000
0000
0000
0010
0000
0011
0000
0000
0011
0000
0000
,  // measure 51
1000
0001
0100
0001
1000
0000
0000
0000
0010
0000
0110
0000
0000
0110
0000
0000
,  // measure 52
0100
0001
1000
0001
0100
0000
0000
0000
1000
0000
1001
0000
0000
1001
0000
0000
,  // measure 53
1000
0100
0010
0001
1000
0000
0000
0000
0001
0000
0011
0000
0000
0011
0000
0000
,  // measure 54
0110
0000
1100
0000
0000
1100
0000
0000
0110
0000
0011
0000
0000
0011
0000
0000
,  // measure 55
1001
0000
0110
0000
0000
0101
0000
0000
1010
0000
1001
0000
0000
0110
0000
0000
,  // measure 56
1000
0010
0100
0001
0010
0001
0100
0010
1000
0010
0100
0001
0010
0100
1000
0001
,  // measure 57
1001
0000
1001
0000
0000
2002
0000
0000
0000
3003
0110
0000
0000
0220
0000
0330
,  // measure 58
0011
0000
0110
0000
0000
2200
0000
0000
0000
3300
0110
0000
0000
0022
0000
0033
,  // measure 59
2002
0000
0000
0000
3003
0110
0000
0000
;
