#VERSION:0.81;
#TITLE:The Trooper;
#SUBTITLE:;
#ARTIST:MICapella;
#TITLETRANSLIT:;
#SUBTITLETRANSLIT:;
#ARTISTTRANSLIT:;
#GENRE:;
#ORIGIN:;
#CREDIT:;
#BANNER:The Trooper - MICapellabn.PNG;
#BACKGROUND:The Trooper - MICapellabg.PNG;
#PREVIEWVID:;
#JACKET:The Trooper - MICapellajacket.PNG;
#CDIMAGE:;
#DISCIMAGE:;
#LYRICSPATH:The Trooper - MICapella.lrc;
#CDTITLE:encorerebirth.png;
#MUSIC:The Trooper - MICapella.ogg;
#OFFSET:0.033;
#SAMPLESTART:62.471;
#SAMPLELENGTH:12.888;
#SELECTABLE:YES;
#BPMS:0.000=153.000,
6.000=229.500,
9.000=153.000,
15.000=229.500,
18.000=153.000,
24.000=229.500,
27.000=153.000,
33.000=229.500,
36.000=153.000,
42.000=229.500,
45.000=153.000,
51.000=229.500,
54.000=153.000,
60.000=229.500,
63.000=153.000,
69.000=229.500,
72.000=76.500,
75.000=229.500,
78.000=76.500,
81.000=229.500,
84.000=76.500,
87.000=229.500,
90.000=76.500,
92.000=153.000,
94.000=229.500,
97.000=153.000,
103.000=229.500,
106.000=153.000,
112.000=229.500,
115.000=153.000,
121.000=229.500,
124.000=153.000,
162.000=229.500,
165.000=153.000,
267.000=229.500,
270.000=153.000,
276.000=229.500,
279.000=153.000,
285.000=229.500,
288.000=153.000,
294.000=229.500,
297.000=153.000,
303.000=229.500,
306.000=153.000,
312.000=229.500,
315.000=153.000;
#STOPS:;
#DELAYS:;
#WARPS:;
#TIMESIGNATURES:0.000=4=4;
#TICKCOUNTS:0.000=4;
#COMBOS:0.000=1;
#SPEEDS:0.000=1.000=0.000=0;
#SCROLLS:0.000=1.000;
#FAKES:;
#LABELS:0.000=Song Start;
#BGCHANGES:;
#KEYSOUNDS:;
#ATTACKS:
;

//---------------dance-single - Spork!----------------
#NOTEDATA:;
#CHARTNAME:Spork! - Expert;
#STEPSTYPE:dance-single;
#DESCRIPTION:Spork!;
#CHARTSTYLE:;
#DIFFICULTY:Challenge;
#METER:12;
#RADARVALUES:1.000,1.000,0.894,0.323,1.000,752.000,108.000,39.000,109.000,0.000,0.000,0.000,0.000,1.000,1.000,0.894,0.323,1.000,752.000,108.000,39.000,109.000,0.000,0.000,0.000,0.000;
#CREDIT:Spork!;
#NOTES:
// measure 0
0000
0000
0000
0000
,  // measure 1
0000
0000
0000
0000
,  // measure 2
0000
0000
0000
0000
,  // measure 3
0000
0000
0000
0000
,  // measure 4
0000
0000
0000
0000
0000
0000
0000
0000
0000
0000
0010
0000
1000
0100
1000
0000
,  // measure 5
0010
0000
0100
0000
0001
0010
0001
0000
1000
0000
0100
0000
0010
0100
0010
0000
,  // measure 6
0011
0000
0000
0101
0000
0000
1010
0000
0000
2001
0000
0000
0000
3000
0001
0000
,  // measure 7
0010
0001
0100
0010
1000
0000
1010
0000
0010
1000
0100
0010
0001
0000
0011
0000
,  // measure 8
0010
0001
0100
0010
0110
0000
0000
1010
0000
0000
1001
0000
0000
0021
0000
0000
,  // measure 9
0000
0030
0001
0000
0010
0001
0010
0001
0010
0000
0100
0000
1000
0001
1000
0001
,  // measure 10
1000
0000
0010
0000
0100
0000
0000
0000
0101
0000
0000
1001
0000
0000
1100
0000
,  // measure 11
0000
1020
0000
0000
0000
0030
1000
0000
0010
1000
0010
1000
0010
0000
0100
0000
,  // measure 12
0001
1000
0001
1000
0001
0000
0010
0000
0100
0000
0000
0000
1100
0000
0000
1001
,  // measure 13
0000
0000
0011
0000
0000
0201
0000
0000
0000
0300
0001
0000
0010
0001
0100
0001
,  // measure 14
1000
0000
0001
0000
0100
0010
0100
0001
1000
0000
0100
0000
0010
0000
0000
0000
,  // measure 15
0011
0000
0000
1001
0000
0000
1010
0000
0000
1200
0000
0000
0000
0300
1000
0000
,  // measure 16
0010
0000
0000
1000
0000
0000
0100
0000
0000
1000
0000
0000
0001
0000
0000
0000
0000
0000
1000
0000
0000
0000
0000
0000
0010
0000
0000
0100
0000
0000
0010
0000
0000
1000
0000
0000
0100
0000
1000
0000
0100
0000
1000
0000
0000
0000
0000
0000
,  // measure 17
0010
0000
0100
0000
0010
0000
0100
0000
0000
0000
0000
0000
0101
0000
0000
0000
0000
0000
0000
0000
0000
0110
0000
0000
0000
0000
0000
0000
0000
0000
1010
0000
0000
0000
0000
0000
0000
0000
0000
1002
0000
0000
0000
0000
0000
0000
0000
0000
,  // measure 18
0000
0003
1000
0000
0100
0000
0010
0000
1000
0000
0000
0000
0010
0000
0001
0000
1000
0000
0010
0000
0001
0000
0000
0000
1010
0000
0000
0000
0000
0000
0101
0000
,  // measure 19
0000
0000
0000
0000
1001
0000
0000
0000
0000
0000
0210
0000
0000
0000
0000
0000
0000
0300
0001
0000
0010
0000
1000
0000
0010
0000
0001
0000
0100
0000
0010
0000
,  // measure 20
1000
0100
0001
0000
1100
0000
0000
0011
0000
0000
0110
0000
0000
1002
0000
0000
,  // measure 21
0000
0003
1000
0000
0010
0000
0001
0000
0010
0000
1000
0000
0100
0000
0010
0000
0001
0000
0100
0000
1000
0000
0000
0000
0101
0000
0000
0000
0000
0000
1010
0000
,  // measure 22
0000
0000
0000
0000
1001
0000
0000
0000
0000
0000
0210
0000
0000
0000
0000
0000
0000
0300
0001
0000
0010
0000
0100
0000
0001
0000
0000
0000
0100
0000
1000
0000
,  // measure 23
0010
0000
1010
0000
0010
1000
0100
0010
0110
0000
0000
1100
0000
0000
1001
0000
,  // measure 24
0000
0201
0000
0000
0000
0300
0001
0100
0010
0000
0100
0010
1000
0000
0010
1000
,  // measure 25
0100
0000
1000
0100
0010
0000
0100
0010
0001
0000
1000
0001
0101
0000
0000
0110
,  // measure 26
0000
0000
1010
0000
0000
0012
0000
0000
0000
0003
1000
0010
0100
0000
0010
0100
,  // measure 27
0001
0000
0100
0001
0010
0000
0001
0010
0100
0000
0010
0100
1000
0000
0001
1000
,  // measure 28
1010
0000
0000
0110
0000
0000
0101
0000
0000
1200
0000
0000
0000
0300
0010
0100
,  // measure 29
1000
0000
0010
0100
0001
0000
0010
0001
0100
0000
0010
1000
0001
0000
1000
0100
,  // measure 30
0010
0000
0100
1000
1100
0000
0000
1001
0000
0000
0011
0000
0000
0201
0000
0000
,  // measure 31
0000
0300
0010
0100
0001
0000
0010
0100
1000
0000
0010
1000
0100
0000
0010
0001
,  // measure 32
1000
0000
0001
0100
0010
0000
0100
0001
0101
0000
0100
0000
0001
0000
0020
0000
,  // measure 33
0000
0000
0100
0030
2000
0000
0010
3000
0002
0000
0010
0003
0200
0000
0001
0300
,  // measure 34
0020
0000
0100
0030
2000
0000
0001
3000
0021
0000
0001
0030
0100
0000
0120
0000
,  // measure 35
0000
0000
1030
0100
0010
0100
1000
0001
0010
0000
0001
0100
0010
0100
0001
1000
,  // measure 36
0100
0000
0010
0100
1000
0100
0010
0001
1000
0000
1001
0000
1000
0000
0020
0000
,  // measure 37
0000
0000
0100
0030
0002
0000
0010
0003
2000
0000
0010
3000
0200
0000
1000
0300
,  // measure 38
0020
0000
0100
0030
0002
0000
1000
0003
1020
0000
1000
0030
0100
0000
0120
0000
,  // measure 39
0000
0000
0031
0100
0010
0100
0001
1000
0010
0000
1000
0100
0010
0100
1000
0010
,  // measure 40
0100
0000
0001
0000
0100
0000
0001
0000
0000
0000
0000
0000
1000
0000
0100
0000
1000
0000
0100
0000
0000
0000
0000
0000
1100
0000
0000
0000
0000
0000
0000
0000
0000
0110
0000
0000
0000
0000
0000
0000
0000
0000
0011
0000
0000
0000
0000
0000
,  // measure 41
0000
10M2
0000
0000
1000
0003
0010
1000
0100
0000
0010
0000
0M11
0000
0010
0001
,  // measure 42
0100
0000
0010
0000
100M
0000
01M0
0000
M001
0000
01M0
0000
1000
0000
0010
1000
,  // measure 43
0M01
0000
0000
0000
0000
0000
01M1
0000
0000
0000
0000
0000
0100
0000
0000
0000
0000
0000
0001
0000
0000
0010
0000
0000
0100
0000
0000
0000
0000
0000
0010
0000
0000
0000
0000
0000
M001
0000
0000
0000
01M0
0000
0000
0000
100M
0000
0000
0000
,  // measure 44
01M0
0000
0000
0000
M001
0000
0000
0000
10M0
0000
0000
0000
010M
0000
0000
0000
0000
0000
0010
0000
0000
0100
0000
0000
1000
0000
0000
0000
0000
0000
0001
0000
1000
0000
0001
0000
1M00
0000
0000
0000
0000
0000
0000
0000
0000
0000
0000
0000
,  // measure 45
102M
0000
0000
0000
0000
0000
0000
0000
0000
0000
0030
0000
1000
0000
0000
0100
0000
0000
1000
0000
0000
0100
0000
0000
1000
0000
0000
0100
0000
0000
1000
0000
0000
0100
0000
0000
M010
0000
0000
0001
0000
0000
0010
0000
0000
0001
0000
0000
,  // measure 46
0010
0000
0000
0001
0000
0000
0010
0000
0000
0001
0000
0000
M100
0000
0000
0010
0000
0000
0100
0000
0000
0010
0000
0000
010M
0000
0000
0010
0000
0000
0100
0000
0000
001M
0000
0000
1000
0000
0000
00M1
0000
0000
1000
0000
0000
0001
0M00
0000
,  // measure 47
1000
0000
0000
0001
00M0
0000
1000
0000
0M00
0001
0000
0000
1000
00M0
0000
0100
0000
0000
001M
0000
0000
0100
0000
00M0
1000
0000
0000
001M
0000
0000
M100
0000
0000
0001
00M0
0000
1000
0M00
0000
0001
0000
M000
0010
0000
0000
010M
0000
0000
,  // measure 48
0010
0000
M000
0001
0000
00M0
0100
0000
0000
001M
0000
0000
1M00
0000
0000
0000
0000
0000
101M
0000
0000
0000
0000
0000
10M0
0000
0000
0000
010M
0000
0000
0000
M010
0000
0000
0000
0M01
0000
0000
0000
0000
0000
1M02
0000
0000
0000
0000
0000
,  // measure 49
0000
0000
0103
0000
0010
0000
101M
0000
0010
0100
0001
0000
0010
0000
0M11
0000
,  // measure 50
0010
0100
1000
0000
0001
0000
10M1
0000
1000
0010
0100
0000
0010
0000
M110
0000
,  // measure 51
0010
1000
0001
0000
1000
0000
110M
0000
0100
0010
0001
0000
1000
0000
0001
0010
,  // measure 52
M001
0010
010M
1000
0M10
0000
0010
M100
0001
01M0
0001
0000
0M10
0000
0010
010M
,  // measure 53
1000
01M0
1000
0000
0M01
0000
10M0
0100
1000
0010
0100
0001
0010
0000
00M1
0100
,  // measure 54
M001
M010
010M
100M
0M10
1M00
00M1
01M0
0000
0010
0000
0000
,  // measure 55
0110
0000
0000
0000
01M0
0001
M010
0100
100M
0000
01M0
0000
01M0
1000
001M
0100
,  // measure 56
M001
0000
0M10
0000
1M01
0000
10M0
0000
00M1
0000
M101
0000
01M0
0001
M010
0100
,  // measure 57
110M
0000
10M0
0000
M001
0100
0001
0010
0001
0100
0001
1000
0001
0100
0001
0010
,  // measure 58
0001
0100
0001
1000
010M
0010
0100
1000
0100
0010
0100
0001
0100
0010
0100
1000
,  // measure 59
0100
0000
0010
0100
100M
0010
1000
0010
1000
0010
1000
0010
010M
0010
0100
0010
,  // measure 60
M001
0010
0001
0010
100M
0010
1000
0010
M100
0001
0100
0001
0M10
0000
0010
0000
,  // measure 61
0110
0000
0000
0000
M001
0100
0001
0100
0001
0100
0001
0100
001M
0100
0010
0100
,  // measure 62
10M0
0100
1000
0100
M001
0100
0001
0100
0001
0100
0001
0100
001M
1000
0010
1000
,  // measure 63
0100
0000
1000
0001
10M0
0100
1000
0100
1000
0100
1000
0100
M010
0100
0010
0100
,  // measure 64
00M1
0100
0001
0100
100M
0100
M010
0001
M100
0010
1M00
0001
M010
0100
100M
0010
,  // measure 65
M100
0001
1M00
0010
010M
0000
0001
0000
0010
0001
0100
0001
1000
0000
0001
0000
,  // measure 66
0010
0100
0010
0001
1000
0000
0010
0000
0100
0000
0000
0000
0101
0000
0000
0011
,  // measure 67
0000
0000
1001
0000
0000
1200
0000
0000
0000
0300
1000
0000
0100
1000
0010
1000
,  // measure 68
0001
0000
1000
0000
0100
0010
0100
1000
0001
0000
0100
0000
0010
0000
0000
0000
,  // measure 69
1010
0000
0000
1100
0000
0000
1001
0000
0000
0012
0000
0000
0000
0003
0100
0000
,  // measure 70
0001
0010
0100
0010
0001
0000
1000
0000
0010
0100
0001
1000
0100
0000
0010
0000
,  // measure 71
0100
0000
0000
0000
0011
0000
0000
0110
0000
0000
1001
0000
0000
2010
0000
0000
,  // measure 72
0000
3000
0010
0000
1000
0100
0010
0100
1000
0000
0001
0000
0100
0010
1000
0001
,  // measure 73
0010
0000
0001
0000
0010
0000
0001
0000
0000
0000
0000
0000
0100
0000
0010
0000
0100
0000
0010
0000
0000
0000
0000
0000
1010
0000
0000
0000
0000
0000
0000
0000
0000
0110
0000
0000
0000
0000
0000
0000
0000
0000
0101
0000
0000
0000
0000
0000
,  // measure 74
0000
1002
0000
0000
0000
0003
0100
0000
0001
0010
0001
0000
0100
0000
0010
0000
,  // measure 75
1000
0100
1000
0000
0001
0000
0010
0000
0100
0010
0100
0000
1100
0000
0000
1010
,  // measure 76
0000
0000
0101
0000
0000
1002
0000
0000
0000
0003
1000
0000
0100
1000
0010
0000
,  // measure 77
0110
0000
0010
0000
0100
0001
0010
0100
1000
0000
1100
0000
1001
0000
0110
0000
,  // measure 78
0011
0000
0000
0101
0000
0000
1001
0000
0000
2200
0000
0000
0000
0000
0000
0000
,  // measure 79
0000
3300
0000
0000
;

//---------------dance-single - Spork!----------------
#NOTEDATA:;
#CHARTNAME:Spork! - Beginner;
#STEPSTYPE:dance-single;
#DESCRIPTION:Spork!;
#CHARTSTYLE:;
#DIFFICULTY:Beginner;
#METER:2;
#RADARVALUES:0.173,0.261,0.050,0.224,0.000,113.000,6.000,27.000,0.000,0.000,0.000,0.000,0.000,0.173,0.261,0.050,0.224,0.000,113.000,6.000,27.000,0.000,0.000,0.000,0.000,0.000;
#CREDIT:Spork!;
#NOTES:
// measure 0
0000
0000
0000
0000
,  // measure 1
0000
0000
0000
0000
,  // measure 2
0000
0000
0000
0000
,  // measure 3
0000
0000
0000
0000
,  // measure 4
0000
0000
0000
0000
,  // measure 5
0000
0000
0000
0000
,  // measure 6
2000
0000
0000
3000
,  // measure 7
0000
0000
0000
0000
,  // measure 8
0000
0002
0000
0000
,  // measure 9
0003
0100
0100
0000
,  // measure 10
0010
0000
0200
0000
,  // measure 11
0000
0300
0010
0010
,  // measure 12
0000
0100
0000
0020
,  // measure 13
0000
0000
0030
1000
,  // measure 14
1000
0000
0001
0000
,  // measure 15
2000
0000
0000
3000
,  // measure 16
0001
0001
0000
1000
,  // measure 17
0000
0002
0000
0000
,  // measure 18
0003
0000
0000
2002
,  // measure 19
0000
0000
3003
0000
,  // measure 20
0000
0220
0000
0000
,  // measure 21
0330
0000
0000
2002
,  // measure 22
0000
0000
3003
0000
,  // measure 23
0000
0000
0220
0000
,  // measure 24
0000
0330
0010
0010
,  // measure 25
0000
1000
0000
0002
,  // measure 26
0000
0000
0003
0010
,  // measure 27
0010
0000
0001
0000
,  // measure 28
2000
0000
0000
3000
,  // measure 29
0001
0001
0000
0100
,  // measure 30
0000
0020
0000
0000
,  // measure 31
0030
1000
1000
0000
,  // measure 32
0100
0000
0000
0000
,  // measure 33
1000
0000
0100
0000
,  // measure 34
0010
0000
0001
0000
,  // measure 35
1000
0000
0000
0000
,  // measure 36
1000
0000
0000
0000
,  // measure 37
0001
0000
0010
0000
,  // measure 38
0100
0000
1000
0000
,  // measure 39
0001
0000
0000
0000
,  // measure 40
0001
0000
0000
0000
,  // measure 41
0000
1000
0000
1000
,  // measure 42
0000
0010
0000
0010
,  // measure 43
0000
0100
0000
0100
,  // measure 44
0000
0001
0000
1000
,  // measure 45
0000
0001
0000
0001
,  // measure 46
0000
0100
0000
0100
,  // measure 47
0000
0010
0000
0010
,  // measure 48
0000
1000
0000
0001
,  // measure 49
0000
1000
0000
0100
,  // measure 50
0000
0001
0000
0100
,  // measure 51
0000
1000
0000
0000
,  // measure 52
0001
0001
0000
1000
,  // measure 53
0000
0001
0000
0000
,  // measure 54
1000
1000
0000
0000
,  // measure 55
0000
0001
0000
0100
,  // measure 56
0000
1000
0000
0100
,  // measure 57
0000
0002
0000
0000
,  // measure 58
0000
2003
0000
0000
,  // measure 59
0000
3001
0000
1000
,  // measure 60
0000
0010
0010
0010
,  // measure 61
0000
1000
0000
0001
,  // measure 62
0000
0100
0000
0100
,  // measure 63
0000
0001
0000
1000
,  // measure 64
0000
0100
0000
0100
,  // measure 65
0000
0000
1000
1000
,  // measure 66
0000
0001
0000
2000
,  // measure 67
0000
0000
3000
0001
,  // measure 68
0001
0000
1000
0000
,  // measure 69
0002
0000
0000
0003
,  // measure 70
0010
0010
0000
0100
,  // measure 71
0000
0020
0000
0000
,  // measure 72
0030
0100
0100
0000
,  // measure 73
0010
0000
0200
0000
,  // measure 74
0000
0300
0000
0000
,  // measure 75
0000
0000
0000
0220
,  // measure 76
0000
0000
0330
0000
,  // measure 77
0000
0000
0000
0000
,  // measure 78
2002
0000
0000
3003
;

//---------------dance-single - Spork!----------------
#NOTEDATA:;
#CHARTNAME:Spork! - Light;
#STEPSTYPE:dance-single;
#DESCRIPTION:Spork!;
#CHARTSTYLE:;
#DIFFICULTY:Easy;
#METER:5;
#RADARVALUES:0.370,0.521,0.232,0.571,0.087,216.000,28.000,69.000,0.000,0.000,0.000,0.000,0.000,0.370,0.521,0.232,0.571,0.087,216.000,28.000,69.000,0.000,0.000,0.000,0.000,0.000;
#CREDIT:Spork!;
#NOTES:
// measure 0
0000
0000
0000
0000
,  // measure 1
0000
0000
0000
0000
,  // measure 2
0000
0000
0000
0000
,  // measure 3
0000
0000
0000
0000
,  // measure 4
0000
0000
0000
0000
,  // measure 5
1000
0000
0001
0000
,  // measure 6
0202
0000
0000
0303
,  // measure 7
0000
0001
0000
1000
,  // measure 8
0000
2200
0000
0000
,  // measure 9
3300
1000
0001
1000
,  // measure 10
0010
0010
0200
0000
,  // measure 11
0000
0010
0000
0000
0300
0000
0000
0000
0010
0000
0000
0000
1000
0000
0000
0000
,  // measure 12
0010
0100
0100
0002
,  // measure 13
0000
0000
0000
0000
0000
0010
0000
0000
0003
0000
0000
0000
0001
0000
0000
0000
,  // measure 14
1000
0001
0100
0100
,  // measure 15
0020
0000
0000
0000
0000
0000
0000
0000
0000
0100
0000
0000
0030
0000
0000
0000
,  // measure 16
0100
0001
0100
0010
,  // measure 17
0010
0000
0000
0000
2000
0000
0000
0000
0000
0000
0000
0000
0000
0100
0000
0000
,  // measure 18
3000
0000
0000
0000
0000
0000
0000
0000
0000
0000
0000
0000
0001
0000
0000
1000
,  // measure 19
0000
0000
0001
0000
0000
1000
0000
0000
0000
0000
0000
0000
0000
0000
0000
0000
,  // measure 20
0000
0000
0000
0000
1000
0000
0000
0001
0000
0000
1000
0000
0000
0001
0000
0000
,  // measure 21
0000
0000
0000
0000
0000
0000
0000
0000
0000
0000
0000
0000
0100
0000
0000
0010
,  // measure 22
0000
0000
0100
0000
0000
0010
0000
0000
0000
0000
0000
0000
0000
0000
0000
0000
,  // measure 23
0000
0000
0000
0000
0000
0000
0000
0000
0010
0000
0000
0100
0000
0000
0010
0000
,  // measure 24
0000
0100
0000
0000
0000
0000
0000
0000
0001
0000
0000
0000
0010
0000
0000
0000
,  // measure 25
0100
1000
1000
0102
,  // measure 26
0000
0000
0000
0000
0000
0010
0000
0000
0003
0000
0000
0000
1000
0000
0000
0000
,  // measure 27
0100
0010
0001
0001
,  // measure 28
2010
0000
0000
0000
0000
0000
0000
0000
0000
0100
0000
0000
3000
0000
0000
0000
,  // measure 29
0001
0100
0010
1000
,  // measure 30
1000
0000
0000
0000
0012
0000
0000
0000
0000
0000
0000
0000
0000
0100
0000
0000
,  // measure 31
0003
1000
0010
0100
,  // measure 32
0001
0000
1000
0000
0000
0000
0000
0002
,  // measure 33
0000
0023
0032
0203
,  // measure 34
0320
0000
2030
0000
3200
0000
1300
0002
,  // measure 35
0000
1003
0010
1000
,  // measure 36
0100
0000
0010
0000
0001
1000
0000
2000
,  // measure 37
0000
3200
2300
3020
,  // measure 38
0230
0000
0302
0000
0023
0000
0031
2000
,  // measure 39
0000
3001
0100
0001
,  // measure 40
0010
0100
0220
0000
,  // measure 41
0330
1100
0000
0101
,  // measure 42
0000
0001
0100
1000
,  // measure 43
0100
0101
0000
0100
,  // measure 44
0010
1010
0000
0010
,  // measure 45
2000
0100
3000
0200
,  // measure 46
0000
2300
3020
0032
,  // measure 47
0023
2030
3002
0023
,  // measure 48
2030
3020
0032
2003
,  // measure 49
3000
0000
0000
0202
0000
0303
0000
2200
,  // measure 50
0000
3300
0000
2020
0000
3030
0000
0022
,  // measure 51
0000
0033
0000
2002
0000
0000
3003
0000
,  // measure 52
0001
0010
0001
0100
,  // measure 53
0010
0220
0000
0330
,  // measure 54
1000
0001
0010
0000
,  // measure 55
0010
0100
0100
1000
,  // measure 56
1000
0001
0001
0100
,  // measure 57
0100
0201
0000
0000
,  // measure 58
0310
1020
0000
0000
,  // measure 59
1030
1200
0000
0310
,  // measure 60
0001
0101
1100
0101
,  // measure 61
0001
0021
0000
0130
,  // measure 62
1000
2200
3300
0202
,  // measure 63
0303
0120
0000
0130
,  // measure 64
0001
1000
0010
1000
,  // measure 65
1000
1001
0001
1000
,  // measure 66
0001
0100
0100
0020
,  // measure 67
0000
0000
0000
0000
0000
0100
0000
0000
0030
0000
0000
0000
0100
0000
0000
0000
,  // measure 68
0001
0100
0010
0010
,  // measure 69
2000
0000
0000
0000
0000
0000
0000
0000
0000
0100
0000
0000
3000
0000
0000
0000
,  // measure 70
1000
0001
1000
0010
,  // measure 71
0010
0000
0000
0000
0200
0000
0000
0000
0000
0000
0000
0000
0000
0010
0000
0000
,  // measure 72
0300
0010
1000
0010
,  // measure 73
0100
0100
0002
0000
,  // measure 74
0000
0010
0000
0000
0003
0000
0000
0000
0000
0000
0000
0000
0001
0000
0000
0000
,  // measure 75
0000
1000
0000
2020
,  // measure 76
0000
0000
3030
0000
,  // measure 77
1000
0000
0001
0000
,  // measure 78
1000
0000
0000
0001
0000
0000
1000
0000
0000
0001
0000
0000
0000
0000
0000
0000
;

//---------------dance-single - Spork!----------------
#NOTEDATA:;
#CHARTNAME:Spork! - Heavy;
#STEPSTYPE:dance-single;
#DESCRIPTION:Spork!;
#CHARTSTYLE:;
#DIFFICULTY:Hard;
#METER:9;
#RADARVALUES:0.756,0.886,0.340,0.596,0.671,526.000,41.000,72.000,21.000,0.000,0.000,0.000,0.000,0.756,0.886,0.340,0.596,0.671,526.000,41.000,72.000,21.000,0.000,0.000,0.000,0.000;
#CREDIT:Spork!;
#NOTES:
// measure 0
0000
0000
0000
0000
,  // measure 1
0000
0000
0000
0000
,  // measure 2
0000
0000
0000
0000
,  // measure 3
0000
0000
0000
0000
,  // measure 4
0000
0000
0000
0000
0000
0000
0000
0000
0000
0000
1000
0000
0001
0100
0001
0000
,  // measure 5
0010
0000
0100
0000
0010
0001
0010
0000
0001
0000
1000
0000
0010
1000
0010
0000
,  // measure 6
1000
0000
0000
0000
0000
0000
0100
0000
0000
00M0
0000
0000
0100
0000
0000
0000
0000
0000
0001
0000
0000
0000
0000
0000
0000
0000
0000
0000
0001
0000
0000
0000
,  // measure 7
1000
0100
1000
0100
0010
0000
0100
0000
0010
0001
0010
0001
0100
0000
0001
0000
,  // measure 8
1000
0000
0100
0000
0010
0000
0001
0000
1000
0000
0000
0000
0000
0000
0010
0000
0000
0M00
0000
0000
0010
0000
0000
0000
0000
0000
1001
0000
0000
0000
0000
0000
,  // measure 9
0000
0000
1000
0000
0100
1000
0100
1000
0100
0000
0010
0000
0001
0100
0001
0100
,  // measure 10
0001
0000
0000
0000
0010
0000
0000
0000
0100
0000
0000
0000
0000
0000
0000
0000
1000
0000
0000
0000
0000
0000
0010
0000
0000
0M00
0000
0000
0010
0000
0000
0000
,  // measure 11
0000
0011
0000
0000
0000
0000
0001
0000
0100
0001
0100
0001
0100
0000
0010
0000
,  // measure 12
1000
0100
1000
0100
1000
0000
0001
0000
0010
0000
0000
0000
0001
0000
0000
0100
,  // measure 13
0000
00M0
0000
0000
0100
0000
0000
0000
0000
0000
1100
0000
0000
0000
0000
0000
0000
0000
0000
0000
1000
0000
0000
0000
0010
0000
1000
0000
0001
0000
1000
0000
,  // measure 14
0010
0000
0100
0000
0001
0100
0010
0100
0001
0000
1000
0000
0010
0000
0000
0000
,  // measure 15
1000
0000
0000
0000
0000
0000
0100
0000
0000
00M0
0000
0000
0100
0000
0000
0000
0000
0000
0101
0000
0000
0000
0000
0000
0000
0000
0000
0000
0001
0000
0000
0000
,  // measure 16
0010
0001
1000
0001
0010
0000
0100
0000
1000
0100
0010
0100
1000
0000
0001
0000
,  // measure 17
1000
0000
0000
0000
1000
0000
0000
0000
0001
0000
0000
0000
0000
0000
0010
0000
0000
0M00
0000
0000
0010
0000
0000
0000
0000
0000
1010
0000
0000
0000
0000
0000
,  // measure 18
0000
1000
0100
1000
0010
0000
0010
0100
0001
0010
0100
0000
1000
0000
0000
0010
,  // measure 19
0000
M000
0000
0000
0010
0000
0000
0000
0000
0000
0011
0000
0000
0000
0000
0000
0000
0000
0001
0000
0100
0000
0001
0000
0010
0000
0100
0000
1000
0000
0010
0000
,  // measure 20
0100
0000
0010
0000
1000
0000
0000
0000
0001
0000
0000
0000
0000
0000
0010
0000
0000
000M
0000
0000
0010
0000
0000
0000
0000
0000
1010
0000
0000
0000
0000
0000
,  // measure 21
0000
1000
0010
1000
0100
0010
0001
0100
0010
0100
0001
0000
1000
0000
0000
0100
,  // measure 22
0000
M000
0000
0000
0100
0000
0000
0000
0000
0000
0101
0000
0000
0000
0000
0000
0000
0000
0001
0000
0100
0000
0001
0000
0010
0000
0000
0000
0010
0000
0100
0000
,  // measure 23
1000
0000
0000
0000
0010
0000
0000
0000
0100
0000
0000
0000
0100
0000
0000
0000
0001
0000
0000
0000
0000
0000
0100
0000
0000
000M
0000
0000
0100
0000
0000
0000
,  // measure 24
0000
1100
0000
0000
0000
0000
0001
0000
0100
0000
1000
0000
0100
0000
0000
0000
,  // measure 25
0001
0000
0010
0000
0000
0000
0010
0000
0100
0000
0000
0000
1100
0000
0000
0100
,  // measure 26
0000
00M0
0000
0000
0100
0000
0000
0000
0000
0000
0101
0000
0000
0000
0000
0000
0000
0000
0000
0000
1000
0000
0000
0000
0100
0000
0000
0000
0001
0000
0000
0000
,  // measure 27
0100
1000
0010
0000
0001
0010
1000
0000
,  // measure 28
1010
0000
0000
0000
0000
0000
0010
0000
0000
0M00
0000
0000
0010
0000
0000
0000
0000
0000
0011
0000
0000
0000
0000
0000
0000
0000
0000
0000
0001
0000
0000
0000
,  // measure 29
0010
0000
1000
0000
0010
0000
0001
0000
0100
0000
0010
0000
1000
0000
0000
0100
,  // measure 30
0000
0000
0000
0000
0010
0000
0000
0000
0011
0000
0000
0000
0000
0000
0010
0000
0000
0M00
0000
0000
0010
0000
0000
0000
0000
0000
1010
0000
0000
0000
0000
0000
,  // measure 31
0000
1000
0000
0010
0001
0010
1000
0100
,  // measure 32
0001
0100
1000
0000
0010
1001
0000
0201
,  // measure 33
0000
0000
0010
0300
0020
0000
1000
0030
2000
0000
0001
3000
0002
0000
0010
0003
,  // measure 34
0020
0000
1000
0030
2000
0000
0010
3000
0021
0000
0001
0030
0100
0000
0120
0000
,  // measure 35
0000
0000
1030
0100
1000
0000
0100
0000
0010
0000
0001
0010
0001
0000
0100
0000
,  // measure 36
0001
0000
0100
0010
0100
0000
0010
0000
1000
0000
1001
0000
0000
0000
1020
0000
,  // measure 37
0000
0000
0100
0030
0200
0000
0001
0300
0002
0000
1000
0003
2000
0000
0100
3000
,  // measure 38
0200
0000
0001
0300
0002
0000
0100
0003
1200
0000
1000
0300
0010
0000
0210
0000
,  // measure 39
0000
0000
0301
0010
0001
0000
0100
0000
0010
0000
1000
0010
1000
0000
0100
0000
,  // measure 40
1000
0000
0000
0000
0001
0000
1000
0000
0001
0000
0000
0000
0010
0000
0000
0000
0001
0000
0000
0000
0000
0000
0100
0000
0000
00M0
0000
0000
0100
0000
0000
0000
,  // measure 41
0000
2000
0000
0000
0000
0000
0000
0000
0001
0000
0000
0000
3200
0000
0000
0000
,  // measure 42
0010
0000
0310
0100
1000
0002
0100
0000
,  // measure 43
0103
0000
0000
0020
0000
0000
1000
0000
0000
0000
0000
0000
0100
0000
0000
0000
0000
0000
1030
0000
0100
0000
0010
0000
,  // measure 44
0001
0100
0010
2000
0000
0000
0001
0000
0000
3020
0000
0000
,  // measure 45
0230
0010
0000
0302
,  // measure 46
0000
0000
0000
0000
0000
0000
0000
0000
0000
0000
0000
0000
0000
0000
0000
0000
0000
0000
0000
0000
0000
0000
0000
0000
0000
0000
0000
0000
0000
0000
0000
0000
0000
0000
0000
0000
0000
0000
0000
0000
0000
0000
0000
0000
0000
0000
0000
0000
1003
0000
0000
0000
0000
0000
0000
0000
0000
0000
0000
0000
0000
0000
0000
0000
0000
0000
0000
0000
0000
0000
0000
0000
0000
0000
0000
0000
0000
0000
0000
0000
0000
0000
0000
0000
0000
0000
0000
0000
0000
0000
0000
0000
0000
0000
0000
0000
0001
0000
0000
0000
0000
0000
0000
0000
0000
0000
0000
0000
0000
0000
0000
0000
0000
0000
0000
0000
0000
0000
0000
0000
0000
0000
0000
0000
0000
0000
0000
0000
0000
0000
0000
0000
0100
0000
0000
0000
0000
0000
0000
0000
0000
0000
0000
0000
0000
0000
0000
0000
0000
0000
0000
0000
0000
0000
0000
0000
0000
0000
0000
0000
0000
0000
0001
0000
0000
0000
0000
0000
0000
0000
0000
0000
0000
0000
0000
0000
0000
0000
0000
0000
0000
0000
0000
0000
0010
0000
0000
0000
0000
0000
0000
0000
,  // measure 47
0000
0000
0000
0000
0000
0000
0000
0000
0000
0000
0000
0000
0000
0000
0000
0100
0000
0000
0000
0000
0000
0000
0000
0000
0000
0000
0000
0000
0000
0000
0000
0000
0000
1000
0000
0000
0000
0000
0000
0000
0000
0000
0000
0000
0000
0000
0000
0000
0000
0000
0000
0010
0000
0000
0000
0000
0000
0000
0000
0000
0000
0000
0000
0000
0000
0000
0000
0000
0000
0000
0000
0000
1000
0000
0000
0000
0000
0000
0000
0000
0000
0000
0000
0000
0000
0000
0000
0000
0000
0000
0000
0000
0100
0000
0000
0000
0000
0000
0000
0000
0000
0000
0000
0000
0000
0000
0000
0000
0010
0000
0000
0000
0000
0000
0000
0000
0000
0000
0000
0000
0001
0000
0000
0000
0000
0000
0000
0000
0000
0000
0000
0000
0000
0000
0000
0000
1000
0000
0000
0000
0000
0000
0000
0000
0000
0000
0000
0000
0001
0000
0000
0000
0000
0000
0000
0000
0000
0000
0000
0000
0000
0000
0000
0000
0100
0000
0000
0000
0000
0000
0000
0000
0000
0000
0000
0000
0000
0000
0000
0000
0001
0000
0000
0000
0000
0000
0000
0000
0000
0000
0000
0000
,  // measure 48
0000
0000
0010
0000
0000
0100
0000
0000
0000
1000
0000
0000
0010
0000
0000
0000
0000
0000
0100
0000
0000
0000
0000
0000
0010
0000
0000
0000
1000
0000
0000
0000
0001
0000
0000
0000
0010
0000
0000
0000
0000
0000
0120
0000
0000
0000
0000
0000
,  // measure 49
0000
0000
0031
0201
0000
0000
0310
2010
,  // measure 50
0000
0000
3100
0012
0000
0000
0103
1020
,  // measure 51
0000
0000
0130
0201
0000
0000
0310
0000
,  // measure 52
1000
0000
0000
0000
0000
0000
0010
0000
0000
0000
0000
0000
0100
0000
0000
0000
0000
0000
0000
0000
0000
1000
0000
0000
0000
0000
0000
0000
0100
0000
0000
0000
0000
0000
0000
0000
0001
0000
0000
0000
0000
0000
0000
0000
0000
0010
0000
0000
,  // measure 53
0000
0000
0100
0000
0000
0000
0001
0000
0000
0200
0000
0000
0000
0000
0000
0000
0000
0000
0000
0000
0000
1300
0000
0000
,  // measure 54
0100
1000
0010
0100
0001
0010
0100
2000
0000
0000
0000
0000
,  // measure 55
3010
0000
0020
0230
0302
0023
0230
0302
,  // measure 56
0203
2300
3020
0230
2300
3200
0302
2003
,  // measure 57
3020
2030
3200
0000
1000
0000
0001
0000
,  // measure 58
0010
0320
0100
0001
,  // measure 59
1000
0032
0010
0203
,  // measure 60
0320
0000
0000
0030
1010
0000
0000
0000
0011
0000
0000
0000
1010
0000
0010
0000
,  // measure 61
0110
0000
0000
0000
0020
0000
0000
0000
1000
0000
0000
0000
0230
0000
0000
0300
,  // measure 62
0002
0023
1000
0230
,  // measure 63
0001
0320
0100
0032
,  // measure 64
2003
0000
3002
0203
2300
3200
0302
0023
,  // measure 65
2030
0000
3020
0000
0032
0000
1003
0000
0100
1000
0100
1000
0100
0000
0010
0000
,  // measure 66
0001
0100
0001
0100
0001
0000
1000
0000
0010
0000
0000
0000
1000
0000
0000
0100
,  // measure 67
0000
00M0
0000
0000
0100
0000
0000
0000
0000
0000
0101
0000
0000
0000
0000
0000
0000
0000
0000
0000
0001
0000
0000
0000
0010
0000
0001
0000
0010
0000
0001
0000
,  // measure 68
0010
0000
0100
0000
1000
0010
1000
0010
1000
0000
0001
0000
0100
0000
0000
0000
,  // measure 69
0001
0000
0000
0000
0000
0000
0010
0000
0000
0M00
0000
0000
0010
0000
0000
0000
0000
0000
1010
0000
0000
0000
0000
0000
0000
0000
0000
0000
1000
0000
0000
0000
,  // measure 70
0100
1000
0010
1000
0100
0000
0010
0000
0001
0010
0100
0010
0001
0000
1000
0000
,  // measure 71
0010
0000
0000
0000
0000
0000
0000
0000
1000
0000
0000
0000
0000
0000
0010
0000
0000
0M00
0000
0000
0010
0000
0000
0000
0000
0000
0011
0000
0000
0000
0000
0000
,  // measure 72
0000
0000
0001
0000
0100
0001
0010
0001
0100
0000
0010
0000
1000
0010
0100
0010
,  // measure 73
1000
0000
0000
0000
0001
0000
0000
0000
0100
0000
0000
0000
0000
0000
0000
0000
0001
0000
0000
0000
0000
0000
0100
0000
0000
00M0
0000
0000
0100
0000
0000
0000
,  // measure 74
0000
1100
0000
0000
0000
0000
1000
0000
0001
0010
0001
0000
0100
0000
0010
0000
,  // measure 75
1000
0010
1000
0000
0100
0000
0010
0000
0100
0010
0100
0000
1000
0000
0000
0010
,  // measure 76
0000
0M00
0000
0000
0010
0000
0000
0000
0000
0000
0001
0000
0000
0000
0000
0000
0000
0000
0000
0000
0001
0000
0000
0000
1000
0000
0100
0000
1000
0000
0000
0000
,  // measure 77
0010
0000
0100
0000
0001
0100
0001
0100
0010
0000
1000
0000
0001
0000
0010
0000
,  // measure 78
0011
0000
0000
0M00
0000
0000
1010
0000
0000
0000
0000
0000
1100
0000
0000
00M0
0000
0000
0202
0000
0000
0000
0000
0000
0000
0000
0000
0000
0000
0000
0000
0000
,  // measure 79
0000
0303
0000
0000
;

//---------------dance-single - Spork!----------------
#NOTEDATA:;
#CHARTNAME:Spork! - Standard;
#STEPSTYPE:dance-single;
#DESCRIPTION:Spork!;
#CHARTSTYLE:;
#DIFFICULTY:Medium;
#METER:7;
#RADARVALUES:0.615,0.788,0.108,0.919,0.219,396.000,13.000,111.000,0.000,0.000,0.000,0.000,0.000,0.615,0.788,0.108,0.919,0.219,396.000,13.000,111.000,0.000,0.000,0.000,0.000,0.000;
#CREDIT:Spork!;
#NOTES:
// measure 0
0000
0000
0000
0000
,  // measure 1
0000
0000
0000
0000
,  // measure 2
0000
0000
0000
0000
,  // measure 3
0000
0000
0000
0000
,  // measure 4
0000
0000
0000
0000
0000
1000
0100
0000
,  // measure 5
0100
1000
0001
0000
0001
0100
0010
0000
,  // measure 6
0100
0000
0000
0100
0000
0000
0001
0000
0000
1000
0000
0000
0000
0000
0001
0000
,  // measure 7
0010
0000
0010
0001
1000
0000
1000
0010
,  // measure 8
0100
0000
0000
0000
0010
0000
0000
0010
0000
0000
1000
0000
0000
0001
0000
0000
,  // measure 9
0000
0001
0010
0001
1000
1000
0010
1000
,  // measure 10
0001
0000
0001
0000
0100
0000
0000
0000
0002
0000
0000
0203
0000
0000
0320
0000
,  // measure 11
0000
2030
0000
0000
3000
0000
1000
0000
0100
0000
1000
0000
0001
0000
0001
0000
,  // measure 12
0100
0000
0001
0000
1000
0000
1000
0000
0010
0000
0000
0000
2000
0000
0000
3200
,  // measure 13
0000
0000
0320
0000
0000
0032
0000
0000
0003
0000
0001
0000
0100
0000
0001
0000
,  // measure 14
0010
0010
0100
1000
0010
0010
0100
0000
,  // measure 15
0002
0000
0000
0023
0000
0000
0230
0000
0000
2300
0000
0000
3000
0000
1000
0000
,  // measure 16
0010
1000
0100
0100
0010
0001
0100
0100
,  // measure 17
0010
0000
0000
0000
2000
0000
0000
3020
0000
0000
0230
0000
0000
0302
0000
0000
,  // measure 18
0003
1000
0100
0000
0110
0000
0100
0000
0010
0100
1000
0000
0002
0000
0000
2003
,  // measure 19
0000
0000
3002
0000
0000
2003
0000
0000
3000
0001
0100
0010
0100
0000
0010
0000
,  // measure 20
0010
0100
0001
0000
2000
0000
0000
3002
0000
0000
2003
0000
0000
3002
0000
0000
,  // measure 21
0003
1000
0010
0100
0010
0000
0100
0010
0100
0001
1000
0000
0002
0000
0000
2003
,  // measure 22
0000
0000
3002
0000
0000
2003
0000
0000
3000
0001
0010
0100
0010
0000
0100
0010
,  // measure 23
0100
0000
1000
0000
0001
0000
0000
0000
2000
0000
0000
3002
0000
0000
2003
0000
,  // measure 24
0000
3002
0000
0000
0003
0000
1000
0000
0010
0000
1000
0000
0100
0000
1000
0000
,  // measure 25
0010
0000
0100
0000
0000
0000
0100
0000
0001
0000
0000
0000
1000
0000
0000
1000
,  // measure 26
0000
0000
1000
0000
0000
1000
0000
0000
0000
0000
0001
0000
0010
0000
0001
0000
,  // measure 27
0100
0001
0010
0000
0010
0100
1000
0000
,  // measure 28
0001
0000
0000
0001
0000
0000
0001
0000
0000
0001
0000
0000
0000
0000
1000
0000
,  // measure 29
0100
0000
0010
0000
0001
0000
0010
0000
0100
0000
1000
0000
0010
0000
0000
0100
,  // measure 30
0000
0000
0001
0000
1000
0000
0000
1000
0000
0000
1000
0000
0000
1000
0000
0000
,  // measure 31
0000
0001
0000
0010
0100
1000
0100
0010
,  // measure 32
0001
0100
0010
0000
0010
0100
0000
0210
,  // measure 33
0000
0302
0023
0230
,  // measure 34
2300
0000
3200
0000
0302
0000
0103
0020
,  // measure 35
0000
0000
0031
0100
0001
0000
0010
0100
,  // measure 36
0010
0000
0100
0000
1000
0100
0000
0210
,  // measure 37
0000
2300
3020
0230
,  // measure 38
0302
0000
0203
0000
2300
0000
3100
0020
,  // measure 39
0000
0000
1030
0100
1000
0000
0010
0100
,  // measure 40
0010
0000
0000
0000
0100
0000
0000
0000
0001
0000
0000
1000
0000
0000
0001
0000
,  // measure 41
0000
2000
0000
0000
0000
0000
0000
0000
0000
0000
0000
0000
3020
0000
0000
0000
,  // measure 42
0000
0000
0130
0001
1000
0200
0000
0000
,  // measure 43
0310
0002
0000
0000
0000
0000
0013
0001
,  // measure 44
1000
0001
0200
0000
0000
0000
0310
0000
,  // measure 45
0020
0000
0000
0230
,  // measure 46
0000
0302
0023
2030
,  // measure 47
3200
0302
0203
2300
,  // measure 48
3020
0032
2003
3020
,  // measure 49
0000
0000
0030
2020
0000
3030
0000
0202
,  // measure 50
0000
0303
0000
0022
0000
0033
0000
2200
,  // measure 51
0000
0000
3300
0000
0000
0000
0220
0000
0000
0000
0000
0000
0000
0330
0000
0000
,  // measure 52
0010
0001
0100
0000
0010
1000
0100
0000
,  // measure 53
0010
0100
2000
0000
0000
0000
0000
0000
,  // measure 54
3001
0002
0000
0000
,  // measure 55
0103
0000
0001
0100
0001
0001
0010
0100
,  // measure 56
0010
0010
0100
1000
0100
0100
1000
0001
,  // measure 57
1000
1000
0020
0000
1000
0000
0100
0000
,  // measure 58
0130
0002
1000
0100
,  // measure 59
0013
0020
0100
0032
,  // measure 60
0023
0000
0230
0000
2300
0000
3010
1000
,  // measure 61
1001
0200
0010
2300
,  // measure 62
3200
0320
0100
0032
,  // measure 63
1000
0203
0001
0320
,  // measure 64
2030
0000
3010
0100
0001
0010
0100
1000
,  // measure 65
0010
0100
0001
1000
0100
1000
0001
0001
,  // measure 66
0010
0000
0001
0000
0100
0000
0100
0000
0010
0000
0000
0000
2000
0000
0000
3200
,  // measure 67
0000
0000
0320
0000
0000
0032
0000
0000
0003
0000
0001
0000
0100
0000
0001
0000
,  // measure 68
1000
1000
0010
1000
0100
0100
0010
0000
,  // measure 69
0002
0000
0000
0203
0000
0000
0320
0000
0000
2030
0000
0000
3000
0000
1000
0000
,  // measure 70
0010
1000
0100
0100
1000
0001
1000
1000
,  // measure 71
0001
0000
0000
0000
2000
0000
0000
3020
0000
0000
0230
0000
0000
0302
0000
0000
,  // measure 72
0003
0001
0010
0001
0100
0100
0001
1000
,  // measure 73
0001
0000
0001
0000
1000
0000
0000
0000
0002
0000
0000
0023
0000
0000
0230
0000
,  // measure 74
0000
2300
0000
0000
3000
0000
0001
0000
0010
0000
0000
0000
0010
0000
0001
0000
,  // measure 75
0100
0000
0000
0000
0100
0000
0010
0000
1000
0000
0000
0000
0100
0000
0000
0100
,  // measure 76
0000
0000
1000
0000
0000
0001
0000
0000
0000
0000
1000
0000
0100
0000
0000
0000
,  // measure 77
0100
1000
0010
0000
0010
1000
0100
0010
,  // measure 78
0110
0000
0000
0110
0000
0000
1001
0000
0000
2002
0000
0000
0000
0000
0000
0000
,  // measure 79
0000
3003
0000
0000
;
