#TITLE:The Entertainer;
#SUBTITLE:;
#ARTIST:Hyuji feat. Dophin Star Jet & Enter Tapir;
#TITLETRANSLIT:;
#SUBTITLETRANSLIT:;
#ARTISTTRANSLIT:;
#GENRE:;
#CREDIT:;
#BANNER:theentertainer_bn.png;
#BACKGROUND:theentertainer_bg.png;
#LYRICSPATH:;
#CDTITLE:cdtitle.png;
#MUSIC:theentertainer.ogg;
#OFFSET:0.000000;
#SAMPLESTART:38.399998;
#SAMPLELENGTH:10.971428;
#SELECTABLE:YES;
#BPMS:0.000000=87.500000
,16.000000=175.000000
,140.000000=87.500000
,150.000000=175.000000
,194.000000=87.500000
,204.000000=175.000000
;
#STOPS:
;
#BGCHANGES:;
#KEYSOUNDS:;
#ATTACKS:;

//---------------dance-single - ----------------
#NOTES:
     dance-single:
     Hard:
     Hard:
     10:
     0.752693,0.905584,0.470433,0.235217,0.337144,672.000000,612.000000,60.000000,30.000000,0.000000,0.000000,0.752693,0.905584,0.470433,0.235217,0.337144,672.000000,612.000000,60.000000,30.000000,0.000000,0.000000:
// measure 0
0000
0000
0000
0000
,  // measure 1
0000
0000
0000
0000
,  // measure 2
1000
0000
0000
0001
0000
1000
0100
0000
0000
0010
0000
0100
0010
0000
0010
0001
0000
0001
0100
0000
0100
0010
0000
0010
,  // measure 3
0100
0000
0000
0000
0001
0000
1000
0000
0000
0000
0100
0000
0000
0000
0000
0000
0100
0000
0010
0000
0000
0000
0000
0000
0001
0000
0000
0000
1000
0000
0001
0000
0000
0000
0001
0000
0100
0000
0000
0000
0000
0000
0010
0000
0000
0100
0000
0000
,  // measure 4
0001
0100
0010
0100
0000
0010
1000
0100
,  // measure 5
1000
0100
0010
0100
0000
0100
1000
0010
,  // measure 6
0100
0001
0100
0010
0000
0010
1000
0000
,  // measure 7
1001
0000
0000
0000
1100
0000
0000
0000
1001
0000
0000
0001
0100
0000
0010
0000
,  // measure 8
1000
0000
0100
1000
0100
0000
0010
0000
0100
1000
0100
0000
0010
0000
0001
0000
,  // measure 9
0100
0000
0010
0000
0100
0000
0010
0100
0000
0100
0001
0000
1000
0000
0100
0000
,  // measure 10
0001
0100
0010
0001
0000
0001
0100
0000
,  // measure 11
0010
0000
1000
0000
0010
0000
0100
0001
0000
0001
0100
0000
0010
0000
1000
0000
,  // measure 12
0001
0000
0010
0001
0010
0000
0100
0000
0010
0001
0010
0000
0001
0000
1000
0000
,  // measure 13
0010
0000
0100
0000
0001
0000
1000
0100
0000
0100
0010
0000
0001
0000
0100
0000
,  // measure 14
1000
0100
0010
0001
0000
0001
0010
1000
,  // measure 15
0100
0000
0110
0000
0110
0000
0110
0010
,  // measure 16
0001
0000
1000
0010
1000
0000
0001
0000
0010
0001
0010
0000
0001
0000
1000
0000
,  // measure 17
0010
0000
0100
0000
0010
0000
1000
0100
0000
0010
0001
0000
0010
0000
0100
0000
,  // measure 18
0001
0100
0010
0001
0000
0001
0100
0000
,  // measure 19
0010
0000
0100
0000
0001
0000
0100
0001
0000
1000
0100
0000
1000
0000
0100
0000
,  // measure 20
1000
0000
0010
1000
0000
0000
0010
1000
0000
1000
0001
0000
0010
0000
0100
0000
,  // measure 21
1000
0000
0100
1000
0000
0000
1000
0100
0000
0100
1000
0000
0001
0000
0100
0000
,  // measure 22
0010
0000
1000
0010
0000
0000
0100
0001
0000
0001
0100
0000
0001
0000
0000
0000
,  // measure 23
0001
0010
0001
0010
0100
0010
0100
1000
0100
0000
1000
0000
0100
0000
0010
0000
,  // measure 24
0001
0000
0001
0100
0000
0010
1000
0100
,  // measure 25
0010
0000
0001
0100
0000
0010
1000
0100
,  // measure 26
1000
0010
0001
0010
1000
0100
1000
0001
,  // measure 27
0010
0100
0010
0001
1000
0010
0100
0001
,  // measure 28
1000
0000
1000
0100
0000
0010
0001
0100
,  // measure 29
0010
0000
1000
0100
0000
0010
0001
0100
,  // measure 30
0101
0101
0000
1001
0000
1100
1100
1100
,  // measure 31
1001
0000
1001
0000
1001
0001
0100
0010
,  // measure 32
1000
0000
0001
0010
0000
1000
0010
0001
,  // measure 33
0100
0000
1000
0100
0000
0001
1000
0100
,  // measure 34
0001
0000
0100
0000
0010
0100
1000
0001
1000
0010
0100
0010
1000
0001
0100
0010
,  // measure 35
1000
0000
0000
0000
0000
0000
0000
0000
1000
0100
0000
0100
0010
0000
0000
0010
0000
0100
0000
0000
0100
1000
0000
1000
,  // measure 36
0001
0000
0001
1000
0000
0010
0000
0000
0010
0100
0000
0100
0010
0000
0000
1000
0000
0000
0001
0000
0010
0000
0000
0110
,  // measure 37
0000
0000
1000
0000
0100
0010
0001
1000
1001
0000
0000
0000
1000
0000
1100
0000
,  // measure 38
0000
1000
0001
0100
0110
0000
0100
0101
,  // measure 39
0000
0001
0100
1000
0100
0010
1000
0100
,  // measure 40
0001
0100
0010
0001
0010
0001
1000
0010
,  // measure 41
0100
0010
1000
0001
1001
0000
0001
0011
,  // measure 42
0000
0001
1000
0010
1010
0000
1000
1100
,  // measure 43
0000
0000
1000
0010
1010
1010
0000
1001
,  // measure 44
0000
0011
0011
0011
1001
0000
1001
0000
,  // measure 45
1001
0001
0100
0010
1000
0000
0001
0001
,  // measure 46
0000
1000
0010
0100
0001
0000
1000
1000
,  // measure 47
0000
0000
0001
0000
0010
0000
0100
0000
1000
0000
0010
0000
1000
0010
0100
0001
,  // measure 48
0100
0000
0000
0001
0000
0000
0010
0000
0000
0100
0000
0000
1000
0000
0000
0100
0000
0000
0010
0000
0000
0001
0000
0000
1000
0000
0000
0000
0000
0000
0000
0000
0000
0000
0000
0000
0000
0000
0000
0000
0001
0000
0100
0000
0000
0000
0100
0000
,  // measure 49
0010
0000
0000
0010
0000
1000
0000
0000
1000
0001
0000
1000
0100
0000
0010
0001
0000
1000
0000
0000
0010
1000
0000
0001
,  // measure 50
0100
0000
0000
0010
0000
0000
1000
0000
0010
0000
0000
1000
0010
0000
0000
0000
0000
0000
0101
0000
0000
0000
0000
0000
,  // measure 51
0201
0000
0310
0200
0000
0301
0200
0000
,  // measure 52
0310
1000
0010
0001
0010
1000
0100
0010
,  // measure 53
0002
0000
1003
0002
0000
0103
0002
0000
,  // measure 54
0013
0100
0010
0001
1000
0010
0001
0010
,  // measure 55
2000
0000
3001
2000
0000
3010
2000
0000
,  // measure 56
3001
0100
1000
0100
0010
1000
0100
0010
,  // measure 57
0110
0110
0110
0000
0000
0000
0110
0000
,  // measure 58
1001
0000
0001
0001
0001
0000
0001
0000
,  // measure 59
1020
0000
0130
0020
0000
1030
0020
0000
,  // measure 60
1030
0100
0001
0100
1000
0001
0010
0001
,  // measure 61
2000
0000
3001
2000
0000
3100
2000
0000
,  // measure 62
3100
1000
0001
0100
0010
0100
0001
1000
,  // measure 63
0001
0010
0100
0010
0000
0110
0000
1000
,  // measure 64
0010
0100
0010
1000
0000
0010
1000
0100
,  // measure 65
1100
0000
0110
0000
0011
0001
0000
0100
,  // measure 66
0001
0000
1001
1001
1001
0000
1001
0000
,  // measure 67
0002
0103
0010
0002
0013
0100
0002
0013
,  // measure 68
0100
0001
0100
0010
0001
1000
0100
1000
,  // measure 69
0020
0130
0001
0020
0130
1000
0020
0130
,  // measure 70
0010
1000
0100
1000
0001
0001
0100
0010
,  // measure 71
2000
3100
0010
2000
3010
0100
2000
3010
,  // measure 72
0100
0001
0100
0010
1000
0010
0100
0001
,  // measure 73
1001
1001
1001
0000
0000
0000
1001
0000
,  // measure 74
0110
0000
1000
1000
1000
0000
1000
0000
,  // measure 75
2000
3100
0010
2000
3010
0100
2000
3010
,  // measure 76
0100
1000
0100
0010
1000
0001
0100
0001
,  // measure 77
0020
0130
1000
0020
0130
0001
0020
0130
,  // measure 78
0010
0001
0100
0001
1000
1000
0100
0010
,  // measure 79
0001
0100
0010
0100
0000
0110
0000
0001
,  // measure 80
0010
0100
0110
0000
1100
0000
1001
0000
,  // measure 81
0001
0100
0001
0100
0001
1000
0001
1000
0100
1000
0100
1000
0100
0010
0100
0010
,  // measure 82
0100
0110
1001
0000
;

//---------------dance-single - ----------------
#NOTES:
     dance-single:
     Easy:
     Easy:
     5:
     0.322583,0.452792,0.250898,0.031362,0.000000,288.000000,256.000000,32.000000,4.000000,0.000000,0.000000,0.322583,0.452792,0.250898,0.031362,0.000000,288.000000,256.000000,32.000000,4.000000,0.000000,0.000000:
0000
0000
0000
0000
,
0000
0000
0000
0000
,
1000
0100
1000
0000
0001
0100
0001
0000
,
1000
0010
1000
0000
0001
0010
0001
0000
,
1001
0000
0000
0000
,
1001
0000
0000
0000
,
1001
0000
0110
0000
,
1001
0110
1001
0000
,
0001
0100
0001
1000
,
0100
1000
0001
0010
,
0001
1000
0000
1000
,
0010
1000
0100
0000
,
1000
0010
1000
0001
,
0010
0001
0100
0010
,
1000
0100
0000
0100
,
0010
0110
0000
0000
,
1000
0010
0100
0010
,
1000
0100
0010
0001
,
1000
0010
0000
0010
,
0100
0001
0010
0000
,
0001
0001
0100
0010
,
1000
1000
0100
0010
,
0001
0001
0100
0010
,
0110
0000
1001
0000
,
1000
1000
1000
0000
,
0001
0001
0001
0000
,
0100
0010
1000
0100
,
0010
0001
0100
0010
,
1000
1000
1000
0000
,
0001
0001
0001
0000
,
1001
0000
0000
1001
0000
0000
0000
0000
,
0110
0000
0110
0000
,
0002
0000
0003
1000
,
2000
0000
3000
0010
,
0100
0100
0010
0010
,
0110
0000
0000
0000
0010
0100
0001
0000
,
0010
0100
1000
0000
0001
0100
0010
1000
,
0100
0000
0010
0100
0010
0000
0000
0010
,
0000
0000
0010
0000
0001
0000
0000
0001
,
0000
0001
0100
1000
,
0100
0001
0100
0010
,
1000
0000
0100
0000
1000
0000
0000
1000
,
0000
0000
0010
0000
0100
0000
0000
0100
,
0000
0000
0001
0000
0101
0000
0000
1001
,
0000
0000
1100
0000
,
1100
0000
2000
0000
,
3000
0001
0002
0000
,
0003
0100
0010
1000
,
0001
0010
0011
0000
,
0010
0001
0100
0000
0010
1000
0001
0000
,
0010
0001
1000
0010
0100
0000
0110
0000
,
1000
0000
0000
0001
0000
0000
1000
0000
,
0000
0100
0010
0100
,
1000
0000
0000
0001
0000
0000
1000
0000
,
0000
0010
0100
0010
,
1000
0000
0000
0001
0000
0000
1000
0000
,
0000
0100
1000
0010
,
1010
0000
0000
0110
,
0110
0000
0000
0000
,
0001
0000
0000
1000
0000
0000
0001
0000
,
0000
0010
0100
0010
,
0001
0000
0000
1000
0000
0000
0001
0000
,
0000
0100
0010
0100
,
0001
0001
0001
0000
,
1000
1000
1000
0000
,
0010
0010
0100
0000
,
0110
1001
0000
0000
,
1000
0000
0000
0010
0000
0000
1000
0000
,
0000
0001
0010
0100
,
0010
0000
0000
0001
0000
0000
0010
0000
,
0000
0001
0100
0010
,
1000
0000
0000
0010
0000
0000
1000
0000
,
0000
0010
0100
0001
,
0101
0000
0000
1001
,
1001
0000
0000
0000
,
1000
0000
0000
0100
0000
0000
1000
0000
,
0000
0001
0100
0010
,
0100
0000
0000
0001
0000
0000
0100
0000
,
0000
0010
1000
0001
,
0010
0010
0010
0000
,
0100
0100
0100
0100
,
1000
0001
1000
0001
,
1001
0110
1001
0000
;

//---------------dance-single - ----------------
#NOTES:
     dance-single:
     Normal:
     Medium:
     8:
     0.555559,0.711530,0.203854,0.023522,0.070565,496.000000,470.000000,26.000000,3.000000,0.000000,0.000000,0.555559,0.711530,0.203854,0.023522,0.070565,496.000000,470.000000,26.000000,3.000000,0.000000,0.000000:
0000
0000
0000
0000
,
0000
0000
0000
0000
,
0001
0000
0000
0010
0000
0001
0100
0000
0000
0010
0000
0000
1000
0000
0000
0100
0000
0000
1000
0000
0100
1000
0000
1000
,
0010
0000
0010
0100
0000
0010
0000
0000
0100
0001
0000
0000
0010
0000
0000
0001
0000
0000
1000
0000
0000
0010
0000
0000
,
0100
0010
0100
0010
0000
0010
1000
0001
,
1000
0100
0010
0100
0000
0100
1000
0001
,
0100
0010
0100
0001
0000
0001
1000
0000
,
1001
1100
0011
0000
,
0001
0100
0001
0100
0010
1000
0100
1000
,
0100
0010
0001
1000
0010
0100
0010
0100
,
0001
1000
0100
0010
0000
0010
0100
0000
,
1000
0000
0000
0000
0100
0000
0000
0100
1000
0000
0010
0000
0100
0000
0001
0000
,
1000
0100
1000
0100
0010
0001
0100
0001
,
0100
0010
1000
0001
0010
0100
0010
0001
,
0100
0010
1000
0001
0000
0001
0100
1000
,
0100
0110
0101
1010
,
1000
0100
1000
0100
0010
0001
0100
0001
,
0100
0010
1000
0001
0010
0100
0010
0100
,
1000
0001
0100
0010
0000
0010
0100
0000
,
0001
0000
0000
0000
0100
0000
0000
0100
0001
0000
0010
0000
0100
0000
1000
0000
,
0001
0100
0010
1000
0000
1000
0001
1000
,
0100
0010
0001
1000
0000
1000
0010
0100
,
0001
0100
0010
1000
0000
1000
0001
0000
,
0201
0000
1000
0000
0301
0000
0001
1000
,
0100
0000
0100
1000
0000
1000
0100
1000
,
0100
0000
0100
0010
0000
0010
0001
0100
,
0010
1000
0010
0000
0100
0010
0100
0000
,
0001
0100
1000
0100
0001
0000
1000
0000
,
0100
0000
1000
0001
0000
0001
0100
0001
,
0100
0000
0100
0010
0000
0000
0010
0100
,
0010
0010
0000
0010
0000
0010
0100
0001
,
1000
0000
1100
0000
0011
0000
0001
0010
,
1000
0000
1000
0010
0000
0001
1000
0010
,
0001
0000
0001
0010
0000
0010
1000
0001
,
0010
0100
0020
0000
0000
0000
0000
0030
,
0110
0000
0000
0000
0000
0000
0000
0000
0000
0100
0000
0000
1000
0000
0000
0001
0000
0000
0100
0000
0010
0100
0000
0100
,
0010
0000
0000
1000
0000
0000
0100
0000
0000
0010
0000
0010
0001
0000
0000
0100
0000
0000
0001
0000
1000
0000
0000
0100
,
0000
0010
0100
0010
0001
0000
0001
0100
,
0000
1000
0100
0001
0100
0000
0010
1000
,
0000
1000
0001
0010
0100
1000
0100
0000
,
0010
0001
0010
0000
0001
0010
1000
0010
,
0001
0000
1000
0000
0001
0000
0001
0010
,
0000
1000
0010
0001
0010
0000
0010
0100
,
0000
0000
1000
0100
1000
0001
0000
1100
,
0000
1000
0100
0010
0001
0000
0101
0000
,
1010
0000
0101
0000
0001
0000
0010
1000
,
0000
1000
0010
0001
0010
0000
0100
1000
,
0000
1000
0010
1000
0010
0100
0020
0000
,
0000
0000
0000
0030
0110
0000
0000
0000
,
0010
0000
0000
1000
0000
0000
0100
0000
0000
1000
0000
1000
0010
0000
0010
0100
0000
0001
0000
0000
0000
0010
0000
0000
,
0001
0000
0000
0100
0000
0000
0010
0000
0100
0000
0000
0010
0000
0000
0000
0000
0000
0000
0110
0000
0000
0000
0000
0000
,
1000
0000
1000
0100
0000
0100
0010
0000
,
0010
0001
0100
0010
,
0100
0000
0100
0001
0000
0001
0010
0000
,
0010
0100
1000
0010
,
0100
0000
0100
0001
0000
0001
1000
0000
,
0100
1000
0010
0100
,
0010
0100
0010
0000
0000
0000
0110
0000
,
1001
0000
1000
0001
1000
0000
0010
0000
,
1000
0000
0001
0010
0000
0010
0001
0000
,
0100
0010
0100
0001
,
0010
0000
0010
0100
0000
0100
1000
0000
,
0100
0010
0001
1000
,
0001
0100
0001
0010
0000
0100
0000
1000
,
0010
1000
0010
0100
0000
0001
0100
0001
,
0010
0000
0100
0000
0010
0100
0000
0010
,
0000
0000
0001
1000
0001
0000
0100
0000
,
0010
0000
0010
1000
0000
0001
0100
0000
,
0001
0100
0010
0000
1000
0010
0100
0000
,
0010
0000
1000
0100
0000
0010
0001
0000
,
0001
1000
0100
0000
0010
0001
1000
0000
,
1000
0000
0010
0100
0000
0001
1000
0000
,
0100
0010
0100
0000
0100
1000
0001
0000
,
0100
0001
0100
0000
0000
0000
0101
0000
,
1010
0000
0100
0001
0100
0000
0010
0000
,
1000
0000
0100
0001
0000
0100
1000
0000
,
0001
0100
0010
0000
0100
0001
1000
0000
,
0010
0000
0100
1000
0000
0100
0001
0000
,
0010
0001
1000
0000
0010
0100
0001
0000
,
0010
0100
0010
0001
0000
1000
0000
0010
,
0100
0110
0101
1010
,
1000
0000
0001
0000
0010
0100
0000
0000
,
0110
1100
0011
0000
;
