#TITLE:Take On Me;
#SUBTITLE:;
#ARTIST:Reel Big Fish;
#TITLETRANSLIT:;
#SUBTITLETRANSLIT:;
#ARTISTTRANSLIT:;
#GENRE:Ska Punk;
#CREDIT:;
#BANNER:Take On Me.png;
#BACKGROUND:Take On Me-bg.png;
#LYRICSPATH:;
#CDTITLE:;
#MUSIC:Take On Me.ogg;
#OFFSET:-0.131000;
#SAMPLESTART:37.373001;
#SAMPLELENGTH:18.016001;
#SELECTABLE:YES;
#BPMS:0.000000=205.000000
,16.000000=207.000000
,32.000000=201.000000
,40.000000=204.000000
,48.000000=206.000000
,56.000000=205.000000
,64.000000=204.000000
,68.000000=203.000000
,76.000000=209.000000
,80.000000=206.000000
,120.000000=208.000000
,128.000000=206.000000
,144.000000=204.000000
,156.000000=228.000000
,160.000000=223.000000
,168.000000=218.000000
,176.000000=216.000000
,192.000000=213.000000
,208.000000=210.000000
,216.000000=213.000000
,232.000000=209.000000
,240.000000=203.000000
,256.000000=205.000000
,264.000000=211.000000
,268.000000=223.000000
,272.000000=216.000000
,288.000000=215.000000
,300.000000=220.000000
,304.000000=218.000000
,316.000000=226.000000
,320.000000=215.000000
,328.000000=211.000000
,336.000000=218.000000
,340.000000=215.000000
,348.000000=214.000000
,352.000000=216.000000
,356.000000=214.000000
,360.000000=212.000000
,365.000000=182.000000
,366.000000=165.000000
,367.000000=152.000000
,368.000000=134.000000
;
#STOPS:
;
#BGCHANGES:;
#KEYSOUNDS:;
#ATTACKS:;

//---------------dance-single - ----------------
#NOTES:
     dance-single:
     :
     Beginner:
     2:
     0.132064,0.223813,0.016218,0.227057,0.000000,114.000000,112.000000,2.000000,28.000000,0.000000,0.000000,0.132064,0.223813,0.016218,0.227057,0.000000,114.000000,112.000000,2.000000,28.000000,0.000000,0.000000:
// measure 0
0000
0000
0000
0000
,  // measure 1
0000
0000
0000
0000
,  // measure 2
0000
0000
0000
0000
,  // measure 3
0000
0000
0000
0000
,  // measure 4
0200
0000
0000
0000
,  // measure 5
0000
0000
0000
0000
,  // measure 6
0300
0000
0000
0000
,  // measure 7
0000
0000
0000
0000
,  // measure 8
0001
0000
0000
0000
,  // measure 9
1000
0000
0000
0000
,  // measure 10
0010
0000
0010
0000
,  // measure 11
0010
0010
0010
0000
,  // measure 12
0100
0000
0000
0000
,  // measure 13
0100
0000
0000
0000
,  // measure 14
0010
0000
0000
0000
,  // measure 15
0010
0000
0000
0000
,  // measure 16
0001
0000
0000
0000
,  // measure 17
0001
0000
0000
0000
,  // measure 18
1000
0000
0000
0000
,  // measure 19
1000
0000
0000
0000
,  // measure 20
2002
0000
0000
0000
,  // measure 21
3003
0000
0000
0000
,  // measure 22
0010
0000
0010
0000
,  // measure 23
0000
0100
0100
0000
,  // measure 24
1000
0000
1000
0000
,  // measure 25
1000
0000
0000
0000
,  // measure 26
0001
0000
0001
0000
,  // measure 27
1000
0000
1000
0000
,  // measure 28
0000
0000
0010
0000
,  // measure 29
0010
0000
0000
0000
,  // measure 30
0000
1000
1000
0000
,  // measure 31
0001
0000
0001
0000
,  // measure 32
0200
0000
0300
0000
,  // measure 33
0200
0000
0300
0000
,  // measure 34
0200
0000
0300
0000
,  // measure 35
0010
0000
0001
0000
,  // measure 36
0020
0000
0030
0000
,  // measure 37
0020
0000
0030
0000
,  // measure 38
0020
0000
0030
0000
,  // measure 39
1000
0000
0100
0000
,  // measure 40
2000
0000
3000
0000
,  // measure 41
2000
0000
3000
0000
,  // measure 42
2000
0000
3000
0000
,  // measure 43
0001
0000
0100
0000
,  // measure 44
0002
0000
0003
0000
,  // measure 45
0002
0000
0003
0000
,  // measure 46
0002
0000
0003
0000
,  // measure 47
0002
0000
0003
0000
,  // measure 48
0100
0000
0100
0000
,  // measure 49
0000
0000
0000
0000
,  // measure 50
1000
0000
1000
0000
,  // measure 51
0000
0010
0010
0000
,  // measure 52
0100
0000
0100
0000
,  // measure 53
0100
0000
0000
0000
,  // measure 54
1000
0000
1000
0000
,  // measure 55
0001
0000
0001
0000
,  // measure 56
0000
0000
0010
0010
,  // measure 57
0000
0000
0000
0000
,  // measure 58
0000
0000
0100
0000
,  // measure 59
0100
0000
0100
0000
,  // measure 60
2000
0000
3000
0000
,  // measure 61
2000
0000
3000
0000
,  // measure 62
2000
0000
3000
0000
,  // measure 63
0001
0000
0010
0000
,  // measure 64
0002
0000
0003
0000
,  // measure 65
0002
0000
0003
0000
,  // measure 66
0002
0000
0003
0000
,  // measure 67
0100
0000
0010
0000
,  // measure 68
0200
0000
0300
0000
,  // measure 69
0200
0000
0300
0000
,  // measure 70
0200
0000
0300
0000
,  // measure 71
0010
0000
1000
0000
,  // measure 72
0020
0000
0030
0000
,  // measure 73
0020
0000
0030
0000
,  // measure 74
0020
0000
0030
0000
,  // measure 75
0010
0000
0010
0000
,  // measure 76
1000
0000
0000
0000
,  // measure 77
1000
0000
0000
0000
,  // measure 78
0001
0000
0000
0000
,  // measure 79
0001
0000
0000
0000
,  // measure 80
0010
0000
0000
0000
,  // measure 81
0010
0000
0000
0000
,  // measure 82
0100
0000
0000
0000
,  // measure 83
0100
0000
0000
0000
,  // measure 84
0010
0000
0010
0000
,  // measure 85
0010
0000
0000
0000
,  // measure 86
1000
0000
1000
0000
,  // measure 87
1000
0000
0000
0000
,  // measure 88
0100
0000
0100
0000
,  // measure 89
0100
0000
0000
0000
,  // measure 90
0001
0000
0001
0000
,  // measure 91
0001
0000
0000
0000
,  // measure 92
1001
0000
0000
0000
;

//---------------dance-single - ----------------
#NOTES:
     dance-single:
     :
     Easy:
     3:
     0.179560,0.272469,0.040546,0.308149,0.000000,155.000000,150.000000,5.000000,38.000000,0.000000,0.000000,0.179560,0.272469,0.040546,0.308149,0.000000,155.000000,150.000000,5.000000,38.000000,0.000000,0.000000:
0000
0000
0000
0000
,
0000
0000
0000
0000
,
0000
0000
0000
0000
,
0000
0000
0000
0000
,
2000
0000
0000
0000
,
0000
0000
3000
0000
,
0002
0003
2000
3000
,
0200
0000
0000
0300
,
0020
0000
0030
0000
,
0200
0000
0300
0000
,
0001
0000
1000
0000
,
0001
0001
0001
0001
,
0100
0000
0100
0000
,
0010
0000
0100
0010
,
1000
0000
1000
0000
,
0001
0000
1000
0001
,
0010
0000
0010
0000
,
0001
0000
0010
0001
,
0100
0000
0100
0000
,
1000
0000
0100
1000
,
0020
0000
1000
1000
,
0000
0030
0000
0000
,
0001
0000
0001
0000
,
0000
0010
0100
0010
,
0200
0000
0001
0000
,
0001
0000
0300
0000
,
1000
0000
0010
0000
,
1000
0000
0001
1000
,
0002
0000
0100
0100
,
0000
0003
0000
0000
,
0010
0000
0001
0000
,
1000
0000
1001
0000
,
0020
0000
0030
0000
,
0200
0000
0300
0000
,
0020
0000
0030
0000
,
1000
0000
1000
0000
,
0002
0000
0003
0000
,
2000
0000
3000
0000
,
0002
0000
0003
0000
,
0100
0000
0100
0000
,
0020
0000
0030
0000
,
2000
0000
3000
0000
,
0020
0000
0030
0000
,
0001
0000
0001
0000
,
2002
0000
0003
0000
,
0020
0000
0030
0000
,
0200
0000
0300
0000
,
0002
0000
3003
0000
,
0020
0000
1000
1000
,
0000
0030
0000
0000
,
0100
0000
0010
0000
,
0000
0100
0100
0000
,
2000
0000
0001
0000
,
0001
0000
3000
0000
,
0010
0000
0100
0000
,
0010
1000
0010
0000
,
0200
0000
0001
0001
,
0000
0300
0000
0000
,
1000
0000
0010
0000
,
0100
0000
0110
0000
,
2000
0000
3000
0000
,
0200
0000
0300
0000
,
2000
0000
3000
0000
,
0010
0000
0010
0000
,
0020
0000
0030
0000
,
0002
0000
0003
0000
,
0020
0000
0030
0000
,
0100
0000
0100
0000
,
2000
0000
3000
0000
,
0002
0000
0003
0000
,
2000
0000
3000
0000
,
0010
0000
0010
0000
,
0200
0000
0300
0000
,
0020
0000
0030
0000
,
0002
0000
0003
0000
,
1000
0000
1000
0000
,
0010
0000
0100
0000
,
0010
0000
0010
0000
,
0001
0000
1000
0000
,
0001
0000
0001
0000
,
0100
0000
0010
0000
,
1000
0000
0010
0000
,
0001
0000
0100
0000
,
0010
0000
0100
0000
,
0001
0000
0001
0000
,
1000
0000
1000
0000
,
0001
0000
0010
0000
,
0100
0000
1000
0000
,
0010
0000
0010
0000
,
0100
0000
0100
0000
,
0001
0000
1000
0000
,
0010
0000
0100
0000
,
1001
0000
0000
0000
,
0000
0000
0000
0000
,
0000
0000
0000
0000
,
0000
0000
0000
0000
,
1001
0000
0000
0000
;

//---------------dance-single - ----------------
#NOTES:
     dance-single:
     :
     Medium:
     6:
     0.272237,0.506013,0.040546,0.291931,0.000000,235.000000,230.000000,5.000000,36.000000,0.000000,0.000000,0.272237,0.506013,0.040546,0.291931,0.000000,235.000000,230.000000,5.000000,36.000000,0.000000,0.000000:
0000
0000
0000
0000
,
0000
0000
0000
0000
,
0000
0000
0000
0000
,
0000
0000
0000
0000
,
0020
0000
0000
0000
,
0000
0000
0000
0030
,
0001
0000
0000
1000
0000
0000
0200
0000
,
0000
0000
0000
0300
,
0001
0100
0000
1000
,
0000
0100
0000
0001
,
2000
3000
0002
0003
,
0010
0010
0100
0100
,
1001
0000
0001
0100
0000
0010
0000
1000
,
0000
0010
0000
0100
0010
0000
1000
0000
,
0100
0000
1000
0100
0000
1000
0000
0001
,
0000
1000
0000
0010
0100
0000
0001
0000
,
0100
0000
0010
0100
0000
1000
0000
0010
,
0000
1000
0000
0001
0010
0000
1000
0000
,
0010
0000
1000
0001
0000
0010
0000
0100
,
0000
0010
0000
1000
0100
0000
1000
0000
,
0020
0000
0000
0100
0000
0000
0100
0000
,
0000
0030
0000
0000
0000
0000
0000
0000
,
1000
0000
0000
0001
0000
1000
0000
0000
,
0000
0100
0000
0000
1000
0000
0100
0000
,
2000
0000
0000
0000
0001
0000
0000
0001
,
0000
3000
0000
0000
,
0010
0000
0000
0100
0000
0010
0000
0001
,
0000
0010
0000
0000
1000
0000
0100
0000
,
0000
0000
0000
2000
0000
0000
0010
0000
,
0010
3000
0000
0000
,
0000
1000
0001
1000
,
0100
0100
0010
0100
,
2000
0000
0000
0000
,
3200
0000
0000
0000
0000
0000
0000
0320
,
0000
0000
0000
0030
,
0001
0000
0000
1000
0000
0000
0001
0000
,
0200
0000
0000
0000
,
2300
0000
0000
0000
0000
0000
0000
3002
,
0000
0000
0000
0003
,
0010
0000
0000
0100
0000
0000
0010
0000
,
2000
0000
0000
0000
,
3002
0000
0000
0000
0000
0000
0000
0023
,
0000
0000
0000
0000
,
0030
0000
0100
1000
0000
0100
0010
0000
,
0000
0220
0000
0000
,
0000
0000
0000
0000
,
0000
0000
0000
0000
,
0000
0000
0000
0330
0000
1001
0000
0000
,
0200
0000
0000
1000
0000
0000
1000
0000
,
0000
0300
0000
0000
0000
0000
0000
0000
,
0001
0000
0000
0010
0000
0000
0001
0000
,
0000
0100
0010
0001
,
2000
0000
0000
0000
0010
0000
0000
0010
,
0000
3000
0000
0000
0000
0000
0000
0000
,
1000
0000
0000
1000
0000
0000
0010
0000
,
0100
0010
0001
0000
,
0020
0000
0000
0100
0000
0000
0100
0000
,
0000
0030
0000
0000
0000
0000
0000
0000
,
0000
0001
0010
0001
,
1000
0000
0000
0100
0000
0000
0001
0000
,
0020
0000
0000
0000
,
2030
0000
0000
0000
0000
0000
0000
3002
,
0000
0000
0000
0003
,
0100
0000
0000
0010
0000
0000
0100
0000
,
0002
0000
0000
0000
,
0203
0000
0000
0000
0000
0000
0000
0320
,
0000
0000
0000
0030
,
0100
0000
0000
1000
0000
0000
0100
0000
,
2000
0000
0000
0000
,
3020
0000
0000
0000
0000
0000
0000
0230
,
0000
0000
0000
0300
,
0001
0000
0000
1000
0000
0000
0001
0000
,
0010
0100
0000
0100
,
1000
0100
0000
0100
,
0001
0100
0000
0100
,
0010
0000
0000
1000
0000
0000
0001
0000
,
0100
0100
0010
0100
,
1000
1000
0010
1000
,
0001
0001
1000
1000
,
0010
1000
0100
0001
,
0100
0010
0100
0000
0010
0100
0010
0000
,
1000
0001
1000
0000
0001
1000
0001
0000
,
2000
0000
0000
3020
0000
0000
0230
0000
,
0301
1000
0010
0100
,
1000
1000
0001
0001
,
0100
0100
0010
0010
,
1000
1000
0001
1000
,
0010
0100
0020
0030
,
1000
0100
1000
0000
0001
0000
0100
0000
,
0010
0001
0010
0000
0100
0000
1000
0000
,
0100
0001
0100
0000
0010
1000
0010
0000
,
0100
0001
0010
1000
,
2002
0000
0000
0000
,
0000
3003
0000
0000
0000
0000
0000
0000
,
0000
0000
0000
0000
,
0000
0000
0000
0000
,
0110
0000
0000
0000
;

//---------------dance-single - ----------------
#NOTES:
     dance-single:
     :
     Hard:
     8:
     0.407776,0.700633,0.145965,0.308149,0.000000,352.000000,334.000000,18.000000,38.000000,0.000000,0.000000,0.407776,0.700633,0.145965,0.308149,0.000000,352.000000,334.000000,18.000000,38.000000,0.000000,0.000000:
0000
0000
0000
0000
,
0000
0000
0000
0000
,
0000
0000
0000
0000
,
0000
0000
0000
0000
,
2002
0000
0000
0000
,
0000
0000
0000
3003
,
0002
0000
0000
2003
0000
0000
3200
0000
,
0000
0000
0000
0300
,
2000
0010
0000
0010
,
0000
0010
0000
3010
,
0110
0000
1001
0000
,
0011
1010
1100
0101
,
1000
0010
0100
0001
0000
0100
0000
0010
,
0000
1000
0000
0010
0100
0001
0010
0001
,
0100
0010
1000
0001
0000
1000
0000
0100
,
0000
1000
0000
0001
1000
0010
0100
0010
,
1000
0001
0010
0100
0000
0010
0000
0001
,
0000
0010
0000
0100
0010
0001
1000
0001
,
0010
0100
1000
0001
0000
0100
0000
0010
,
0000
0100
0000
0001
1000
0001
0100
0010
,
2000
0000
0000
3001
0000
0001
0100
0000
,
0000
0000
0000
0000
,
0010
1000
0000
0010
0000
0100
0000
0000
,
0000
1001
0000
0100
0001
0000
0010
0000
,
0002
0000
0000
1003
0100
1000
0000
0010
,
0000
0000
0000
0000
0000
0000
0000
0100
,
0010
0000
0100
0001
0000
1000
0000
0010
,
0000
0100
0000
0001
1000
0000
0100
0000
,
0000
0000
0000
0120
0000
1030
0100
1000
,
0000
0000
0000
0000
,
0000
0000
0001
1000
0001
0100
0010
0100
,
0001
1000
0000
0000
0100
0010
0000
0000
,
2020
0000
0000
3000
,
0200
0000
0000
0000
0030
0000
0000
0002
,
0000
0000
0000
0300
,
1003
0000
0000
0010
0000
0010
1000
0000
,
2200
0000
0000
0300
,
0002
0000
0000
0000
0000
0000
3000
0020
,
0000
0000
0000
0003
,
0130
0000
0000
1000
0000
1000
0100
0000
,
0020
0001
0000
0031
,
2000
0000
0010
0000
0000
0000
3010
0200
,
0000
0001
0000
0001
,
0310
0000
1000
0100
0000
0100
1000
0000
,
0001
0201
0000
0001
,
0000
0010
0000
0010
,
0000
1000
0000
1000
,
0000
0000
0010
0000
0300
1001
0000
0000
,
0200
0000
0000
0310
0000
1000
0010
0000
,
0000
0000
0000
0000
0000
0000
0000
0100
,
0010
0000
1000
0001
0000
1000
0100
0000
,
0000
0010
0010
0000
0001
0000
0010
0000
,
0200
0000
0000
1300
0001
1000
0000
0010
,
0000
0000
0000
0000
,
1000
0000
0010
1000
0000
0100
0010
0100
,
0000
1000
0001
0000
0010
0000
0000
0000
,
2100
0000
0000
3001
0000
0001
0010
0000
,
0000
0000
0000
0000
,
0000
0000
0100
0010
0100
1000
0001
1000
,
0010
0000
0100
0001
0000
0010
0000
0000
,
0220
0000
0000
0030
,
2000
0000
0000
0000
0000
0000
0300
0002
,
0000
0000
0000
3000
,
0013
0000
0000
0100
0000
0100
0010
0000
,
0202
0000
0000
0003
,
0020
0000
0000
0000
0000
0000
0300
2000
,
0000
0000
0000
0030
,
3001
0000
0000
0010
0000
0010
0001
0000
,
0200
0010
0000
0310
,
2000
0000
0001
0000
0000
0000
3001
0020
,
0000
0100
0000
0130
,
1000
0000
0010
1000
0000
1000
0010
0000
,
0100
0000
0001
0000
0000
0100
0010
0000
,
1000
0000
0001
0000
0000
1000
0100
0000
,
0010
0000
0100
0000
0000
0010
0001
0000
,
1000
0000
0001
0010
0000
0010
0001
0000
,
0100
0000
0100
0000
0010
0100
0010
0000
,
1000
0000
1000
0000
0001
1000
0001
0000
,
0010
0001
0010
0000
0010
1000
0010
0000
,
0100
0001
0100
0010
1000
0100
0010
0000
,
0001
0010
0001
1000
0100
1000
0100
0010
,
0001
1000
0100
1000
0010
0100
0001
1000
,
0100
0000
0100
0010
0000
0001
0000
1000
,
0001
0100
0010
0100
0001
1000
0100
0000
,
1000
0001
1000
0000
1000
0001
1000
0000
,
0010
0100
0010
0100
0000
0001
0100
0001
,
0000
1000
0100
1000
0000
0100
0010
0100
,
1000
0001
0010
0200
0000
0010
0310
0000
,
0001
0010
0100
0000
1000
0100
0010
0000
,
0001
1000
0100
0000
0010
0001
1000
0000
,
0001
0001
0100
0100
0010
0010
1000
1000
,
0100
1000
0010
0100
0001
0010
0100
1000
,
2002
0000
0000
0000
,
0000
0000
0000
0000
,
0000
0000
0000
0000
,
0000
0000
0000
3003
,
1001
0000
0000
0000
;
