#TITLE:Spark;
#SUBTITLE:;
#ARTIST:BoA;
#TITLETRANSLIT:;
#SUBTITLETRANSLIT:;
#ARTISTTRANSLIT:;
#GENRE:K-POP;
#CREDIT:;
#BANNER:[Covered Up] - Spark.png;
#BACKGROUND:[Covered Up] - Spark-bg.png;
#LYRICSPATH:;
#CDTITLE:;
#MUSIC:[Covered Up] - Spark.ogg;
#OFFSET:-2.231000;
#SAMPLESTART:46.190460;
#SAMPLELENGTH:19.905800;
#SELECTABLE:YES;
#BPMS:0.000000=107.003998
;
#STOPS:
;
#BGCHANGES:;
#KEYSOUNDS:;
#ATTACKS:;

//---------------dance-single - ----------------
#NOTES:
     dance-single:
     :
     Easy:
     2:
     0.185288,0.303067,0.140019,0.257930,0.000000,176.000000,157.000000,19.000000,35.000000,0.000000,0.000000,0.185288,0.303067,0.140019,0.257930,0.000000,176.000000,157.000000,19.000000,35.000000,0.000000,0.000000:
0000
0000
0000
0000
,
0000
0000
0000
0000
,
0000
0000
0000
0000
,
0000
0000
0000
0000
,
1000
0001
1000
0000
,
0001
1000
0001
0100
,
0020
0000
0030
0000
,
0200
0000
0300
0001
,
0001
0000
0010
0100
,
0100
0000
1000
0010
,
2000
0000
3000
0000
,
0002
0000
0003
0000
,
1001
0000
0100
0100
,
0010
1000
0100
0100
,
0010
0100
1000
1000
,
0100
0010
0001
0001
,
1001
0000
0001
1000
,
0010
0010
0100
0001
,
2000
0000
3000
0000
,
0002
0000
0003
0000
,
2002
0000
3003
0000
,
0100
0010
0100
0000
,
0010
1000
0001
0010
,
0100
0010
0002
0000
,
1003
0000
0100
0100
,
0010
0000
0100
1000
,
1001
0000
0100
0000
,
0010
0010
0010
1000
,
2002
3000
0000
0000
,
0203
0000
0010
0310
,
2000
0000
3001
0001
,
0010
1000
0010
0001
,
0200
0320
2030
3001
,
2002
3003
0001
0010
,
0220
0330
0100
1000
,
0010
0010
0010
0000
0000
0000
0000
0000
,
0100
0100
0100
0000
0000
0000
0000
0000
,
0001
0001
0001
0000
0000
0000
0000
0000
,
2002
0000
3003
1000
,
2000
3000
0100
0010
,
0002
0000
0003
0010
,
0020
0030
0100
0100
,
0110
0000
1000
0000
,
1001
0000
0001
0100
,
0020
0000
0030
0000
,
2000
3100
0010
0001
,
2000
0100
0100
0010
,
3020
0001
0001
0100
,
0230
0001
0001
0010
,
0302
0010
2000
3003
,
1001
0000
1000
0100
,
0110
0000
0010
0001
,
1001
0000
0001
0000
,
1001
0110
1001
0110
,
1001
0001
0010
0010
,
0001
1000
0010
0010
,
0210
0000
0320
0000
,
1030
0001
0100
0010
,
2000
0000
0000
3000
;

//---------------dance-single - ----------------
#NOTES:
     dance-single:
     :
     Medium:
     4:
     0.324254,0.346362,0.250560,0.427426,0.000000,308.000000,274.000000,34.000000,58.000000,0.000000,0.000000,0.324254,0.346362,0.250560,0.427426,0.000000,308.000000,274.000000,34.000000,58.000000,0.000000,0.000000:
0000
0000
0000
0000
,
0000
0000
0000
0000
,
0000
0000
0000
0000
,
0000
0000
0000
0000
0000
0000
0001
0001
,
0001
0000
0100
0000
0010
0000
1000
1000
,
1000
0010
0100
0001
,
2002
0000
0000
3003
0000
0000
0001
0001
,
1002
0000
1000
1000
2003
0000
3100
0100
,
0210
0000
0310
0010
0010
0000
0001
0000
,
1000
0000
0100
0100
0101
0000
0010
0000
,
2000
0000
3200
0000
0320
0000
0031
0100
,
0020
2030
3002
0103
,
0120
0000
0100
0000
0130
0001
0100
0000
,
0010
0000
0010
0000
0010
1000
0010
0000
,
1000
0000
1000
0001
0100
0010
1000
0000
,
0001
0000
0001
1000
0010
0100
0001
0000
,
1002
0000
1000
0000
1003
0001
0100
0000
,
0001
0000
0010
0000
0100
1000
0001
0000
,
2000
0200
3300
0000
,
0020
0002
0033
0000
,
1002
0000
1003
0001
2000
0000
0010
0000
,
3010
0100
0010
0100
0010
0000
1000
0000
,
0100
0010
0001
0010
0100
0000
1000
0000
,
0010
0100
0001
1000
0200
0000
1300
0000
,
1001
0000
0101
0000
0010
1000
0100
0000
,
1001
0000
1100
0000
0010
0001
0100
0000
,
0120
0000
1000
0000
0100
0100
0130
0000
,
0001
1000
0100
0010
0001
0000
0011
0000
,
2000
0000
0000
0000
,
3002
0000
0100
0100
0103
0010
1000
0000
,
0200
0000
0010
0010
0310
0001
1000
0000
,
0100
0000
0001
0100
1000
0000
0001
0100
,
0020
2030
3002
0103
,
0120
0000
0100
0100
0130
0010
1000
0000
,
1002
0000
1000
1000
1003
0100
0010
0000
,
0001
0001
0001
0000
0100
0010
1000
0000
,
0010
0010
0010
0000
0100
0001
1000
0000
,
1001
1001
1002
0000
0000
0000
0203
0000
,
0320
0000
1000
0000
1030
0000
0100
0010
,
0002
0000
1003
0000
0001
0010
0100
0000
,
2000
0000
0010
0000
0001
0000
3010
0100
,
0020
1030
1100
0101
,
1002
0000
0100
0003
0010
1000
0100
0000
,
0210
0000
1300
0000
0001
0010
0100
0000
,
0210
0000
2300
0000
3002
0000
0103
0010
,
0200
0000
0010
0010
0010
0300
0110
0000
,
1002
0000
1003
0001
0200
0000
0310
1000
,
0020
0000
1030
0100
2000
0000
3100
0010
,
0002
0000
0013
0100
2000
0000
3010
0100
,
0010
1000
0001
1000
0002
0000
1003
0000
,
1002
0000
0203
0000
0310
1000
0100
0000
,
0210
0000
2300
0000
3001
0010
0100
0000
,
0210
0010
0010
0300
0001
0100
0010
0000
,
2000
3020
0230
0301
,
1001
0000
0101
0000
0010
1000
0100
0000
,
1001
0000
1100
0000
0010
0001
0100
0000
,
0120
0001
1000
0130
,
0100
0001
1000
0100
0010
0000
0110
0000
,
0002
0000
0000
0003
;

//---------------dance-single - ----------------
#NOTES:
     dance-single:
     :
     Hard:
     8:
     0.484276,0.519544,0.405318,0.449534,0.453219,460.000000,405.000000,55.000000,61.000000,0.000000,0.000000,0.484276,0.519544,0.405318,0.449534,0.453219,460.000000,405.000000,55.000000,61.000000,0.000000,0.000000:
// measure 0
0000
0000
0000
0000
,  // measure 1
0000
0000
0000
0000
,  // measure 2
0000
0000
0000
0000
,  // measure 3
0000
0000
0000
0000
0000
0000
1000
1000
,  // measure 4
0001
1000
0000
0001
0000
1000
0000
0200
0000
0000
2300
0000
3000
0000
0001
0100
,  // measure 5
0001
0010
0000
0001
0000
0010
0000
0002
0000
0000
0103
0000
0010
0000
1000
0000
,  // measure 6
2001
0000
0000
0100
0000
0000
3020
0000
0000
0000
0100
0000
0130
0000
0001
0000
,  // measure 7
1002
0000
0000
0010
0000
0010
0000
1003
0000
0000
0100
0000
1000
0000
1000
0000
,  // measure 8
1010
0000
0000
0000
0100
0001
0100
0001
1000
0000
0100
0000
0010
0000
0001
0000
,  // measure 9
1001
0000
0000
0000
0001
0100
0001
0100
0010
0000
0001
0000
0010
0000
0010
0000
,  // measure 10
2000
0000
0000
0020
3000
0000
0200
0000
0030
0000
0001
0000
0302
0000
1003
0000
,  // measure 11
1200
0000
1300
0010
1000
0000
1000
0001
1000
0000
1000
0100
0010
0000
0010
0000
,  // measure 12
1001
0000
0000
0000
0001
0100
0000
0020
0000
0000
1030
0000
1100
0000
0000
0000
,  // measure 13
0010
0001
0000
1000
0000
0010
0000
0200
0000
0000
0310
0000
0110
0000
0000
0000
,  // measure 14
0100
0001
0000
0010
0000
0100
0000
2000
0000
0000
3010
0000
0110
0000
0000
0000
,  // measure 15
0100
0001
0100
0001
0000
1000
0000
0020
0000
0000
1030
0000
0002
0000
1003
0000
,  // measure 16
1200
0000
0000
0000
0310
0001
0000
2000
0000
0000
3100
0000
0110
0000
0000
0000
,  // measure 17
0100
1000
0000
0100
0000
0010
0000
0002
0000
0000
0103
0000
0201
0000
0000
0000
,  // measure 18
0310
0000
1000
0000
1002
0000
0000
0103
0000
0000
0000
0000
0000
0000
0010
1000
,  // measure 19
0010
0000
0100
0000
0120
0000
0000
1030
0000
0000
0001
0000
0010
0000
0100
0000
,  // measure 20
1001
0000
1000
0001
0000
0100
0000
0020
0000
0000
1030
0000
0010
0000
0100
0000
,  // measure 21
0100
0000
0001
1000
0000
0100
0000
0010
0000
0000
0001
0000
1000
0000
0010
0000
,  // measure 22
1000
0100
1000
0100
0000
1000
0000
0002
0000
0000
0013
0000
0100
0000
1000
0000
,  // measure 23
0010
0000
0100
0010
0000
1000
0000
0002
0000
0000
0000
0000
1003
0000
0100
0000
,  // measure 24
1100
0000
0000
0000
0110
0000
0000
0010
0000
0001
0010
0000
0100
0000
1000
0000
,  // measure 25
1001
0000
0000
0000
0101
0000
0000
0100
0000
0010
0100
0000
0001
0000
1000
0000
,  // measure 26
1001
0000
0000
0000
1010
0000
0010
0000
0100
0010
0100
0010
0100
0000
0001
0010
,  // measure 27
0001
0000
0100
0000
0010
0000
1000
0100
0010
0000
0000
0000
0110
0000
0000
0000
,  // measure 28
1002
0000
0000
0000
0000
0000
0000
0000
1003
0010
0000
1000
0000
0010
1000
0001
,  // measure 29
0200
0000
0000
0301
0000
0010
0000
0100
0000
1000
0000
0002
0000
0000
0103
0000
,  // measure 30
0110
0000
0000
0000
1000
0000
0100
0010
0000
0001
0000
2000
0000
0000
3100
0000
,  // measure 31
1100
0000
0000
0000
0000
0000
0000
0000
0000
0000
0000
0000
0000
0000
0000
0000
0000
0000
0000
0000
0000
0000
0000
0000
0000
0000
0000
0000
0000
0000
0000
0000
0000
0000
0000
0000
0000
0000
0000
0000
0000
0000
0000
0000
0000
0000
0000
0000
0010
0000
0000
0000
0000
0000
0000
0000
0000
0000
0000
0000
0000
0000
0000
0000
0001
0000
0000
0000
0000
0000
0000
0000
0000
0000
0000
0000
0000
0000
0000
0000
0000
0000
0000
0000
0000
0000
0000
0000
0010
0000
0000
0000
0000
0000
0000
0000
0000
0000
0000
0000
0000
0000
0000
0000
0000
0000
0000
0000
0000
0000
0000
0000
0001
0000
0000
0000
0000
0000
0000
0000
0000
0000
0000
0000
0000
0000
0000
0000
0000
0000
0000
0000
0000
0000
0000
0000
0000
0000
0100
0000
0000
0000
0000
0000
0000
0000
0000
0000
0000
0000
0000
0000
0000
0000
0000
0000
0000
0000
0000
0000
0000
0000
0010
0000
0000
0000
0000
0000
0000
0000
0000
0000
0000
0000
0000
0000
0000
0000
0000
0000
0000
0000
0000
0000
0000
0000
0000
0000
0000
0000
0000
0000
,  // measure 32
0120
0000
0100
0230
0001
0302
1003
0100
,  // measure 33
0210
0000
0000
0000
0000
0000
0000
0000
0000
0000
0000
0000
0000
0000
0000
0000
0000
0000
0000
0000
0000
0000
0000
0000
0000
0000
0000
0000
0000
0000
0000
0000
0000
0000
0000
0000
0000
0000
0000
0000
0000
0000
0000
0000
0000
0000
0000
0000
0310
0000
0000
0000
0000
0000
0000
0000
0000
0000
0000
0000
0000
0000
0000
0000
0001
0000
0000
0000
0000
0000
0000
0000
0000
0000
0000
0000
0000
0000
0000
0000
0000
0000
0000
0000
0000
0000
0000
0000
0010
0000
0000
0000
0000
0000
0000
0000
0000
0000
0000
0000
0000
0000
0000
0000
0000
0000
0000
0000
0000
0000
0000
0000
0000
0000
0100
0000
0000
0000
0000
0000
0000
0000
0000
0000
0000
0000
0000
0000
1000
0000
0000
0000
0000
0000
0000
0000
0000
0000
0000
0000
0000
0001
0000
0000
0000
0000
0000
0000
0000
0000
0000
0000
0000
0000
0000
0000
0000
0000
0000
0000
0000
0000
0000
0000
0000
0000
0000
0000
0100
0000
0000
0000
0000
0000
0000
0000
0000
0000
0000
0000
0000
0000
0000
0000
0000
0000
0000
0000
0000
0000
0000
0000
,  // measure 34
0120
0000
0000
0000
1030
0000
0001
1000
0000
0010
0000
0100
0001
0100
0001
0000
,  // measure 35
0101
1001
1100
0010
0010
0010
0010
0000
,  // measure 36
0011
1001
1010
0100
0100
0100
0100
0000
,  // measure 37
1001
0110
1002
0010
0010
0100
0100
1000
,  // measure 38
2003
0000
0010
3020
0100
0000
0130
0002
,  // measure 39
0010
0023
0130
0000
1000
0010
0100
0001
,  // measure 40
1002
0000
1000
2003
0100
0000
3100
0020
,  // measure 41
0032
0000
0103
0000
0110
0000
1001
1000
,  // measure 42
1200
0000
0000
0000
0320
0000
0000
0031
0000
1000
0100
0000
1000
0000
0010
0000
,  // measure 43
1020
0000
0000
0000
0230
0000
0000
0302
0000
0000
0013
0000
0100
0000
1000
0000
,  // measure 44
1002
0000
0000
0000
0100
0000
0000
0000
0103
0000
0000
0000
0010
0000
1000
0010
,  // measure 45
1000
0000
0100
0000
0010
0000
0001
0100
0001
0000
0010
0000
0100
0000
1000
0000
,  // measure 46
1002
0000
0000
0103
0000
0010
0000
2000
0000
0000
0001
0000
3001
0000
0010
0000
,  // measure 47
0110
0000
0010
0001
0000
0100
0000
0010
0000
0000
1000
0000
0001
0000
1000
0000
,  // measure 48
0100
0010
0001
0010
0000
0010
0000
0002
0000
0000
0013
0000
0100
0000
1000
0000
,  // measure 49
0001
0000
0100
0010
0000
1000
0000
0002
0000
0000
0000
0000
0103
0000
0001
0000
,  // measure 50
0101
0000
0000
0000
1010
0000
0000
0001
0000
1000
0010
0000
0100
0000
0001
0000
,  // measure 51
0011
0000
0000
0000
1100
0000
0000
0010
0000
0001
1000
0000
0010
0000
0100
0000
,  // measure 52
0120
0000
1030
0001
1000
0001
1000
0000
0001
0000
0100
0000
0010
0000
1000
0001
,  // measure 53
1000
0000
0010
0000
0010
0000
0100
0001
2000
0000
3100
0000
1100
0000
0000
0000
,  // measure 54
0012
0000
0000
0000
1003
0000
0000
0001
0100
0010
1000
0000
0001
0000
0100
0000
,  // measure 55
0120
0000
0000
0000
2030
0000
0000
3001
1000
0010
0100
0000
0001
0000
0010
0000
,  // measure 56
0012
0000
0000
0000
1003
0000
0100
0000
0020
0000
0000
0000
0031
0000
1000
0010
,  // measure 57
1000
0000
0001
0000
0100
0000
0010
1000
0010
0000
0000
0000
0110
0000
0000
0000
,  // measure 58
0002
0000
0000
0003
;
