#TITLE:September;
#SUBTITLE:(Factory Team Mix);
#ARTIST:Houzeboyz;
#TITLETRANSLIT:;
#SUBTITLETRANSLIT:;
#ARTISTTRANSLIT:;
#GENRE:Eurodance;
#CREDIT:TiKAL;
#MUSIC:[Covered Up] - September (Factory Team Mix).ogg;
#BANNER:[Covered Up] - September (Factory Team Mix).png;
#BACKGROUND:[Covered Up] - September (Factory Team Mix)-bg.png;
#CDTITLE:cdtitle.png;
#SAMPLESTART:59.213;
#SAMPLELENGTH:14.414;
#SELECTABLE:YES;
#OFFSET:-1.555;
#BPMS:0.000=133.198;
#STOPS:;
#BGCHANGES:;
#FGCHANGES:;

//--------------- dance-single - TiKAL ----------------
#NOTES:
     dance-single:
     TiKAL:
     Easy:
     1:
     0,0,0,0,0:
0000
0000
0000
0000
,
0000
0000
0000
0000
,
0000
0000
0000
0000
,
0000
0000
0000
0000
,
0000
0000
0000
0000
,
0000
0000
0000
0000
,
1001
0000
0000
0000
,
0000
0000
0000
0000
,
1000
0000
1000
0000
,
0001
0000
0001
0000
,
0100
0000
0100
0000
,
0010
0000
0010
0000
,
1000
0000
1000
0000
,
0001
0000
0001
0000
,
0010
0000
0010
0000
,
0100
0000
0100
0000
,
1001
0000
0000
0000
,
1000
0000
0001
0000
,
0100
0000
0000
0000
,
0001
0000
1000
0000
,
0100
0000
0000
0000
,
1000
0000
0001
0000
,
0110
0000
0000
0000
,
1001
0000
0000
0000
,
1001
0000
0000
0000
,
1000
0000
0001
0000
,
0010
0000
0000
0000
,
0001
0000
1000
0000
,
0010
0000
0000
0000
,
1000
0000
0001
0000
,
0110
0000
0000
0000
,
1001
0000
0000
0000
,
2000
0000
0000
3000
,
0001
0000
0001
0000
,
0002
0000
0000
0003
,
0100
0000
0100
0000
,
0200
0000
0000
0300
,
0010
0000
0010
0000
,
0110
0000
0000
0000
,
0000
0000
0000
0000
,
0002
0000
0000
0003
,
1000
0000
1000
0000
,
2000
0000
0000
3000
,
0100
0000
0100
0000
,
0200
0000
0000
0300
,
0010
0000
0010
0000
,
0110
0000
0000
0000
,
0000
0000
0000
0000
,
0001
0000
0001
0000
,
1000
0000
1000
0000
,
0010
0000
0010
0000
,
0100
0000
0100
0000
,
0001
0000
0001
0000
,
1000
0000
1000
0000
,
0100
0000
0100
0000
,
0010
0000
0010
0000
,
1001
0000
0000
0000
;

//--------------- dance-single - TiKAL ----------------
#NOTES:
     dance-single:
     TiKAL:
     Medium:
     4:
     0,0,0,0,0:
0000
0000
0000
0000
,
0000
0000
0000
0000
,
0000
0000
0000
0000
,
0000
0000
0000
0000
,
0000
0000
0000
0000
,
0000
0000
0000
0000
,
0001
0100
0010
1000
,
0001
0010
0100
1000
,
1001
0000
0000
0001
1000
0000
0000
1000
,
0010
0000
0000
0010
0100
0000
0100
0000
,
0001
0000
0000
0001
1000
0000
0000
1000
,
0100
0000
0000
0100
0010
0000
0001
1000
,
0001
0000
0000
1000
0001
0000
0000
0001
,
0010
0000
0000
0010
0100
0000
0100
0000
,
1000
0000
0000
1000
0001
0000
0000
0001
,
0100
0000
0000
0100
0010
0000
1000
0001
,
1000
0001
1000
0001
,
0010
0100
1000
0001
,
1000
0001
1000
0001
,
0100
0000
0010
0000
1000
0000
0001
1000
,
0001
1000
0001
1000
,
0100
0010
0001
1000
,
2002
0000
0000
3003
,
1000
0100
0010
0001
,
0100
0010
0100
0010
,
0100
0001
1000
0100
,
0010
0100
0010
0100
,
0010
0000
0001
0000
1000
0000
0010
0100
,
0010
0100
0010
0100
,
0010
1000
0001
0010
,
2002
0000
0000
3003
,
1100
0101
0011
1010
,
0002
0000
2000
3003
,
0001
0100
0010
0010
,
2000
0000
0002
3003
,
1000
0100
0010
0010
,
0002
0000
2000
3003
,
0001
0010
0100
1000
,
2002
0000
0000
3003
,
1000
0010
0100
0001
,
2000
0000
0002
3003
,
1000
0100
0010
0010
,
0002
0000
2000
3003
,
0001
0100
0010
0010
,
2000
0000
0002
3003
,
1000
0010
0100
0001
,
2002
0000
0000
3003
,
0110
1001
0110
0000
,
1001
0000
0000
1000
0001
0000
0000
0001
,
0100
0000
0000
0100
0010
0000
0010
0000
,
1000
0000
0000
1000
0001
0000
0000
0001
,
0010
0000
0000
0010
0100
0000
1000
0001
,
1000
0000
0000
0001
1000
0000
0000
1000
,
0100
0000
0000
0100
0010
0000
0010
0000
,
0001
0000
0000
0001
1000
0000
0000
1000
,
0010
0000
0000
0010
0100
0000
0001
1000
,
0001
0000
0000
0000
;

//--------------- dance-single - TiKAL ----------------
#NOTES:
     dance-single:
     TiKAL:
     Hard:
     7:
     0,0,0,0,0:
0000
0000
0000
0000
,
0000
0000
0000
0000
,
0000
0000
0000
0000
,
0000
0000
0000
0000
,
0000
0000
0000
0000
,
0000
0000
0000
0000
,
0001
1000
0001
1000
0010
0100
0010
0100
,
0001
0010
0100
1000
0001
0100
0010
1000
,
1001
0000
0000
0001
0000
0000
0100
0000
0001
0000
0000
1000
0000
0000
0100
0000
,
0010
0000
0000
0001
0000
0000
1000
0000
0010
0000
0000
1000
0000
0000
0001
0000
,
0001
0000
0000
1000
0000
0000
0100
0000
1000
0000
0000
0001
0000
0000
0100
0000
,
0010
0000
0000
1000
0000
0000
0001
0000
0010
0000
0000
0001
0000
0000
1000
0000
,
1001
0000
0000
0001
0000
0000
0010
0000
0001
0000
0000
1000
0000
0000
0010
0000
,
0100
0000
0000
0001
0000
0000
1000
0000
0100
0000
0000
1000
0000
0000
0001
0000
,
0001
0000
0000
1000
0000
0000
0010
0000
1000
0000
0000
0001
0000
0000
0010
0000
,
0100
0000
0000
1000
0000
0000
0001
0000
0100
0000
0000
0001
0000
0000
1000
0000
,
1001
0001
0010
0100
,
1000
0001
1000
0020
0000
0000
0130
0100
,
0001
1000
0100
0010
,
0001
1000
0001
0200
0000
0000
0310
0010
,
1000
0001
0100
0010
,
1000
0001
1000
0200
0000
0000
0310
0022
,
0000
0000
0000
0033
,
0001
1000
0001
0100
0010
1000
0001
0010
,
0100
0000
1000
0000
0001
0000
0100
0010
,
0000
1000
0001
0020
0000
0000
0130
0100
,
0010
0001
1000
0010
,
1000
0100
0010
0002
0000
0000
1003
1000
,
0010
1000
0001
0010
,
0100
1000
0001
0200
0000
0000
0310
2020
,
0000
0000
0000
3030
,
1000
0100
0010
0001
1000
0010
0100
0001
,
2000
0000
0001
0002
0000
0000
3003
0000
,
0001
0100
0010
1000
0002
0000
1003
0000
,
0002
0000
1000
2000
0000
0000
3003
0000
,
1000
0100
0010
0001
2000
0000
3001
0000
,
0200
0000
0010
0020
0000
0000
0330
0000
,
0010
1000
0001
0010
0100
0000
1000
0001
,
2002
0000
0000
3003
,
1000
0010
0100
0001
1000
0100
0010
0001
,
2000
0000
0001
0002
0000
0000
3003
0000
,
0001
0010
0100
1000
0002
0000
1003
0000
,
0002
0000
1000
2000
0000
0000
3003
0000
,
1000
0010
0100
0001
2000
0000
3001
0000
,
0020
0000
0100
0200
0000
0000
0330
0000
,
0100
1000
0001
0100
0010
0000
1000
0001
,
2002
0000
0000
3003
,
1000
0000
1000
0000
0100
1000
0000
0000
0001
0000
0100
0001
0000
0000
0000
0000
,
1001
0000
0000
1000
0000
0000
0100
0000
1000
0000
0000
0001
0000
0000
0100
0000
,
0010
0000
0000
1000
0000
0000
0001
0000
0010
0000
0000
0001
0000
0000
1000
0000
,
1000
0000
0000
0001
0000
0000
0100
0000
0001
0000
0000
1000
0000
0000
0100
0000
,
0010
0000
0000
0001
0000
0000
1000
0000
0010
0000
0000
1000
0000
0000
0001
0000
,
1001
0000
0000
1000
0000
0000
0010
0000
1000
0000
0000
0001
0000
0000
0010
0000
,
0100
0000
0000
1000
0000
0000
0001
0000
0100
0000
0000
0001
0000
0000
1000
0000
,
1000
0000
0000
0001
0000
0000
0010
0000
0001
0000
0000
1000
0000
0000
0010
0000
,
0100
0000
0000
0001
0000
0000
1000
0000
0100
0000
0000
1000
0000
0000
0001
0000
,
1001
0000
0000
0000
;

//--------------- dance-single - TiKAL ----------------
#NOTES:
     dance-single:
     TiKAL:
     Challenge:
     10:
     0,0,0,0,0:
0000
0000
0000
0000
,
0000
0000
0000
0000
,
0000
0000
0000
0000
,
0000
0000
0000
0000
,
0000
0000
0000
0000
,
0000
0000
0000
0000
,
0001
0100
0001
0000
1000
0100
1000
0000
0001
0010
0001
0000
1000
0010
1000
0000
,
0001
0010
0100
1000
0001
0100
0010
1000
0001
1000
0001
1000
0001
0010
0100
1000
,
0001
0000
0100
0001
0000
0000
0001
0000
1000
0000
0010
1000
0000
0000
1000
0000
,
0001
0000
0010
0001
0000
0000
0001
0000
1000
0000
0100
1000
0000
0000
0100
0000
,
0100
0000
0010
0001
0000
0000
0100
0000
0100
0000
0010
1000
0000
0000
0001
0000
,
1000
0000
0100
0010
0000
0000
0001
0000
1000
0000
0010
0100
0000
0000
0001
0000
,
1000
0000
0100
1000
0000
0000
1000
0000
0001
0000
0010
0001
0000
0000
0001
0000
,
1000
0000
0010
1000
0000
0000
1000
0000
0001
0000
0100
0001
0000
0000
0100
0000
,
0100
0000
0010
1000
0000
0000
0100
0000
0100
0000
0010
0001
0000
0000
1000
0000
,
0001
0100
0010
0000
1000
0010
0100
0000
0001
1000
0100
0010
0001
0010
0100
1000
,
0001
0000
1000
0000
0010
0100
0001
0000
,
1000
0100
1000
0001
1000
0010
0100
0001
,
1000
0000
0001
0000
0010
0100
1000
0000
,
0001
0100
0001
1000
0001
0010
0100
0100
,
1000
0000
0010
0000
0100
0000
0001
1000
,
0100
0010
0100
1000
0001
0100
0010
2020
,
0000
0000
0000
3030
,
1000
0000
0001
0000
1000
0000
0100
0010
0100
1000
0001
0000
0100
0000
0100
0000
,
0001
0100
0010
1000
0001
0000
1000
0010
0100
0001
1000
0000
0001
0010
0100
1000
,
0001
0010
0100
1000
0001
0100
0010
1000
0001
1000
0000
0000
1000
0001
1000
0001
,
1000
0010
0100
0001
1000
0000
0001
0100
0010
1000
0001
0000
1000
0100
0010
0001
,
1000
0100
0010
0001
1000
0010
0100
0001
1000
0001
0000
0000
0001
1000
0001
1000
,
0001
0010
0100
1000
0001
0000
1000
0100
0010
0001
1000
0000
0001
0100
0010
1000
,
0001
0100
0010
1000
0001
0010
0100
1000
0001
1000
0000
0000
1000
0000
0001
0000
,
1000
0100
0010
0001
1000
0010
0100
0001
,
1000
0100
1000
0001
0100
0001
1000
0010
0100
0010
0100
0001
1000
0100
0010
0001
,
1000
0000
0000
0010
1000
0000
0001
0000
0010
0000
0000
0100
1000
0000
0001
0000
,
1000
0000
0010
1000
0010
0000
0100
0000
0100
0000
0001
0000
0001
0000
0000
0000
,
0001
0000
0000
0010
0001
0000
1000
0000
0010
0000
0000
0100
0001
0000
1000
0000
,
0001
0000
0010
0001
0010
0000
0100
0000
0100
0000
1000
0001
1000
0000
1000
0000
,
0001
0000
0000
0100
0001
0000
1000
0000
0100
0000
0000
0010
0001
0000
1000
0000
,
0001
0000
0100
0010
1000
0000
0001
0000
0010
0000
0000
0010
0100
0000
1000
0000
,
2002
0000
0000
3003
,
0001
0100
0001
1000
0100
1000
0001
0010
0100
0010
0100
1000
0001
0100
0010
1000
,
0001
0000
0000
0010
0001
0000
1000
0000
0010
0000
0000
0100
0001
0000
1000
0000
,
0001
0000
0010
0001
0010
0000
0100
0000
0100
0000
1000
0000
1000
0000
0000
0000
,
1000
0000
0000
0010
1000
0000
0001
0000
0010
0000
0000
0100
1000
0000
0001
0000
,
1000
0000
0010
1000
0010
0000
0100
0000
0100
0000
0001
1000
0001
0000
0001
0000
,
1000
0000
0000
0100
1000
0000
0001
0000
0100
0000
0000
0010
1000
0000
0001
0000
,
1000
0000
0100
0010
0001
0000
1000
0000
0010
0000
0000
0010
0100
0000
0001
0000
,
2002
0000
0000
3003
,
1000
0100
0010
0001
1000
0010
0100
0001
1000
0001
0010
0100
0010
0001
1000
0010
,
0100
0000
0001
0100
0000
0000
0100
0000
0010
0000
1000
0010
0000
0000
0010
0000
,
0100
0000
0001
0010
0000
0000
0010
0000
0100
0000
1000
0010
0000
0000
1000
0000
,
1000
0000
0100
1000
0000
0000
1000
0000
0001
0000
0010
0001
0000
0000
0001
0000
,
0010
0000
0100
1000
0000
0000
0001
0000
0100
0000
0010
1000
0000
0000
0001
0000
,
0010
0000
0001
0010
0000
0000
0010
0000
0100
0000
1000
0100
0000
0000
0100
0000
,
0010
0000
0001
0100
0000
0000
0100
0000
0010
0000
1000
0100
0000
0000
1000
0000
,
1000
0000
0010
1000
0000
0000
1000
0000
0001
0000
0100
0001
0000
0000
0001
0000
,
0100
0010
0100
0010
1000
0001
1000
0001
0100
0010
1000
0001
0010
0100
0010
0100
,
1000
0000
0000
0000
;
