#VERSION:0.83;
#TITLE:Run Away With Me;
#SUBTITLE:;
#ARTIST:Flyboy feat. Radiochaser;
#TITLETRANSLIT:;
#SUBTITLETRANSLIT:;
#ARTISTTRANSLIT:;
#GENRE:;
#ORIGIN:;
#CREDIT:;
#BANNER:banner.png;
#BACKGROUND:background.png;
#PREVIEWVID:;
#JACKET:jacket.png;
#CDIMAGE:;
#DISCIMAGE:;
#LYRICSPATH:;
#CDTITLE:;
#MUSIC:Flyboy - Run Away With Me (ft. Radiochaser).ogg;
#OFFSET:0.017560;
#SAMPLESTART:33.557064;
#SAMPLELENGTH:16.271187;
#SELECTABLE:YES;
#BPMS:0.000=118.000;
#STOPS:;
#DELAYS:;
#WARPS:;
#TIMESIGNATURES:0.000=4=4;
#TICKCOUNTS:0.000=4;
#COMBOS:0.000=1;
#SPEEDS:0.000=1.000=0.000=0;
#SCROLLS:0.000=1.000;
#FAKES:;
#LABELS:0.000=Song Start;
#BGCHANGES:;
#KEYSOUNDS:;
#ATTACKS:
;

//---------------dance-single - ----------------
#NOTEDATA:;
#CHARTNAME:;
#STEPSTYPE:dance-single;
#DESCRIPTION:;
#CHARTSTYLE:;
#DIFFICULTY:Hard;
#METER:8;
#RADARVALUES:0.379590,0.526597,0.066221,0.215219,0.703602,321.000000,313.000000,8.000000,26.000000,0.000000,0.000000,0.000000,0.000000,0.000000,0.379590,0.526597,0.066221,0.215219,0.703602,321.000000,313.000000,8.000000,26.000000,0.000000,0.000000,0.000000,0.000000,0.000000;
#CREDIT:;
#NOTES:
0000
0000
0000
0000
,
0000
0000
0000
0000
,
0000
0000
0000
0000
,
0000
0000
0000
0000
,
0000
0000
0000
0000
,
0000
0000
0000
0000
,
0000
0000
0000
0000
,
0000
0000
0000
0000
,
0000
0000
0000
0000
,
0010
0000
0010
0001
1000
0001
0100
0000
0000
0010
1000
0010
,
0100
0000
0000
0001
0010
0001
1000
0000
1000
0010
0000
0010
,
0100
0000
0000
0001
0100
0001
1000
0000
0000
1000
0100
1000
,
0010
0000
0010
0100
0010
0100
0001
0000
0001
0010
0000
0010
,
0100
0000
0000
0100
1000
0100
0010
0000
0002
0000
0000
0000
,
1003
0000
0000
0010
1000
0010
0200
0000
0001
0300
0001
0000
,
0010
0000
0000
0110
0000
0000
1000
0000
0000
1010
0000
0010
,
2000
0000
0000
0000
0000
0000
3001
0000
0000
0100
0000
0000
0100
0000
0000
0000
0010
0000
0000
0000
1000
0000
0000
0000
,
1001
0000
0001
1000
0000
1000
0100
0000
0100
1000
0010
1000
,
0100
0000
0100
0010
0001
0000
0001
0000
0001
0010
0100
0000
,
1000
0000
1000
0001
0000
0001
0100
0000
0100
0010
1000
0010
,
0100
0000
0100
0010
1000
0000
1000
0000
1000
0100
0010
0000
,
0100
0000
0100
0010
0000
0010
0001
0000
0001
1000
0100
1000
,
0010
0000
0010
1000
0001
0000
1000
0000
0001
1000
0100
0000
,
0011
0000
0000
0001
0100
0020
0000
0000
0030
1000
0002
0000
,
2003
0010
0000
3010
,
0100
0000
0200
0000
0000
0000
0000
0000
0000
0300
0000
0000
,
0001
0000
0002
0000
0000
0000
0013
0000
0020
0000
0000
0000
,
0130
0000
0200
0000
0000
0000
0000
0000
0000
0300
0000
0000
,
1000
0000
0010
0000
1000
0000
0100
0000
0001
0000
0100
0000
,
1000
0000
2000
0000
0000
0000
0000
0000
0000
3000
0000
0000
,
0010
0000
0020
0000
0000
0000
1030
0000
0000
0001
0000
0002
,
0000
0000
0000
0000
0010
0000
0100
0000
0100
0000
0203
0000
,
0000
0000
0000
0000
0010
0000
0001
0000
0001
0000
0001
0000
,
0310
0000
0000
1000
0000
0001
1000
0000
0100
0010
0000
0000
,
0001
0000
0000
0100
0000
0010
0100
0000
0001
0010
0000
0000
,
0100
0000
0000
1000
0000
0010
0100
0000
0010
1000
0000
0000
,
0010
0000
1000
0000
0001
0000
0100
0000
1000
0000
0100
0000
,
0001
0000
0000
0010
0000
0001
1000
0000
1000
0100
0000
0000
,
1000
0000
1000
0010
0000
0010
1000
0000
0001
0100
0000
0002
,
0000
0000
0000
0000
1000
0000
0010
0000
0010
0000
0023
0000
,
0000
0000
0000
0000
1000
0000
0001
0000
0001
0000
0031
0000
,
0000
0000
0000
1001
,
0001
0000
0001
1000
0010
1000
0010
0100
0001
0000
0010
0001
,
1000
0000
1000
0001
0100
0001
0010
0100
0010
0001
0010
0100
,
1000
0000
1000
0010
0100
0001
0100
0010
1000
0000
0100
1000
,
0001
0000
0001
0010
0001
1000
0010
1000
0001
0100
0001
1000
,
0010
0000
0010
1000
0001
0100
0010
1000
0100
0000
0100
0010
,
0001
0000
0001
1000
0100
1000
0010
1000
0100
0010
0001
0100
,
0010
0000
0010
1000
0100
1000
0001
0010
0100
0000
0100
1000
,
0100
0000
0100
0010
0001
1000
0100
1000
0001
0010
0001
0100
,
0020
0000
0000
1030
0000
0001
0020
0000
0100
0030
0000
0000
,
1100
0000
0100
1000
0000
0001
1000
0000
0010
0000
0000
0200
,
0020
0000
0030
0000
,
0002
0000
0003
0300
,
0102
0000
0000
0103
0000
0010
2000
0000
0001
3000
0000
0000
,
0110
0000
0100
0010
0000
0001
0010
0000
0000
0100
0000
2000
,
0002
0000
0003
0000
0010
0000
0001
0000
0001
0000
3002
0000
,
0000
0000
0000
0000
0010
0000
1000
0000
1000
0000
1003
0000
;

//---------------dance-single - ----------------
#NOTEDATA:;
#CHARTNAME:;
#STEPSTYPE:dance-single;
#DESCRIPTION:;
#CHARTSTYLE:;
#DIFFICULTY:Medium;
#METER:5;
#RADARVALUES:0.283806,0.359044,0.066221,0.148998,0.351801,240.000000,232.000000,8.000000,18.000000,0.000000,0.000000,0.000000,0.000000,0.000000,0.283806,0.359044,0.066221,0.148998,0.351801,240.000000,232.000000,8.000000,18.000000,0.000000,0.000000,0.000000,0.000000,0.000000;
#CREDIT:;
#NOTES:
0000
0000
0000
0000
,
0000
0000
0000
0000
,
0000
0000
0000
0000
,
0000
0000
0000
0000
,
0000
0000
0000
0000
,
0000
0000
0000
0000
,
0000
0000
0000
0000
,
0000
0000
0000
0000
,
0000
0000
0000
0000
,
0100
0000
0000
1000
0000
1000
0100
0000
0000
0010
0000
0010
,
0001
0000
0000
0100
0000
0100
0010
0000
0000
1010
0000
0000
,
1000
0000
0000
0001
0000
0001
1000
0000
0000
0100
0000
0100
,
0010
0000
0000
0001
0000
0001
0100
0000
0000
0110
0000
0000
,
0010
0000
0000
1100
0000
0000
1000
0000
2000
0000
0000
0000
,
3010
0000
0000
0101
0000
0000
0001
0000
0002
0000
0000
0000
,
1003
0101
1000
0110
,
0001
0000
0000
1100
0000
0000
1000
0000
0001
0000
1000
0000
,
0001
0000
0000
0010
0000
0000
0100
0000
0100
1000
0000
0000
,
1000
0000
0010
0000
1000
0000
0001
0000
1000
0000
0100
0000
,
0010
0000
0000
0001
0000
0000
0010
0000
0010
0100
0000
0000
,
0100
0000
0100
0000
0100
0000
1000
0000
1000
0000
0001
0000
,
0001
0000
0000
0100
0000
0000
0010
0000
0010
1000
0000
0000
,
0001
0000
1000
0000
0010
0000
1000
0000
0001
0000
0100
0000
,
0002
0013
0200
1300
,
2000
3010
0100
1001
,
0010
0000
0020
0000
0000
0000
0000
0000
0000
0030
0000
0000
,
1000
0000
1000
0000
0000
0000
0001
0000
0001
0000
0000
0000
,
1000
0000
2000
0000
0000
0000
0000
0000
0000
3000
0000
0000
,
0010
0000
1000
0000
0010
0000
1000
0000
0001
0000
1000
0000
,
0100
0000
0200
0000
0000
0000
0000
0000
0000
0300
0000
0000
,
0010
0000
0010
0000
0000
0000
0010
0000
0000
0100
0000
0200
,
0000
0000
0000
0300
0000
0000
1000
0000
1000
0000
2000
0000
,
0000
0000
0000
3000
0000
0000
0001
0000
0001
0000
0001
0000
,
0100
0000
0100
0010
0000
0000
1000
0000
0000
0001
0000
0000
,
0010
0000
0010
0100
0000
0000
1000
0000
1000
0010
0000
0000
,
0100
0000
0100
0001
0000
0000
1000
0000
0000
0100
0000
0000
,
0010
0000
0001
0000
1000
0000
0001
0000
1000
0000
0100
0000
,
1000
0000
1000
0010
0000
0000
1000
0000
0000
0001
0000
0000
,
0100
0000
0100
0010
0000
0000
1000
0000
0000
0001
0000
0001
,
0020
0000
0000
0130
0000
0000
0001
0000
1000
0000
1000
0000
,
0200
0000
0000
0310
0000
0000
1000
0000
1000
0000
0002
0000
,
0000
0000
0000
1003
,
0010
0000
0000
1000
0000
0000
0001
1000
0001
1000
0000
0000
,
0100
0000
0000
0010
0000
0000
0001
0010
0001
0010
0001
0010
,
0100
0000
0000
1000
0000
0000
0010
1000
0010
1000
0000
0000
,
0001
0000
0000
0100
0000
0000
0010
0100
0010
0100
0010
0100
,
0001
0000
0000
0010
0000
0000
0100
1000
0100
1000
0000
0000
,
0010
0000
0000
1000
0000
0000
0001
1000
0001
1000
0001
1000
,
0100
0000
0000
0010
0000
0000
0001
0100
0001
0100
0000
0000
,
0010
0000
0000
0100
0000
0000
0001
0010
0001
1000
0100
1000
,
0010
1000
0001
0000
,
0010
0000
0000
0100
0000
0000
0010
0000
0000
0001
0000
0200
,
0000
0000
0320
0000
,
2030
0000
3002
0000
,
0013
0100
0010
0000
,
0001
0000
0000
0100
0000
0000
0010
0000
0000
0010
0000
2000
,
0000
0000
0000
3000
0000
0000
0010
0000
0010
0000
0010
0000
,
0000
0000
0000
0000
0000
0000
0100
0000
0100
0000
0100
0000
;

//---------------dance-single - ----------------
#NOTEDATA:;
#CHARTNAME:;
#STEPSTYPE:dance-single;
#DESCRIPTION:;
#CHARTSTYLE:;
#DIFFICULTY:Easy;
#METER:3;
#RADARVALUES:0.179744,0.264058,0.049666,0.190386,0.000000,152.000000,146.000000,6.000000,23.000000,0.000000,0.000000,0.000000,0.000000,0.000000,0.179744,0.264058,0.049666,0.190386,0.000000,152.000000,146.000000,6.000000,23.000000,0.000000,0.000000,0.000000,0.000000,0.000000;
#CREDIT:;
#NOTES:
// measure 0
0000
0000
0000
0000
,  // measure 1
0000
0000
0000
0000
,  // measure 2
0000
0000
0000
0000
,  // measure 3
0000
0000
0000
0000
,  // measure 4
0000
0000
0000
0000
,  // measure 5
0000
0000
0000
0000
,  // measure 6
0000
0000
0000
0000
,  // measure 7
0000
0000
0000
0000
,  // measure 8
0000
0000
0000
0000
,  // measure 9
0010
1000
0001
0001
,  // measure 10
1000
0100
0010
0110
,  // measure 11
0010
0001
1000
1000
,  // measure 12
0010
1000
0001
1001
,  // measure 13
1000
0001
0200
0310
,  // measure 14
0010
0100
0002
0013
,  // measure 15
0100
1000
0010
1000
,  // measure 16
0001
0000
1000
0000
,  // measure 17
0001
1000
0010
0000
,  // measure 18
0100
0100
0010
0010
,  // measure 19
1000
0001
1000
0000
,  // measure 20
0100
0100
0010
0010
,  // measure 21
0001
0001
1000
0010
,  // measure 22
1000
1000
0001
0100
,  // measure 23
0010
1000
0000
1001
,  // measure 24
1000
0100
0000
0110
,  // measure 25
0020
0000
0000
0000
,  // measure 26
0032
0000
2003
0000
,  // measure 27
3020
0000
0000
0000
,  // measure 28
1030
0001
0200
0000
,  // measure 29
0320
0000
0000
0000
,  // measure 30
2030
0000
3001
1001
,  // measure 31
0200
0000
0000
0000
,  // measure 32
0320
0000
0000
0000
,  // measure 33
2030
0001
0000
0001
,  // measure 34
3002
0010
0000
0013
,  // measure 35
0200
0010
0000
0310
,  // measure 36
0001
1000
0001
0100
,  // measure 37
0020
1000
0000
1000
,  // measure 38
2030
0100
0000
3100
,  // measure 39
0010
0000
0100
0000
,  // measure 40
0001
0000
1000
0000
,  // measure 41
0000
0000
0000
1001
,  // measure 42
0001
0100
1000
0100
,  // measure 43
0001
1000
0001
0001
,  // measure 44
1000
1000
0010
1000
,  // measure 45
0010
0100
0001
1000
,  // measure 46
0001
0010
1000
0010
,  // measure 47
0001
1000
0100
0100
,  // measure 48
0010
0001
1000
0001
,  // measure 49
0100
0001
1000
0000
,  // measure 50
0020
1000
1030
0000
,  // measure 51
2000
0001
3001
0000
,  // measure 52
0002
0000
0013
0000
,  // measure 53
0100
0000
1000
0000
,  // measure 54
2000
0010
3010
0000
,  // measure 55
0020
0100
0130
0000
,  // measure 56
0010
0000
2000
0000
,  // measure 57
3001
0000
0002
0000
,  // measure 58
0003
0000
0000
0000
;

//---------------dance-single - ----------------
#NOTEDATA:;
#CHARTNAME:;
#STEPSTYPE:dance-single;
#DESCRIPTION:;
#CHARTSTYLE:;
#DIFFICULTY:Beginner;
#METER:2;
#RADARVALUES:0.124165,0.215116,0.041388,0.000000,0.000000,105.000000,100.000000,5.000000,0.000000,0.000000,0.000000,0.000000,0.000000,0.000000,0.124165,0.215116,0.041388,0.000000,0.000000,105.000000,100.000000,5.000000,0.000000,0.000000,0.000000,0.000000,0.000000,0.000000;
#CREDIT:;
#NOTES:
0000
0000
0000
0000
,
0000
0000
0000
0000
,
0000
0000
0000
0000
,
0000
0000
0000
0000
,
0000
0000
0000
0000
,
0000
0000
0000
0000
,
0000
0000
0000
0000
,
0000
0000
0000
0000
,
0000
0000
0000
0000
,
0010
0000
1000
0000
,
0001
0000
0100
0100
,
0010
0000
1000
0000
,
0100
0000
0010
0010
,
0001
0000
1000
0000
,
0001
0000
0100
0000
,
0010
0000
1000
0000
,
0001
0000
0000
0000
,
0001
0000
1000
0000
,
0010
0010
0010
0000
,
0100
0000
0001
0000
,
1000
1000
1000
0000
,
0001
0000
0010
0000
,
0100
0100
0100
0000
,
1000
0000
0010
0000
,
0100
0000
0000
0000
,
1001
0000
0000
0000
,
0001
0000
1000
0000
,
0010
0000
0000
0000
,
0100
0000
0001
0000
,
0100
0000
0000
0000
,
1000
0000
0001
0000
,
1000
0000
0000
0000
,
0001
0000
0000
0000
,
1000
0000
0010
0000
,
1000
0000
0001
0000
,
1000
0000
0100
0000
,
0010
0000
0001
0000
,
1000
0000
0001
0000
,
0100
0000
0010
0000
,
1000
0000
0001
0000
,
1000
0000
0001
0000
,
0000
0000
0000
0000
,
0010
0000
0100
0100
,
0010
0000
0010
0010
,
1000
0000
1000
1000
,
0001
0000
0001
0001
,
0010
0000
0010
0010
,
0100
0000
0100
0100
,
1000
0000
1000
1000
,
0010
0000
1000
1000
,
1000
0000
0001
0000
,
0100
0000
0010
0000
,
1000
0000
0000
0000
,
0000
0000
0000
0000
,
0001
0000
1000
0000
,
0010
0000
1000
0000
,
0100
0000
0110
0110
,
0000
0000
0110
0110
;
