#TITLE:Proud Mary;
#SUBTITLE:;
#ARTIST:Ike & Tina Turner;
#TITLETRANSLIT:;
#SUBTITLETRANSLIT:;
#ARTISTTRANSLIT:;
#GENRE:;
#CREDIT:;
#BANNER:Proud Mary-bn.png;
#BACKGROUND:Proud Mary-bg.png;
#LYRICSPATH:;
#CDTITLE:;
#MUSIC:Proud Mary.mp3;
#OFFSET:0.000000;
#SAMPLESTART:22.132999;
#SAMPLELENGTH:20.000000;
#SELECTABLE:YES;
#DISPLAYBPM:172.000000:185.000000;
#BPMS:0.000000=172.000000
,16.000000=174.000000
,64.000000=175.000000
,108.000000=178.000000
,140.000000=173.000000
,156.000000=174.500000
,160.000000=177.000000
,188.000000=176.000000
,204.000000=178.250000
,232.000000=180.000000
,264.000000=177.899994
,272.000000=183.000000
,276.000000=185.000000
;
#STOPS:
;
#BGCHANGES:;
#KEYSOUNDS:;
#ATTACKS:;

//---------------dance-single - X Scale 13----------------
#NOTES:
     dance-single:
     :
     Hard:
     9:
     0.734032,0.684070,1.073396,0.175967,0.000000,584.000000,462.000000,122.000000,20.000000,0.000000,0.000000,0.734032,0.684070,1.073396,0.175967,0.000000,584.000000,462.000000,122.000000,20.000000,0.000000,0.000000:
0000
0000
0000
0000
,
0000
0000
0000
0000
,
0000
0000
0000
0000
,
0000
0000
0000
0000
,
0002
1000
1003
0000
0001
0010
0100
1000
,
0010
0100
0001
2000
0000
0100
3100
1000
,
0001
1000
0010
0200
0000
0001
0301
0100
,
0010
0001
0100
0001
0010
1000
0100
1000
,
0010
1000
0100
0000
1000
0100
0010
0001
,
0100
0010
1000
0000
0101
0101
0000
1001
,
0010
0100
0001
0100
0010
1000
0100
1000
,
0001
0010
0100
1000
0100
0010
0001
0000
,
1001
0100
1000
0100
0001
1000
0100
0000
,
1010
0100
0001
0100
1000
0001
1000
0000
,
0011
0010
1000
0010
0100
0001
0010
0000
,
0001
0010
0100
1000
0001
0010
0100
1000
,
0110
0000
0110
0000
1000
0100
0010
0001
,
0100
0010
1000
0000
0001
0010
0100
0000
,
1200
0000
1300
0100
0010
0100
0010
0001
,
0100
0010
1000
0000
0001
0010
0100
1001
,
0000
1000
0100
1100
0000
0011
0000
0110
,
0000
0010
0100
0101
0000
0011
0000
1010
,
1000
0100
0001
0100
1000
0001
0100
0120
,
0000
1000
1030
0100
2000
0001
3001
1001
,
0000
0010
0100
1010
0000
0110
0000
1100
,
0000
0001
0100
1001
0000
1010
0000
0011
,
0001
0100
1000
0100
0001
1000
0010
1002
,
0000
1000
1003
0001
0100
0000
1010
1001
,
0000
1100
0000
0101
0000
0011
0000
1010
,
0000
0110
0000
1001
0000
0110
0000
1001
,
0000
1100
0000
0011
0000
0101
1010
0000
,
1100
1000
0001
0201
0000
0310
0100
0000
,
1010
1000
0001
0012
0000
0103
0010
0000
,
1010
0101
0000
0011
0000
1100
0000
0110
,
0000
0011
0000
0110
1001
0000
1001
0000
,
0101
0000
0001
0010
0100
1000
0100
0010
,
0001
1000
0010
2000
0000
0001
3001
0100
,
0120
0000
0130
1000
0100
0010
0001
1000
,
0100
0100
0010
0010
1000
1000
0001
0001
,
0010
0001
0100
0010
1000
0100
1000
0001
,
0100
0100
0100
0000
1010
1010
0000
0110
,
1000
0100
0001
0100
0010
1000
0010
0001
,
0100
0001
0100
0001
0010
0100
1000
0000
,
1001
0100
0010
0001
0100
0010
1000
0000
,
1100
0001
0010
0100
1000
0100
0001
0000
,
1001
0010
0001
0100
1000
0100
0010
0000
,
1000
0100
0010
0001
1000
0100
0010
0001
,
0110
0000
0120
0000
0130
0010
1000
0001
,
0010
0100
1000
0000
0100
0001
1000
0000
,
0102
0000
0013
0001
0100
0010
1000
0100
,
1000
0010
0001
0000
0100
0010
1000
1001
,
0000
0010
0001
0110
0000
1100
0000
0011
,
0000
0100
0001
1100
0000
1001
0000
0101
,
0001
0010
1000
0010
0001
0100
1000
2100
,
0000
0010
3010
0100
0020
1000
1030
0110
,
0000
0010
0100
1010
0000
0110
0000
1001
,
0000
0001
0100
1001
0000
0110
0000
0011
,
0100
0001
0100
0010
1000
0100
0010
0201
,
0000
0010
0310
0100
0001
0000
0011
1001
,
0000
0011
0000
0101
0000
1100
0000
1010
,
0000
0110
0000
1001
0000
0110
0000
1001
,
0000
1100
0000
0101
0000
1010
0011
0000
,
1010
0010
0100
0102
0000
1003
0001
0000
,
0011
0010
0100
2100
0000
3001
1000
0000
,
0110
0101
0000
1010
0000
0011
0000
1100
,
0000
1010
0000
0110
1001
0000
1001
0000
,
1100
0000
0010
0100
0001
0100
0010
1000
,
0001
0010
1000
0200
0000
1000
1300
0100
,
1100
0000
1000
0100
0010
0001
0100
0010
,
1000
1000
0100
0100
0010
0010
0001
0001
,
1001
0100
0010
1010
0000
1100
0000
0101
,
0000
1000
0001
0101
0000
1010
0000
0011
,
1000
0100
0010
0001
0100
0010
1000
0001
,
0010
0001
0010
0100
0010
1000
0010
0000
,
0110
0100
0001
1010
0000
1100
0000
1001
,
0000
0010
0100
0011
0000
1001
0000
1010
,
1000
0001
0100
0001
1000
0100
0020
0000
,
0000
0000
0000
0030
;

//---------------dance-single - X Scale 11----------------
#NOTES:
     dance-single:
     :
     Medium:
     7:
     0.487679,0.581459,0.158370,0.439916,0.000000,388.000000,370.000000,18.000000,50.000000,0.000000,0.000000,0.487679,0.581459,0.158370,0.439916,0.000000,388.000000,370.000000,18.000000,50.000000,0.000000,0.000000:
0000
0000
0000
0000
,
0000
0000
0000
0000
,
0000
0000
0000
0000
,
0000
0000
0000
0000
,
0002
0000
1003
0000
0001
0010
0100
1000
,
0010
0000
0000
2000
0000
0001
3001
1000
,
0020
0000
0000
0230
0000
0001
0301
0100
,
0001
0000
0000
0000
0000
0010
0100
1000
,
0000
0100
1000
0000
1001
0000
0001
0010
,
0001
0100
0001
0000
1000
1000
0000
0010
,
0000
1000
0100
1000
0001
0000
0001
0100
,
0010
0100
0000
0001
0000
1000
0100
0000
,
0010
1000
0010
0001
0010
0000
1100
0000
,
1000
0100
0010
0001
0000
0100
0000
0010
,
0000
1000
0100
1000
0010
0000
0100
0000
,
0001
0010
0001
0100
0000
1000
1000
0000
,
1010
0000
0011
0000
0010
2000
0000
3002
,
0000
0203
0000
0320
0000
0230
0000
0302
,
0000
0000
1003
0001
1000
0020
0000
2030
,
0000
0001
0000
3100
0000
1000
0010
0200
,
0000
0001
0000
0010
0000
0301
0000
0020
,
0000
0100
0000
1000
0000
0130
0000
2000
,
0000
3001
0100
0010
1000
0000
1000
0002
,
0000
1003
0001
0100
0010
0000
0100
0002
,
0000
0010
0000
1000
0000
0103
0000
0200
,
0000
1000
0000
0010
0000
0301
0000
0020
,
0000
1030
0010
1000
0001
0000
0001
0200
,
0000
0310
0100
0001
1000
0000
0010
0010
,
0000
1000
0000
0001
0000
1000
0000
0101
,
0000
0010
0000
0100
0000
0010
0000
0110
,
0000
1000
0000
0001
0000
0100
0010
0000
,
2000
0001
0000
0100
0000
3010
0000
0000
,
0002
1000
0000
0010
0000
0103
0000
0000
,
0200
0010
0000
0010
0000
1000
0000
0001
,
0000
0001
0000
0010
0320
0000
1030
0000
,
1001
0000
0100
0000
0010
1000
0001
0000
,
1000
0000
0001
0000
0100
0001
1000
0000
,
0110
0000
0100
0000
1000
0010
0001
0000
,
0100
0000
0010
0000
1000
0001
1000
0001
,
0000
0001
0100
0010
0100
0000
0100
0001
,
1000
0100
1000
0000
0001
0001
0000
0101
,
0000
0100
0010
1000
0001
0000
0100
0000
,
0001
1000
0000
0001
1000
0000
0000
0000
,
1000
0010
0001
0010
1000
0000
0100
0200
,
0000
1300
0010
0100
0010
1000
0000
0002
,
0000
1003
0001
0100
0020
0000
0130
0010
,
1000
0100
1000
0000
2000
0000
3000
0000
,
1010
0000
0011
0000
1000
0020
0000
0230
,
0000
0302
0000
2003
0000
3002
0000
0023
,
0000
0000
0031
0010
0100
2000
0000
3200
,
0000
1300
0000
0100
0000
1000
0001
0020
,
0000
1000
0000
0031
0000
0010
0000
2000
,
0000
0100
0000
3010
0000
1000
0000
0002
,
0000
0013
0001
0100
0001
0000
1000
0200
,
0000
1300
0100
1000
0001
0000
0100
0200
,
0000
1000
0000
0301
0000
0100
0000
0020
,
0000
0100
0000
0031
0000
0010
0000
2000
,
0000
3100
1000
0010
0100
0000
0100
0002
,
0000
1003
0001
0100
0010
0000
1000
1000
,
0000
0010
0000
0100
0000
0001
0000
1000
,
0000
1000
0000
0100
0000
0010
0000
0001
,
0000
0100
0000
0010
0000
1000
0001
0000
,
2000
0100
0000
0010
0000
3001
0000
0000
,
0002
0010
0000
0100
0000
1003
0000
0000
,
0200
1000
0000
0001
0000
1000
0000
0010
,
0000
0001
0000
0010
0320
0000
1030
0000
,
1100
0000
0001
0000
1000
0010
0100
0000
,
0001
0000
0100
0000
0010
0100
0001
0000
,
1000
0000
0100
0000
0010
0100
1000
0000
,
0001
1000
0001
1000
0001
1000
0001
0000
,
1000
0100
0010
0000
0100
0010
0001
0000
,
0001
0010
0100
0000
0010
0100
1000
0000
,
0001
0100
1000
0100
0001
0000
0011
0000
,
1000
0100
0001
0100
1000
0000
1100
0000
,
0001
1000
0010
0000
1001
1000
0001
0000
,
0010
0100
0001
0000
0110
0100
0010
0000
,
1000
0100
0010
0001
0101
0000
2020
0000
,
0000
0000
0000
3030
;

//---------------dance-single - X Scale 6----------------
#NOTES:
     dance-single:
     :
     Easy:
     4:
     0.358218,0.444645,0.369530,0.052790,0.000000,285.000000,243.000000,42.000000,6.000000,0.000000,0.000000,0.358218,0.444645,0.369530,0.052790,0.000000,285.000000,243.000000,42.000000,6.000000,0.000000,0.000000:
0000
0000
0000
0000
,
0000
0000
0000
0000
,
0000
0000
0000
0000
,
0000
0000
0000
0000
,
1001
0000
0010
1000
,
0100
0000
1000
0100
,
0001
0000
0001
0010
,
0001
0001
0001
0001
,
1000
0100
0010
0001
,
0100
0000
0100
0000
,
0001
0010
0100
1000
,
0010
1000
0001
0000
,
0010
0100
1100
0011
,
1000
0001
0100
0010
,
1000
0100
0001
0100
,
1000
1000
1000
0000
,
0101
1010
0010
1000
,
0001
0000
0100
0000
,
0110
1000
0100
1000
,
0001
0000
0001
0000
,
0010
0100
0001
0000
,
0010
0100
1000
0000
,
0001
1000
1001
1001
,
0010
1000
0110
0110
,
1000
0100
0001
0000
,
1000
0001
0010
0000
,
0001
0010
1100
1100
,
1000
0010
0101
0101
,
0000
0100
0000
0100
,
0000
0100
0000
0100
,
0000
0100
0000
0100
,
0002
0000
1003
0000
,
2000
0000
3001
0000
,
0010
0010
0100
0100
,
1000
0001
0011
1010
,
0011
0000
0001
1000
,
0001
0000
0100
1000
,
1010
0000
1000
0001
,
0100
0100
0100
0100
,
0001
0100
1000
0100
,
0010
1000
0001
0000
,
0010
0100
0001
1000
,
0100
0010
1000
0000
,
0100
0010
1100
0011
,
0001
1000
0001
0000
,
1000
0010
0100
0001
,
0010
0010
0010
0000
,
1001
0101
0001
0100
,
1000
0001
1000
0000
,
1010
0110
1000
0100
,
0001
0010
0001
0000
,
1000
0100
1000
0000
,
0001
0100
0001
0000
,
0100
0010
1100
1100
,
1000
0001
1010
1010
,
0010
1000
0100
0000
,
0100
0010
0001
0000
,
0010
0100
1001
1001
,
1000
0001
0101
0101
,
0000
0010
0000
0010
,
0000
0010
0000
0010
,
0000
0010
0000
0010
,
0200
0000
0310
0000
,
0020
0000
0130
0000
,
0001
0001
1000
1000
,
0010
0100
0110
0011
,
0110
1000
0100
0010
,
0001
0000
0010
0010
,
0011
0001
0100
1000
,
0010
0010
0010
0010
,
1001
0100
0010
0100
,
0101
0010
1000
0010
,
0011
0100
0001
1000
,
0001
0010
0100
1000
,
1010
1000
0100
0001
,
1100
0010
0100
1000
,
0110
0010
2000
0002
,
0000
0000
0000
3003
;

//---------------dance-single - X Scale 3----------------
#NOTES:
     dance-single:
     :
     Beginner:
     1:
     0.167168,0.236345,0.000000,0.035193,0.000000,133.000000,133.000000,0.000000,4.000000,0.000000,0.000000,0.167168,0.236345,0.000000,0.035193,0.000000,133.000000,133.000000,0.000000,4.000000,0.000000,0.000000:
0000
0000
0000
0000
,
0000
0000
0000
0000
,
0000
0000
0000
0000
,
0000
0000
0000
0000
,
0010
0000
0000
0000
,
1000
0000
1000
0000
,
0001
0000
0001
0000
,
0100
0000
0000
0000
,
1000
0000
1000
0000
,
1000
0000
0000
0000
,
0001
0000
0001
0000
,
0100
0000
0010
0000
,
1000
1000
1000
0000
,
0001
0001
0001
0000
,
0100
0100
0100
0000
,
0010
0010
0010
0000
,
1000
1000
1000
0000
,
0001
0000
0000
0000
,
0010
0010
0010
0000
,
0100
0000
0000
0000
,
0001
0000
0000
0000
,
1000
0000
0000
0000
,
0010
0010
0010
0010
,
0000
0000
0000
0000
,
0100
0000
0000
0000
,
0010
0000
0000
0000
,
0001
0001
0001
0001
,
0000
0000
0000
0000
,
1000
0000
0000
0000
,
0010
0000
0000
0000
,
0001
0000
0000
0000
,
0020
0000
0030
0000
,
2000
0000
3000
0000
,
0010
0000
1000
0000
,
0001
0000
0100
0100
,
0100
0000
0000
0000
,
0001
0000
1000
0000
,
0010
0000
0000
0000
,
0100
0000
0000
0000
,
0001
0000
0100
0000
,
1000
0000
0000
0000
,
0010
0000
0100
0000
,
0001
0000
1000
0000
,
0100
0100
0100
0000
,
1000
1000
1000
0000
,
0010
0010
0010
0000
,
0001
0001
0001
0000
,
0010
0010
0010
0000
,
1000
0000
0000
0000
,
0100
0100
0100
0000
,
0001
0000
0000
0000
,
0010
0000
0000
0000
,
0100
0000
0000
0000
,
1000
1000
1000
1000
,
0000
0000
0000
0000
,
1000
0000
0000
0000
,
0010
0000
0000
0000
,
0100
0100
0100
0100
,
0000
0000
0000
0000
,
0001
0000
0000
0000
,
0100
0000
0000
0000
,
0010
0000
0000
0000
,
0002
0000
0003
0000
,
2000
0000
3000
0000
,
0010
0000
0100
0000
,
0010
0000
1000
1000
,
1000
0000
0000
0000
,
0001
0000
0100
0000
,
0001
0000
0000
0000
,
0010
0010
0010
0010
,
0010
0000
0010
0000
,
0100
0000
0100
0000
,
0001
0001
0001
0001
,
0000
0000
0000
0000
,
1000
0000
1000
0000
,
0001
0000
0001
0000
,
0100
0100
0100
0100
;

//---------------dance-single - X Scale 15----------------
#NOTES:
     dance-single:
     :
     Challenge:
     10:
     0.876062,0.923494,0.967816,0.035193,0.259551,697.000000,587.000000,110.000000,4.000000,0.000000,0.000000,0.876062,0.923494,0.967816,0.035193,0.259551,697.000000,587.000000,110.000000,4.000000,0.000000,0.000000:
// measure 0
0000
0000
0000
0000
,  // measure 1
0000
0000
0000
0000
,  // measure 2
0000
0000
0000
0000
,  // measure 3
0000
0000
0000
0000
,  // measure 4
1001
0100
1001
0000
0001
0010
0100
1000
,  // measure 5
1010
0010
0100
0102
0000
1000
1000
1003
,  // measure 6
1100
0000
0100
0000
0010
0000
0011
0000
0000
0000
0001
1000
0001
1000
0001
0000
,  // measure 7
1000
0100
1000
0100
0010
0100
0010
0100
0010
0001
0010
0001
0010
0100
1000
0000
,  // measure 8
0100
0010
0100
1000
0001
1000
0010
0001
,  // measure 9
0011
0100
0110
0000
1100
1100
0001
1001
,  // measure 10
0010
0001
0100
0001
1000
0100
0010
1000
,  // measure 11
1100
1000
0001
0101
0001
0010
0100
0000
,  // measure 12
1100
1000
1010
0010
0110
0100
0101
0000
,  // measure 13
0001
0010
0001
0010
0100
0000
0100
0000
0010
0000
1000
0000
1000
0000
1001
0000
,  // measure 14
1000
0100
0010
0001
0100
0010
1000
0001
,  // measure 15
0100
0000
0001
0010
0001
0010
0001
1000
0100
1000
0100
1000
0100
0000
0010
0000
,  // measure 16
0011
0100
1010
0000
0001
0100
0010
0100
,  // measure 17
0001
0010
0100
1000
0100
0010
0001
0201
,  // measure 18
0010
0000
0310
0100
0001
0010
0100
1000
,  // measure 19
0100
0100
0100
0100
0100
0100
0100
0100
,  // measure 20
0001
0010
0001
0110
0100
1000
0100
1001
,  // measure 21
0010
0100
1000
0101
0100
0010
0001
1100
,  // measure 22
0010
0010
0010
0010
0001
0100
1000
1010
,  // measure 23
0010
0100
0100
0100
0100
0010
1000
1001
,  // measure 24
0010
1000
0100
1010
0001
0100
1000
0011
,  // measure 25
0100
0010
0100
1010
1000
0001
1000
0110
,  // measure 26
0100
0100
0100
0100
0100
0010
0001
1001
,  // measure 27
1000
0100
0100
0100
0100
1000
1001
0110
,  // measure 28
0000
0000
0010
0100
0000
0000
0100
0001
0000
0000
0001
1000
0000
0000
1000
0010
,  // measure 29
0000
0000
0010
0100
0000
0000
0100
0001
0000
0000
0001
1000
0000
0000
1000
0010
,  // measure 30
0000
0000
0010
0100
0000
0000
0100
0001
0000
0000
0001
1000
0010
0000
1000
0000
,  // measure 31
1100
1100
0010
0101
0000
1001
0100
0000
,  // measure 32
1010
1010
0001
0011
0000
0110
1000
0000
,  // measure 33
1001
1001
0100
0110
0000
1100
0000
0101
,  // measure 34
0000
1100
0000
0011
1010
0100
1010
0000
,  // measure 35
1001
0100
1001
0000
0001
1000
0100
1000
,  // measure 36
0010
0100
0010
0100
1000
0001
1000
0001
,  // measure 37
0101
0000
1000
0000
0101
0000
0000
0000
0010
0000
0100
1000
0100
0000
0010
0001
,  // measure 38
0100
0010
0100
0010
0100
0001
0100
0001
1000
0100
1000
0010
1000
0000
0010
0000
,  // measure 39
1000
0100
0010
0001
1000
0010
0100
0001
,  // measure 40
0011
0100
0110
0000
1100
1100
0001
1001
,  // measure 41
0001
0010
0100
0001
1000
0100
1000
0010
,  // measure 42
0100
0010
0100
1000
0001
0001
0001
0000
,  // measure 43
0011
0010
0110
0100
1100
1000
0001
0011
,  // measure 44
0100
0010
0010
0010
1000
1000
0001
0110
,  // measure 45
1000
0100
1000
0100
0010
0001
0010
0001
,  // measure 46
1000
0100
1000
0100
1000
0010
1000
0010
1000
0001
1000
0001
1000
0000
1000
0000
,  // measure 47
1010
0001
0011
0000
0100
0010
1000
0001
,  // measure 48
0010
1000
0100
0010
0100
0001
1000
2001
,  // measure 49
0100
0000
3100
1000
0010
0100
0001
0010
,  // measure 50
0100
0100
0100
0100
0100
0100
0100
0100
,  // measure 51
1000
0010
0001
1100
0100
0010
0001
0110
,  // measure 52
0001
0100
0001
0110
1000
0100
1000
1100
,  // measure 53
1000
1000
1000
1000
0100
0100
0010
0011
,  // measure 54
0001
1000
1000
1000
0010
0100
0100
1001
,  // measure 55
0010
1000
0010
0110
0100
1000
0100
1010
,  // measure 56
0001
0100
1000
0110
0010
0100
0010
1010
,  // measure 57
0001
0001
0001
0001
0100
0010
1000
0110
,  // measure 58
0100
0010
0010
0010
1000
0100
0101
1100
,  // measure 59
0000
0000
1000
0100
0000
0000
0100
0010
0000
0000
0010
0001
0000
0000
0001
1000
,  // measure 60
0000
0000
1000
0100
0000
0000
0100
0010
0000
0000
0010
0001
0000
0000
0001
1000
,  // measure 61
0000
0000
1000
0100
1000
0000
0001
0100
0001
0000
0010
0100
0010
0000
0000
0000
,  // measure 62
0011
0011
0100
1100
0000
0101
0001
0000
,  // measure 63
1010
1010
1000
0110
0000
1001
0010
0000
,  // measure 64
0011
0011
0100
0110
0000
1100
0000
0011
,  // measure 65
0000
1001
0000
0101
1010
0010
1010
0000
,  // measure 66
0110
0001
1010
0000
1000
0100
0010
0001
,  // measure 67
0100
0001
0010
0100
1000
0010
1000
0001
,  // measure 68
0011
0000
0100
0000
0110
0000
0000
0000
0001
0000
0010
0000
0100
0000
1000
0100
,  // measure 69
1000
0001
0100
0001
0010
0001
0010
0001
0100
0010
0100
0010
1000
0000
0001
0000
,  // measure 70
0010
0001
0010
0110
0100
1000
0100
1001
,  // measure 71
0010
0100
1000
0101
0010
0100
0001
1100
,  // measure 72
0010
0100
0010
0100
0001
1000
0001
1000
,  // measure 73
0100
1000
0100
1000
0001
0010
0001
0010
,  // measure 74
1000
0100
0001
0011
0100
0010
1000
1010
,  // measure 75
0100
0010
0001
1100
0010
0100
1000
1001
,  // measure 76
0010
1000
0010
0100
0010
0001
0020
0000
,  // measure 77
0000
0000
0000
0030
;
