#TITLE:Part of Your World;
#SUBTITLE:;
#ARTIST:Q\;indivi;
#TITLETRANSLIT:;
#SUBTITLETRANSLIT:;
#ARTISTTRANSLIT:;
#GENRE:;
#CREDIT:;
#BANNER:[Covered Up] - Part of Your World.png;
#BACKGROUND:[Covered Up] - Part of Your World-bg.png;
#LYRICSPATH:;
#CDTITLE:;
#MUSIC:01 Part of Your World.ogg;
#OFFSET:0.010045;
#SAMPLESTART:85.840118;
#SAMPLELENGTH:12.000000;
#SELECTABLE:YES;
#BPMS:0.000000=124.999992
;
#STOPS:
;
#BGCHANGES:;
#KEYSOUNDS:;
#ATTACKS:;

//---------------dance-single - ----------------
#NOTES:
     dance-single:
     :
     Hard:
     7:
     0.343975,0.441874,0.195636,0.391272,0.063958,320.000000,294.000000,26.000000,52.000000,0.000000,0.000000,0.343975,0.441874,0.195636,0.391272,0.063958,320.000000,294.000000,26.000000,52.000000,0.000000,0.000000:
0000
0000
0000
0000
,
0000
0000
0000
0000
,
0000
0000
0000
0000
,
0000
0000
0000
0000
,
0000
0000
0000
0000
,
0000
0000
0000
0000
,
0000
0000
0000
0000
,
0000
2002
0000
0000
,
3003
0000
0000
0000
,
0000
0220
0000
0000
,
0330
0000
0000
0000
,
0000
1020
1000
0100
,
1030
0201
0001
0010
,
0301
0120
0100
1000
,
0130
2001
0001
0100
,
3001
0012
0010
1000
,
0013
1200
1000
0001
,
1300
2001
0001
0100
,
3001
0000
0000
0000
1000
0000
0001
0000
1000
0000
0001
1000
0001
1000
0001
1000
,
0002
0000
0203
0000
0010
0000
0310
1000
,
0001
1000
0020
0000
0100
0000
0130
0001
,
0010
0100
1000
0010
0100
0001
0010
0100
,
1000
0001
2000
0000
0001
0000
3001
0100
,
0010
1000
0001
0100
0010
1000
0100
0010
,
0001
1000
0002
0000
1000
0000
1003
0100
,
1000
0001
0100
0001
1000
0010
1000
0001
,
0010
0001
2000
0000
0001
0000
3001
0000
,
1000
0000
0001
0100
0001
0200
0000
0001
,
0301
0000
1000
0100
1000
0200
0000
1000
,
1300
0000
0100
0010
0100
0020
0000
0032
,
0000
0000
1003
0000
0001
0000
0000
0001
0000
0000
0001
0000
1000
0000
0000
0000
,
0110
0000
0010
1000
0010
2000
0000
3100
,
0010
0000
0200
0000
0000
0000
0000
0000
1300
0000
0001
0000
0100
0000
0000
0011
,
0000
0000
2200
0000
0000
0000
3300
0000
0000
0000
0000
0000
0110
0000
0000
1010
,
0000
0000
0202
0000
0000
0000
0303
0000
0000
0000
0000
0000
0001
0000
0000
1000
,
0000
0010
0200
0000
0001
0000
0310
1000
,
0100
0010
0002
0000
0100
0000
2003
0000
,
0100
0000
3001
1000
0001
2000
0000
3100
,
0100
0000
1000
0001
0000
0002
0000
0000
,
0003
0000
0001
0100
0010
2000
0000
3002
,
0000
0000
0013
0000
0100
0000
0000
0100
0000
0000
0100
0000
0000
0000
2000
0000
,
0000
0000
3001
0000
0001
0001
0000
1000
,
0100
0000
1000
0010
0100
0000
0010
0100
,
0001
0000
2002
0000
,
3003
0000
0000
0000
0001
0000
0010
0000
0100
0000
1000
0100
1000
0100
1000
0100
,
2000
0000
3001
0000
0101
0000
0001
0010
,
0001
1000
0100
0000
1010
0000
0010
1000
,
0010
0100
0020
0000
1030
1000
0000
0011
,
0000
0000
1100
0000
0000
0000
2002
0000
0000
0000
3003
0000
0001
0000
0000
0100
,
0000
0000
0010
0000
2000
0000
0000
0000
3001
0000
0000
0000
1000
0000
0000
0100
,
0000
0000
0010
0000
0002
0000
0000
0000
1003
0000
0000
0000
0010
0000
0000
1000
,
0000
0001
0200
0000
0010
0000
0001
0000
,
0310
0000
1000
0100
0010
0001
1000
0001
,
0100
0010
1000
0000
0101
0000
0001
0010
,
0001
0100
0010
0000
1100
0000
0001
0100
,
0010
1000
0002
0000
1003
1000
0000
0101
,
0000
0000
0011
0000
0000
0000
2002
0000
0000
0000
3003
0000
0001
0000
0000
0100
,
0000
0000
0010
0000
2000
0000
0000
0000
3001
0000
0000
0000
1000
0000
0000
0100
,
0000
0000
0010
0000
0002
0000
0000
0000
1003
0000
0000
0000
0010
0000
0000
0100
,
0000
0001
2000
0000
3100
0000
0002
0000
,
0103
0000
2000
0000
3100
1000
0001
0100
,
0010
1000
0001
0000
0001
0010
0000
0010
,
0001
0100
0010
0000
0010
0100
0000
0100
,
0001
1000
0100
0000
0100
1000
0000
1000
,
0010
0100
0001
0000
0001
1000
0000
1000
,
0001
0100
0010
0000
0000
0000
0000
0000
;

//---------------dance-single - ----------------
#NOTES:
     dance-single:
     :
     Medium:
     5:
     0.228958,0.294582,0.127916,0.240783,0.067720,213.000000,196.000000,17.000000,32.000000,0.000000,0.000000,0.228958,0.294582,0.127916,0.240783,0.067720,213.000000,196.000000,17.000000,32.000000,0.000000,0.000000:
0000
0000
0000
0000
,
0000
0000
0000
0000
,
0000
0000
0000
0000
,
0000
0000
0000
0000
,
0000
0000
0000
0000
,
0000
0000
0000
0000
,
0000
0000
0000
0000
,
0000
0020
0000
0000
,
0030
0000
0000
0000
,
0000
0200
0000
0000
,
0300
0000
0000
0000
,
0000
2000
0100
0000
,
3100
0002
0100
0000
,
0103
1000
0100
0010
,
0001
0100
0010
1000
,
0001
2000
0010
0000
,
3010
0002
0010
0000
,
0013
0001
0100
0001
,
0010
0000
0100
0000
0010
0000
0001
1000
,
0001
1000
0001
0000
1000
0000
1000
0000
,
1000
0011
0100
0100
,
0100
1001
1000
1000
,
1000
0110
0001
0001
,
0001
0110
1000
1000
,
1000
0011
0001
0001
,
0001
1010
0010
0010
,
0010
1100
1000
0001
,
1000
0000
0001
0010
0100
2000
0000
0000
,
3000
0000
0001
0010
0100
2000
0000
3000
,
0000
0000
1000
0100
0010
0002
0000
2003
,
0000
0000
3100
0000
0100
0000
0000
1000
0000
0000
1000
0000
1000
0000
0000
0000
,
0000
0000
1000
0100
0010
0001
0000
0001
,
0100
0000
0002
0000
0000
0000
0000
0000
0003
0000
0001
0000
0100
0000
0000
0100
,
0000
0000
0100
0000
0000
0000
0000
0000
0000
0000
0000
0000
0010
0000
0000
0010
,
0000
0000
0010
0000
0000
0000
0000
0000
0000
0000
0000
0000
1000
0000
0000
0001
,
0000
1000
2002
0000
0000
0000
0000
0000
,
3003
0011
0000
0101
,
0000
0000
1010
1000
0100
0020
0000
0031
,
0100
0000
0001
0200
0000
0302
0000
0003
,
0000
0000
1000
0100
0010
0002
0000
0023
,
0000
0000
0031
0000
1000
0000
0000
0001
0000
0000
0200
0000
0000
0000
0302
0000
,
0000
0003
0001
0000
0001
0100
0000
0100
,
0010
0000
0010
1000
0100
0000
0010
0001
,
0100
0000
2002
0000
,
0000
3003
0000
0000
0000
0000
0000
0000
0000
0000
0000
0000
1000
0000
0000
0100
,
0000
0000
1000
0000
0020
0000
0000
0000
0030
0000
0000
0000
0100
0000
0000
0001
,
0000
0000
0100
0000
0020
0000
0000
0000
0030
0000
0000
0000
1000
0000
0000
0100
,
0000
0000
0010
0000
0001
0000
0000
0100
0000
0000
0001
0000
0000
0000
0100
0000
,
0000
0000
0001
0000
0000
0000
0100
0000
0000
0000
0000
0000
0010
0000
0000
1000
,
0000
0000
0010
0000
0200
0000
0000
0000
0300
0000
0000
0000
0001
0000
0000
0010
,
0000
0000
0100
0000
0020
0000
0000
0000
0030
0000
0000
0000
0001
0000
0000
1000
,
0000
0001
0200
0000
0000
0000
0000
0000
,
0000
0000
0000
0000
0300
0000
0000
0000
0000
0000
0000
0000
0010
0000
0000
0001
,
0000
0000
0100
0000
0002
0000
0000
0000
0003
0000
0000
0000
1000
0000
0000
0100
,
0000
0000
1000
0000
0020
0000
0000
0000
0030
0000
0000
0000
0100
0000
0000
0001
,
0000
0100
0010
0000
1000
0100
0000
0010
,
0000
0000
0100
0000
0000
0000
0010
0000
0000
0000
0000
0000
0001
0000
0000
0100
,
0000
0000
0001
0000
0200
0000
0000
0000
0000
0300
0000
0000
0010
0000
0000
1000
,
0000
0000
0010
0000
2000
0000
0000
0000
0000
3000
0000
0000
1000
0000
0000
0100
,
0000
0010
0002
0000
0000
0000
0000
0000
,
0000
0000
0000
0003
0000
0000
0000
0000
0000
0000
0000
0000
0000
0000
0000
0000
,
0000
1010
0000
0000
,
0000
1100
0000
0000
,
0000
0011
0000
0000
,
0000
0101
0000
0000
,
0000
1001
0000
0000
;

//---------------dance-single - ----------------
#NOTES:
     dance-single:
     :
     Easy:
     3:
     0.168763,0.249248,0.090293,0.097818,0.000000,157.000000,145.000000,12.000000,13.000000,0.000000,0.000000,0.168763,0.249248,0.090293,0.097818,0.000000,157.000000,145.000000,12.000000,13.000000,0.000000,0.000000:
// measure 0
0000
0000
0000
0000
,  // measure 1
0000
0000
0000
0000
,  // measure 2
0000
0000
0000
0000
,  // measure 3
0000
1000
0000
0000
,  // measure 4
0000
0000
0000
0000
,  // measure 5
0000
1000
0000
0000
,  // measure 6
0000
0000
0000
0000
,  // measure 7
0000
0001
0000
0000
,  // measure 8
0000
0000
0000
0000
,  // measure 9
0000
0001
0000
0000
,  // measure 10
0000
0000
0000
0000
,  // measure 11
0000
0100
0100
0100
,  // measure 12
0100
0000
0000
0000
,  // measure 13
0000
0010
0010
0010
,  // measure 14
0010
0000
0000
1000
,  // measure 15
1000
1000
1000
0000
,  // measure 16
0000
0000
0000
0001
,  // measure 17
0001
0001
0001
0000
,  // measure 18
0000
0100
0010
1000
,  // measure 19
2002
3003
0001
0000
,  // measure 20
0001
1000
0100
0010
,  // measure 21
0100
1000
0010
0100
,  // measure 22
0001
0200
0300
0000
,  // measure 23
0000
0010
1000
0100
,  // measure 24
1000
0002
0003
0000
,  // measure 25
0000
1000
0100
1000
,  // measure 26
0010
0200
0300
0000
,  // measure 27
0000
0001
0001
0001
,  // measure 28
0000
1000
1000
1000
,  // measure 29
0000
0010
0010
0010
,  // measure 30
0000
0100
0100
0100
,  // measure 31
0000
0001
0000
0001
,  // measure 32
0000
1000
0000
1000
,  // measure 33
0000
0100
0000
0100
,  // measure 34
0000
0010
0000
0010
,  // measure 35
0000
0100
0000
0000
,  // measure 36
0000
0100
0000
0100
,  // measure 37
0000
0110
0000
0010
,  // measure 38
0000
0001
0000
0000
,  // measure 39
0000
0001
0000
0000
,  // measure 40
0000
0100
0000
0000
,  // measure 41
0000
1000
0100
0001
,  // measure 42
0100
1000
0100
0001
,  // measure 43
0100
0000
2002
0000
,  // measure 44
3003
0000
0000
1000
,  // measure 45
1000
1001
0000
1000
,  // measure 46
1000
1100
0000
0001
,  // measure 47
0001
0100
0100
0010
,  // measure 48
0010
1000
1000
0100
,  // measure 49
1000
1010
0000
0100
,  // measure 50
0001
0011
0000
0001
,  // measure 51
0100
1000
0100
0001
,  // measure 52
0010
0100
0010
0001
,  // measure 53
1000
1100
0000
1000
,  // measure 54
0001
0101
0000
0001
,  // measure 55
0001
0100
0010
0010
,  // measure 56
1000
1000
0100
1000
,  // measure 57
0001
0101
0000
0001
,  // measure 58
0010
0011
0000
0001
,  // measure 59
0100
0010
1000
0001
,  // measure 60
1000
0100
0010
0001
,  // measure 61
1000
0002
0000
0000
,  // measure 62
0003
2000
0000
0000
,  // measure 63
3000
0020
0000
0000
,  // measure 64
0030
0200
0000
0000
,  // measure 65
0300
2002
0000
0000
,  // measure 66
0000
3003
0000
0000
;

//---------------dance-single - ----------------
#NOTES:
     dance-single:
     :
     Beginner:
     1:
     0.087069,0.147291,0.045147,0.000000,0.000000,81.000000,75.000000,6.000000,0.000000,0.000000,0.000000,0.087069,0.147291,0.045147,0.000000,0.000000,81.000000,75.000000,6.000000,0.000000,0.000000,0.000000:
0000
0000
0000
0000
,
0000
0000
0000
0000
,
0000
0000
0000
0000
,
0000
0000
0000
0000
,
0000
0000
0000
0000
,
0000
0000
0000
0000
,
0000
0000
0000
0000
,
0000
0000
0000
0000
,
0000
0000
0000
0000
,
0000
0000
0000
0000
,
0000
0000
0000
0000
,
0000
1000
0000
0000
,
0000
1000
0000
0000
,
0000
1000
0000
0000
,
0000
0001
0000
0000
,
0000
0001
0000
0000
,
0000
0001
0000
0000
,
0000
0100
0000
0000
,
0000
0010
0000
0000
,
0000
1000
0000
0000
,
0000
0001
0000
0000
,
0000
0010
0000
0000
,
0000
0001
0000
0000
,
0000
0100
0000
0000
,
0000
1000
0000
0000
,
0000
0001
0000
0000
,
0000
0010
0000
0000
,
0000
0100
0100
0100
,
0000
0010
0000
0010
,
0000
0001
0001
0001
,
0000
1000
0000
1000
,
0000
0001
0001
0001
,
0000
1000
0000
1000
,
0000
0010
0000
0100
,
0000
0010
0000
1000
,
0000
0100
0000
0000
,
0000
0100
0000
0100
,
0000
0100
0000
0000
,
0000
0010
0000
0000
,
0000
0001
0000
0000
,
0000
1000
0000
0000
,
0000
0100
0100
0100
,
0000
0010
0000
0010
,
0000
0000
0001
0000
,
0000
0000
0000
0000
,
0000
0001
0000
0001
,
0000
1000
0000
1000
,
0000
0010
0000
0010
,
0000
0100
0000
0100
,
0000
1001
0000
0000
,
0000
0110
0000
0000
,
0000
1001
0000
0000
,
0000
0000
0000
0000
,
0000
1000
0000
1000
,
0000
0100
0000
0100
,
0000
0010
0000
0010
,
0000
0001
0000
0001
,
0000
0101
0000
0000
,
0000
1010
0000
0000
,
0000
1001
0000
0000
,
0000
0000
0000
0000
,
0000
1000
0000
0000
,
0000
0001
0000
0000
,
0000
0100
0000
0000
,
0000
0010
0000
0000
,
0000
0100
0000
0000
;
