#TITLE:My Boo;
#SUBTITLE:(triple j Like A Version);
#ARTIST:Flume feat. Vince Staples, Kučha, Vera Blue & Ngaiire;
#TITLETRANSLIT:;
#SUBTITLETRANSLIT:;
#ARTISTTRANSLIT:;
#GENRE:Future Bass;
#CREDIT:;
#BANNER:myboo-bn.png;
#BACKGROUND:myboo-bg.png;
#LYRICSPATH:;
#CDTITLE:cdtitle.png;
#MUSIC:myboo.ogg;
#OFFSET:-0.005000;
#SAMPLESTART:29.771999;
#SAMPLELENGTH:14.750000;
#SELECTABLE:YES;
#BPMS:0.000000=129.000000
;
#STOPS:
;
#BGCHANGES:0.000=myboo.mp4=1.000=1=0=1===CrossFade==,
99999=-nosongbg-=1.000=0=0=0 // don't automatically add -songbackground-
;
#KEYSOUNDS:;
#ATTACKS:;

//---------------dance-single - ----------------
#NOTES:
     dance-single:
     X-Scale 13:
     Hard:
     9:
     0.551018,0.659964,0.175990,0.043998,0.531638,526.000000,502.000000,24.000000,6.000000,0.000000,0.000000,0.551018,0.659964,0.175990,0.043998,0.531638,526.000000,502.000000,24.000000,6.000000,0.000000,0.000000:
// measure 0
0000
0000
0000
0000
,  // measure 1
0000
0000
0000
0000
,  // measure 2
0000
0000
0000
0000
,  // measure 3
0000
0000
0000
0000
,  // measure 4
0000
0000
0000
0000
,  // measure 5
0000
0000
0000
0000
,  // measure 6
0000
0000
0000
0000
,  // measure 7
0000
0000
0000
0000
,  // measure 8
0001
0100
0010
1000
0001
1000
0100
0010
0100
1000
0100
1000
,  // measure 9
0001
1000
0001
0010
0001
0010
0100
0010
0001
1000
0000
0001
,  // measure 10
1000
0001
1000
0001
0100
0010
1000
0001
0100
0010
1000
0100
,  // measure 11
1000
0000
0000
0010
0000
0000
1000
0000
0001
0000
1000
0000
0001
0000
0000
0100
0000
0000
0010
0000
0000
0100
0000
0000
,  // measure 12
0001
0000
0000
1000
0000
0000
0100
0000
0000
0001
0000
0000
0100
0000
0010
0000
0100
0000
0010
0000
0001
0000
1000
0000
,  // measure 13
0001
0000
1000
0000
0100
1000
0100
1000
0100
0000
0010
0000
1000
0000
0010
0000
,  // measure 14
0001
0010
0001
0000
1000
0000
0010
0000
0100
0010
0100
0010
0100
0000
0001
0000
,  // measure 15
1000
0000
0000
0010
0000
0000
1000
0000
0001
0000
1000
0000
0010
0000
0000
0100
0000
0000
0001
0000
1000
0000
0001
0000
,  // measure 16
1001
0000
0000
0000
1000
0000
0000
0000
0001
0000
0000
0000
1000
0001
1000
0000
,  // measure 17
0100
0000
0000
0000
1000
0000
0000
0000
0001
0000
0000
0100
0001
0100
0000
0000
,  // measure 18
0001
0000
1000
0000
0001
0000
1000
0000
0000
0000
0000
0000
0100
0000
0000
0000
0000
0000
0001
0000
0000
0100
0000
0000
,  // measure 19
1000
0000
0000
0000
0001
0000
1000
0000
0001
0000
0000
0001
0100
0001
0100
0000
,  // measure 20
0010
0000
0002
0000
0013
0000
1000
0000
0001
0000
0000
0001
0000
1000
0001
0000
,  // measure 21
1000
0000
0100
0000
1000
0000
0001
0100
0000
0100
0000
0100
0010
0100
0000
0000
,  // measure 22
0001
0000
0000
0000
0100
0000
0001
0000
1000
0000
0000
1000
0000
0001
1000
0000
,  // measure 23
0100
0000
0100
0010
0100
0000
0001
0000
0100
0000
0000
0000
1000
0000
0000
0000
,  // measure 24
1001
0000
0000
0000
0001
0000
0010
0100
0010
0001
0010
0001
0000
0000
0000
0000
,  // measure 25
0011
0000
0000
0000
0001
0000
1000
0010
1000
0100
1000
0100
0000
0100
0000
0000
,  // measure 26
0110
0000
0000
0000
0001
0000
1000
0001
1000
0010
1000
0010
0000
0000
0000
0000
,  // measure 27
1010
0000
0010
1000
0010
0000
1000
0001
1000
0000
0000
0000
0100
0010
0001
0010
,  // measure 28
0100
0000
0000
0000
0010
0000
0001
0100
0001
0010
0001
0010
0000
0000
0000
0000
,  // measure 29
0011
0000
0000
0000
0100
0000
0001
0100
0001
0010
0001
0010
0000
0010
0000
0000
,  // measure 30
0110
0000
0000
0000
0100
0000
1000
0010
1000
0100
1000
0100
0000
0000
0000
0000
,  // measure 31
1010
0000
1000
0010
1000
0000
0001
0100
0001
0010
0100
0010
0001
1000
0001
1000
,  // measure 32
0001
1000
0010
0001
0010
0100
0001
0010
,  // measure 33
0100
0000
0010
0000
1000
0000
0010
0000
0001
0000
0000
0001
1000
0000
0010
0000
,  // measure 34
1000
0000
0100
1000
0001
1000
0100
0001
,  // measure 35
0100
0000
0010
0000
0001
0000
0100
0000
0010
0000
0000
1000
0010
0000
1000
0000
,  // measure 36
0100
0000
1000
0001
1000
0010
0100
0001
,  // measure 37
1000
0000
0001
0000
0010
0000
0100
0000
1000
0000
0001
0000
1000
0001
0000
0000
,  // measure 38
0100
0000
0010
1000
0000
0010
0000
0000
1000
0000
0001
1000
0000
1000
0000
0000
,  // measure 39
0010
1000
0000
0100
0000
1000
0000
0001
0010
0000
0001
0000
0100
0001
0000
0000
,  // measure 40
0101
0000
0100
0000
0010
0000
0000
1000
,  // measure 41
0200
0000
2300
0000
3002
1000
0010
1000
,  // measure 42
0013
1000
0001
0000
0100
0000
0000
0010
,  // measure 43
1000
0000
0010
0000
0001
0000
0010
0100
,  // measure 44
0000
0000
0010
0000
1000
0000
0001
0000
0100
0000
0000
0100
0000
0000
0100
0000
,  // measure 45
0001
0100
0010
1000
0100
0000
1000
0000
,  // measure 46
0001
0000
0000
0000
0010
0000
0100
0000
0010
0000
0000
0010
0000
0000
0010
0000
,  // measure 47
0000
0000
0001
0010
0001
0000
1000
0000
0010
0000
0000
0000
1000
0000
0000
0000
,  // measure 48
1001
0000
0000
0000
0001
0000
0000
0000
0100
0000
0000
0000
0010
0100
0010
0000
,  // measure 49
1000
0000
0000
0000
0001
0000
0000
0000
1000
0000
0000
0100
1000
0100
0000
0000
,  // measure 50
1000
0001
1000
0001
1000
0000
0000
0000
0010
0000
0000
0000
0100
0001
0100
0000
,  // measure 51
1000
0000
0000
0000
0100
0000
0000
0000
0001
0000
0000
0010
0001
0010
0000
0000
,  // measure 52
0010
0000
2000
0000
3010
0000
0001
0000
0100
0000
0000
0100
0000
0001
0100
0000
,  // measure 53
0001
0000
1000
0000
0100
0000
1000
0010
0000
0010
0000
0010
0100
0010
0000
0000
,  // measure 54
1000
0000
0001
0000
1000
0000
0100
0000
0010
0000
0000
0010
0000
0100
0010
0000
,  // measure 55
0001
0000
1000
0001
1000
0000
0010
0000
0001
0000
0000
0000
0010
0000
0000
0000
,  // measure 56
0110
0000
0000
0000
0100
0001
0100
0001
0100
0000
0000
0010
0100
0000
0000
0000
,  // measure 57
0101
0000
0000
0000
0000
0000
0001
0000
0000
0000
0000
0000
1000
0000
0000
0000
0001
0000
0000
0000
1000
0000
0000
0000
0010
0000
0000
0000
0000
0000
0100
0000
0000
0010
0000
0000
0000
0000
0000
0010
0000
0000
0000
0000
0000
0000
0000
0000
,  // measure 58
1010
0000
0000
0000
1000
0000
0001
0000
0100
0000
0000
0001
0100
0000
0000
0000
,  // measure 59
0101
0000
0100
0000
1100
1000
0001
0000
,  // measure 60
0011
0000
1000
0100
0001
0100
1000
0000
,  // measure 61
1001
0000
0000
0000
0001
0000
0100
0000
0010
0000
0000
0100
0010
0100
0000
0000
,  // measure 62
0110
0000
0000
0000
0000
0000
0100
0000
0001
0000
1000
0000
0001
0000
0000
0100
0000
0000
1000
0000
0000
0100
0000
0000
,  // measure 63
0010
0000
0000
0000
1000
0000
0000
0000
0001
1000
0001
0000
1000
0000
0100
0000
,  // measure 64
1100
0000
1000
0000
0001
0000
0000
0000
1000
0000
0000
0100
1000
0100
1000
0000
,  // measure 65
0001
0000
0000
0000
0010
0000
0100
0000
0010
0000
0000
0001
0010
0001
0000
0000
,  // measure 66
0101
0000
0100
0000
0010
0000
1000
0000
0001
0000
0000
1000
0001
1000
0000
0000
,  // measure 67
1100
0000
1000
0000
0010
0000
0100
0000
0110
0000
0010
0100
0000
0100
0000
0000
,  // measure 68
0102
0000
0103
0000
0001
0000
0000
0000
1000
0000
0000
0010
1000
0010
1000
0000
,  // measure 69
0100
0000
1000
0000
0010
0000
0100
0000
0001
0000
0000
0100
0001
0100
0000
0000
,  // measure 70
0001
0000
0010
0000
0001
0000
0000
0000
1000
0000
0000
0100
1000
0100
0000
0000
,  // measure 71
0010
0000
0000
0000
1000
0000
0010
0000
0001
0000
0000
1000
0001
1000
0000
0000
,  // measure 72
1001
0000
0000
0000
;

//---------------dance-single - ----------------
#NOTES:
     dance-single:
     X-Scale 10:
     Medium:
     7:
     0.434738,0.580769,0.043998,0.205322,0.304317,415.000000,409.000000,6.000000,28.000000,0.000000,0.000000,0.434738,0.580769,0.043998,0.205322,0.304317,415.000000,409.000000,6.000000,28.000000,0.000000,0.000000:
// measure 0
0000
0000
0000
0000
,  // measure 1
0000
0000
0000
0000
,  // measure 2
0000
0000
0000
0000
,  // measure 3
0000
0000
0000
0000
,  // measure 4
0000
0000
0000
0000
,  // measure 5
0000
0000
0000
0000
,  // measure 6
0000
0000
0000
0000
,  // measure 7
0000
0000
0000
0000
,  // measure 8
2000
3020
0001
1000
,  // measure 9
0032
0023
0230
0000
,  // measure 10
0301
0000
0100
0000
0001
0000
0200
0000
0000
0000
0000
0000
0302
0000
0000
0000
0000
0000
0000
0000
0000
1000
0000
0000
,  // measure 11
2003
0000
3200
0000
0320
0000
0032
0200
,  // measure 12
0303
0200
0320
0000
0001
0000
0100
0000
,  // measure 13
1030
0000
0010
0000
1000
0000
0100
1000
0100
0000
0010
0000
0100
0000
0010
0000
,  // measure 14
0001
0010
0001
0000
1000
0000
0010
0000
0100
0000
0001
0100
0001
0000
0010
0000
,  // measure 15
1000
0000
0000
0010
0000
0000
0001
0000
0010
0000
0001
0000
0010
0000
0000
0100
0000
0000
1000
0000
0100
0000
1000
0000
,  // measure 16
1100
0000
1000
0000
0001
0000
1000
0100
,  // measure 17
0010
0000
0000
0000
0100
0000
0000
0000
1000
0000
0000
0100
0000
0100
0000
0000
,  // measure 18
1000
0000
0000
0000
0100
0000
0000
0000
1000
0000
0000
0000
0100
0000
0000
0000
0000
0000
0000
0000
0000
0000
0000
0000
0010
0000
0000
0000
0000
0000
0000
0000
0000
0000
0000
0000
0001
0000
0000
0100
0000
0000
0000
0000
0000
0000
0000
0000
,  // measure 19
0001
0000
0000
0000
0010
0000
0100
0000
0010
0000
0000
0001
0000
0001
1000
0000
,  // measure 20
0001
0000
0200
0000
0301
0000
0100
0000
0010
0000
0000
0010
0000
0000
0010
0000
,  // measure 21
1000
0000
0100
0000
1000
0000
0001
0100
0000
0100
0000
0001
0000
0001
0000
0000
,  // measure 22
1000
0000
0000
0000
0001
0000
1000
0000
0100
0000
0000
0100
0000
0000
0100
0000
,  // measure 23
0010
0000
0100
0010
0100
0000
1000
0000
0001
0000
0000
0000
0010
0000
0000
0000
,  // measure 24
0011
0000
0000
0000
0001
0000
0010
0000
0001
0000
0010
0001
0000
0000
0000
0000
,  // measure 25
1000
0000
0000
0000
0001
0000
1000
0000
0010
0000
1000
0100
0000
0100
0000
0000
,  // measure 26
1000
0000
0000
0000
0100
0000
0010
0000
0100
0000
0010
0100
0000
0000
0000
0000
,  // measure 27
0001
0000
0100
0000
1000
0000
0100
0000
0010
0000
0000
0000
0001
0010
0001
0010
,  // measure 28
0001
0000
0000
0000
1000
0000
0001
0000
1000
0000
0001
1000
0000
0000
0000
0000
,  // measure 29
0100
0000
0000
0000
1000
0000
0001
0000
1000
0000
0100
0010
0000
0010
0000
0000
,  // measure 30
0100
0000
0000
0000
1000
0000
0010
0000
1000
0000
0010
1000
0000
0000
0000
0000
,  // measure 31
0001
0000
1000
0000
0001
0000
0010
0000
0100
0000
0010
0000
0001
0010
0001
0010
,  // measure 32
0001
0000
0000
0000
1000
0000
0100
0000
1000
0000
0000
1000
0000
0000
1000
0000
,  // measure 33
0100
0000
0001
0000
0100
0000
1000
0000
0001
0000
0000
0001
1000
0000
0001
0000
,  // measure 34
0100
0000
0000
0000
0010
0000
0100
0000
0001
0000
0000
0001
0000
0000
1000
0000
,  // measure 35
0010
0000
0100
0000
0001
0000
0010
0000
0100
0000
0000
0010
0000
0010
0000
0000
,  // measure 36
0001
0000
1000
0001
1000
0100
0001
0100
,  // measure 37
1000
0001
0100
0001
0010
0100
1000
0000
,  // measure 38
0001
0000
0100
0010
0000
0010
0000
0000
1000
0000
0100
0000
1000
0000
0000
0000
,  // measure 39
0001
1000
0000
0010
0000
0100
0000
0001
0010
0000
0001
0000
0010
0000
0000
0000
,  // measure 40
0011
0000
0001
0000
0010
0000
0000
0001
,  // measure 41
2000
3002
2003
0010
,  // measure 42
3001
0000
1000
0000
0100
0000
0000
1000
,  // measure 43
0200
0000
0320
0000
0032
0000
0013
0002
,  // measure 44
0003
0000
0002
0000
1003
0000
0001
0000
1000
0000
0000
1000
0000
0000
1000
0000
,  // measure 45
0000
0001
0100
0010
1000
0000
0100
0000
,  // measure 46
0010
0000
0000
0000
0001
0000
0100
0000
0001
0000
0000
0001
0000
0000
0001
0000
,  // measure 47
0000
0000
0100
0001
0100
0000
0010
0000
0100
0000
0000
0000
0010
0000
0000
0000
,  // measure 48
0110
0000
0001
0000
1000
0000
0001
0010
,  // measure 49
0002
0000
0000
0000
2003
0000
0000
0000
3002
0000
0000
0100
0000
0100
0000
0000
,  // measure 50
0013
0001
0010
0000
0001
0000
1000
0010
,  // measure 51
1000
0000
0000
0000
0100
0000
0000
0000
0010
0000
0000
0100
0000
0100
0000
0000
,  // measure 52
0001
0000
0200
0000
1300
0000
0100
0000
0010
0000
0000
0010
0000
0000
0010
0000
,  // measure 53
0001
0000
1000
0000
0100
0000
1000
0100
0000
0100
0000
0010
0000
0010
0000
0000
,  // measure 54
0001
0000
0010
0000
0001
0000
1000
0000
0100
0000
0000
0100
0000
0000
0100
0000
,  // measure 55
1000
0000
0001
1000
0001
0000
0100
0000
0001
0000
0000
0000
0010
0000
0000
0000
,  // measure 56
0011
0000
0001
0100
0001
0000
0010
0000
,  // measure 57
0100
0000
0000
0000
0000
0000
1000
0000
0000
0000
0000
0000
0010
0000
0000
0000
1000
0000
0000
0000
0010
0000
0000
0000
1000
0000
0000
0000
0000
0000
0100
0000
0000
0010
0000
0000
0000
0000
0000
0010
0000
0000
0000
0000
0000
0000
0000
0000
,  // measure 58
0001
0000
0000
0000
1000
0000
0001
0000
0010
0000
0000
0001
0100
0000
0000
0000
,  // measure 59
0001
0000
0010
0000
0100
1000
0100
0000
,  // measure 60
1000
0000
0001
0100
1000
0100
0001
0000
,  // measure 61
1000
0000
0000
0000
0001
0000
0100
0000
0001
0000
0000
0100
0000
0100
0000
0000
,  // measure 62
0001
0000
0000
0000
0000
0000
1000
0000
0010
0000
1000
0000
0010
0000
0000
0100
0000
0000
1000
0000
0000
0100
0000
0000
,  // measure 63
0010
0000
2000
0000
0001
0000
0100
0100
,  // measure 64
3100
0000
0000
0000
1000
0000
0000
0000
0001
0000
0000
0100
0000
0100
0000
0000
,  // measure 65
0001
0000
0000
0000
0010
0000
0100
0000
0010
0000
0000
0001
0000
0001
0000
0000
,  // measure 66
1000
0000
0000
0000
0010
0000
1000
0000
0001
0000
0000
0100
0000
0100
0000
0000
,  // measure 67
0010
1000
0010
1000
0100
1000
1000
0000
,  // measure 68
1000
0000
0100
0000
0001
0000
0100
0000
1000
0000
0000
0010
0000
0010
0000
0000
,  // measure 69
0100
0000
0001
0000
1000
0000
0010
0000
0100
0000
0000
0010
0000
0010
0000
0000
,  // measure 70
1000
0000
0010
0000
1000
0000
0100
0000
0010
0000
0000
0100
0000
0100
0000
0000
,  // measure 71
0001
0000
0100
0000
1000
0000
0100
0000
0010
0000
0000
0001
0000
0001
0000
0000
,  // measure 72
0011
0000
0000
0000
;

//---------------dance-single - ----------------
#NOTES:
     dance-single:
     X-Scale 5:
     Easy:
     3:
     0.283889,0.343181,0.080662,0.344648,0.029332,271.000000,260.000000,11.000000,47.000000,0.000000,0.000000,0.283889,0.343181,0.080662,0.344648,0.029332,271.000000,260.000000,11.000000,47.000000,0.000000,0.000000:
// measure 0
0000
0000
0000
0000
,  // measure 1
0000
0000
0000
0000
,  // measure 2
0000
0000
0000
0000
,  // measure 3
0000
0000
0000
0000
,  // measure 4
0000
0000
0000
0000
,  // measure 5
0000
0000
0000
0000
,  // measure 6
0000
0000
0000
0000
,  // measure 7
0000
0000
0000
0000
,  // measure 8
2000
0000
0000
0000
,  // measure 9
3002
2003
3002
0000
,  // measure 10
0203
0000
0320
0000
,  // measure 11
2030
0000
3002
0000
0023
0000
0032
0200
,  // measure 12
0303
0200
0000
0000
0000
0000
0000
0000
,  // measure 13
0302
0000
2003
3200
,  // measure 14
0300
2000
0000
3020
,  // measure 15
0230
0000
0302
0000
,  // measure 16
0013
0000
0001
0000
0010
0000
0000
0001
,  // measure 17
2000
3200
0320
0000
,  // measure 18
1030
0000
0010
0000
0001
0000
0000
0010
,  // measure 19
0002
0000
0023
0000
0230
0000
0310
0002
,  // measure 20
0003
0002
1003
0000
0010
0000
0000
1000
,  // measure 21
0000
0100
1000
0001
0010
0000
0010
0000
,  // measure 22
0001
0000
1000
0000
0010
0000
0000
1000
,  // measure 23
0000
0000
0100
0010
0001
0000
0100
0000
,  // measure 24
0101
0000
0000
0000
0001
0000
0000
0000
1000
0000
0000
1000
0000
0000
0000
0000
,  // measure 25
0010
0000
0000
0000
0100
0000
0000
0000
0001
0000
0000
0001
0000
0000
0000
0000
,  // measure 26
0100
0000
0000
0000
0010
0000
0000
0000
1000
0000
0000
1000
0000
0000
0000
0000
,  // measure 27
1100
0000
0110
0000
,  // measure 28
0011
0000
0000
0000
0100
0000
0000
0000
0001
0000
0000
0001
0000
0000
0000
0000
,  // measure 29
0010
0000
0000
0000
0100
0000
0000
0000
1000
0000
0000
1000
0000
0000
0000
0000
,  // measure 30
0010
0000
0000
0000
0100
0000
0000
0000
0001
0000
0000
0001
0000
0000
0000
0000
,  // measure 31
0011
0000
0110
0000
,  // measure 32
1100
0000
1000
0000
0100
0000
1000
0001
,  // measure 33
1000
0000
0010
0000
0100
0000
0001
0100
,  // measure 34
0001
0000
0010
0000
0001
0000
1000
0001
,  // measure 35
1000
0000
0010
0000
0100
0000
0001
0100
,  // measure 36
0001
0000
1000
0000
0010
0000
0100
1000
,  // measure 37
0100
0000
0001
0000
1000
0001
1000
0000
,  // measure 38
0010
0000
0100
0000
0001
0100
0001
0000
,  // measure 39
0100
0000
0010
0000
1000
0100
1000
0000
,  // measure 40
1100
0000
0010
0000
0100
0000
0000
0001
,  // measure 41
2000
3002
2003
0000
,  // measure 42
3100
0000
0010
0000
0100
0000
0000
1000
,  // measure 43
0002
0000
0023
0000
0032
0000
0013
0200
,  // measure 44
0300
0200
0310
0001
0010
0000
0000
0001
,  // measure 45
0000
0000
1000
0010
1000
0000
0100
0000
,  // measure 46
0010
0000
0001
0100
0001
0000
0000
1000
,  // measure 47
0000
0000
0100
0010
0100
0000
0010
0000
,  // measure 48
0011
0001
1000
0001
,  // measure 49
0020
0230
0320
0000
,  // measure 50
0031
0000
0010
0000
0001
0000
1000
0100
,  // measure 51
2000
0000
3200
0000
0320
0000
0032
0203
,  // measure 52
0300
0200
0301
0000
0100
0000
0010
0000
,  // measure 53
1000
0100
1000
0010
,  // measure 54
0100
0001
0010
0100
,  // measure 55
1000
0010
0100
0010
,  // measure 56
0110
0000
0000
0000
0001
0000
0000
0000
1000
0000
0000
1000
0000
0000
0000
0000
,  // measure 57
0100
0000
0000
0000
0010
0000
0000
0000
0001
0000
0000
0001
0000
0000
0000
0000
,  // measure 58
0100
0000
0010
0001
0010
0000
0100
0000
,  // measure 59
0001
0000
1000
0000
0100
0010
0100
0000
,  // measure 60
1000
0000
0100
0010
0100
1000
0100
0000
,  // measure 61
1000
0000
0001
0100
0002
0000
0023
0000
,  // measure 62
0031
0000
0010
0000
0100
0000
0010
0001
,  // measure 63
1000
0002
1000
0100
,  // measure 64
1003
0001
1000
0100
,  // measure 65
1000
0010
0100
0001
,  // measure 66
0010
0001
1000
0100
,  // measure 67
0010
0000
0100
0000
0010
0100
0010
0000
,  // measure 68
0001
1000
0100
1000
,  // measure 69
0001
0100
0010
1000
,  // measure 70
0100
1000
0010
0100
,  // measure 71
0001
0000
1000
0001
1000
0000
0010
0000
,  // measure 72
1010
0000
0000
0000
;
