#TITLE:Mickey Mouse Club March;
#SUBTITLE:(Eurobeat Version);
#ARTIST:Domino;
#TITLETRANSLIT:;
#SUBTITLETRANSLIT:;
#ARTISTTRANSLIT:;
#GENRE:Eurobeat;
#CREDIT:;
#BANNER:Mickey Mouse Club March (Eurobeat Version)-bn.png;
#BACKGROUND:Mickey Mouse Club March (Eurobeat Version)-bg.png;
#LYRICSPATH:;
#CDTITLE:;
#MUSIC:Mickey Mouse Club March (Eurobeat Version).ogg;
#OFFSET:-1.075000;
#SAMPLESTART:57.923828;
#SAMPLELENGTH:12.631584;
#SELECTABLE:YES;
#BPMS:0.000000=152.000000
;
#STOPS:
;
#BGCHANGES:;
#KEYSOUNDS:;
#ATTACKS:;

//---------------dance-single - ----------------
#NOTES:
     dance-single:
     :
     Challenge:
     9:
     0.609279,0.655845,1.027069,0.043520,0.348159,490.000000,372.000000,118.000000,5.000000,0.000000,0.000000,0.609279,0.655845,1.027069,0.043520,0.348159,490.000000,372.000000,118.000000,5.000000,0.000000,0.000000:
// measure 0
0000
0000
0000
0000
,  // measure 1
0000
0000
0000
0000
,  // measure 2
0000
0000
0000
0000
,  // measure 3
0000
0000
0000
0000
,  // measure 4
0000
0000
0000
0000
,  // measure 5
0000
0000
0000
0000
,  // measure 6
0000
0000
0000
0000
,  // measure 7
0000
0000
0000
0000
,  // measure 8
0001
0000
1000
0000
0010
1000
0000
0001
0100
0001
0000
1000
0010
0000
0000
1000
,  // measure 9
0100
0000
0010
0000
0001
0010
0000
0100
1000
0100
0000
0010
0001
0000
0000
0100
,  // measure 10
0001
0000
1000
0000
0100
1000
0000
0001
0010
0001
0000
1000
0100
0000
0000
1000
,  // measure 11
0010
0000
0100
0000
0001
0100
0000
0010
1000
0010
0000
0100
0001
0000
0000
0010
,  // measure 12
0001
0000
1000
0000
0010
0100
0000
0001
0100
0001
0000
0100
0010
0000
0000
1000
,  // measure 13
0001
0000
1000
0000
0100
0010
0000
0001
0010
0001
0000
0010
0100
0000
0000
1000
,  // measure 14
0001
0000
1000
0000
0010
0100
0000
0001
0010
0001
0000
0100
0010
0000
0000
1000
,  // measure 15
0200
0000
0000
0000
0000
0000
0000
0000
0000
0000
0000
0000
1300
0100
1000
0100
,  // measure 16
0010
0000
0001
0000
1000
0000
0001
0000
0011
0000
0000
1100
0000
0000
0011
0000
,  // measure 17
0000
0000
0101
0000
0000
0110
0000
0000
1010
0000
0000
0110
0000
0000
0101
0000
,  // measure 18
0000
0000
0001
0000
1000
0000
0001
0000
0101
0000
0000
1010
0000
0000
0101
0000
,  // measure 19
0000
0001
1000
0100
1100
0000
1100
0000
,  // measure 20
0100
0000
1000
0000
0001
0000
1000
0000
1100
0000
0000
0011
0000
0000
1100
0000
,  // measure 21
0000
0000
1010
0000
0000
0110
0000
0000
0101
0000
0000
0110
0000
0000
1010
0000
,  // measure 22
0000
0000
1000
0000
0001
0000
1000
0000
1010
0000
0000
0101
0000
0000
1010
0000
,  // measure 23
0000
0000
1001
0000
0000
0011
0000
0000
0110
0000
0000
0000
0110
0000
0000
0000
,  // measure 24
0010
0000
0100
0000
1000
0000
0001
0000
0010
0000
0100
1000
0000
0000
0001
0000
,  // measure 25
0100
0010
1000
0001
0100
0000
0000
0000
,  // measure 26
0001
0000
1000
0000
1100
0000
0000
0000
0001
1000
0000
1010
0000
0000
0000
0000
,  // measure 27
0001
1000
0100
1000
1010
0000
0000
0000
,  // measure 28
0010
0000
1000
0000
0001
0000
1000
0100
0000
0000
0010
0000
0001
0000
1000
0000
,  // measure 29
0010
0100
0001
1000
0010
0000
0000
0000
,  // measure 30
1000
0000
0001
0000
0011
0000
0000
0000
1000
0001
0000
0101
0000
0000
0000
0000
,  // measure 31
1000
0001
0010
0001
0101
0000
0100
0010
,  // measure 32
1020
0000
0130
0000
0000
0000
0010
1000
,  // measure 33
2001
0000
3100
0000
0000
0000
0000
1000
,  // measure 34
0100
0010
0001
0100
0000
0001
0010
0001
,  // measure 35
0101
0011
0110
1100
,  // measure 36
1000
0000
1000
0000
0100
0000
0100
0000
0010
0000
0010
0001
0000
0000
0000
0000
,  // measure 37
0001
0100
1000
0100
0001
0000
0000
0000
,  // measure 38
0001
0000
1000
0000
1100
0000
0000
0000
0001
1000
0000
1010
0000
0000
0000
0000
,  // measure 39
0001
1000
0100
1000
1010
0000
0000
0000
,  // measure 40
1000
0000
1000
0000
0010
0000
0010
0000
0100
0000
0100
0001
0000
0000
0000
0000
,  // measure 41
0001
0010
1000
0010
0001
0000
0000
0000
,  // measure 42
0001
0000
1000
0000
1010
0000
0000
0000
0001
1000
0000
1100
0000
0000
0000
0000
,  // measure 43
0001
1000
0010
1000
1100
0000
0001
0100
,  // measure 44
1010
0000
1000
0100
0011
0000
0001
0100
,  // measure 45
1010
0000
0010
0000
1000
0000
0100
0010
0000
0000
0000
0000
0001
0000
0010
0000
,  // measure 46
1100
0000
1000
0000
0001
0000
0010
0100
0000
0000
0000
0000
0000
0000
0000
0000
,  // measure 47
0110
0000
0011
0000
1001
0000
1000
0010
,  // measure 48
0101
0000
0001
0010
1100
0000
1000
0010
,  // measure 49
0101
0000
0100
0000
0001
0000
0010
0100
0000
0000
0000
0000
1000
0000
0100
0000
,  // measure 50
0011
0000
0010
0000
0001
0000
0100
0010
0000
0000
0000
0000
0000
0000
0000
0000
,  // measure 51
0110
1010
1001
0101
,  // measure 52
0100
0000
0001
0000
0010
0000
0001
0000
0101
0000
0000
1010
0000
0000
0101
0000
,  // measure 53
0000
0000
0011
0000
0000
0110
0000
0000
1100
0000
0000
0110
0000
0000
0011
0000
,  // measure 54
0000
0000
0001
0000
1000
0000
0001
0000
0011
0000
0000
1100
0000
0000
0011
0000
,  // measure 55
0000
0001
1000
0010
1010
0000
0110
0000
,  // measure 56
0010
0000
1000
0000
0100
0000
1000
0000
1010
0000
0000
0101
0000
0000
1010
0000
,  // measure 57
0000
0000
1100
0000
0000
0110
0000
0000
0011
0000
0000
0110
0000
0000
1100
0000
,  // measure 58
0000
0000
1000
0000
0001
0000
1000
0000
1100
0000
0000
0011
0000
0000
1100
0000
,  // measure 59
0000
0000
1001
0000
0000
0101
0000
0000
0110
0000
0000
0000
1010
0000
0000
0000
,  // measure 60
0010
0000
1000
0000
0100
0000
1000
0000
1010
0000
0000
0101
0000
0000
1010
0000
,  // measure 61
0000
0000
1100
0000
0000
0110
0000
0000
0011
0000
0000
0110
0000
0000
1100
0000
,  // measure 62
0000
0000
1000
0000
0001
0000
1000
0000
1100
0000
0000
0011
0000
0000
1100
0000
,  // measure 63
0000
1000
0001
0100
0101
0000
0110
0000
,  // measure 64
0100
0000
0001
0000
0010
0000
0001
0000
0101
0000
0000
1010
0000
0000
0101
0000
,  // measure 65
0000
0000
0011
0000
0000
0110
0000
0000
1100
0000
0000
0110
0000
0000
0011
0000
,  // measure 66
0000
0000
0001
0000
1000
0000
0001
0000
0011
0000
0000
1100
0000
0000
0011
0000
,  // measure 67
0000
0000
1001
0000
0000
1010
0000
0000
0110
0000
0000
0000
0101
0000
0000
0000
,  // measure 68
2002
0000
3003
0000
;
