#VERSION:0.83;
#TITLE:I'll Torch Him!;
#SUBTITLE:;
#ARTIST:Laarx;
#TITLETRANSLIT:;
#SUBTITLETRANSLIT:;
#ARTISTTRANSLIT:;
#GENRE:Prog-Rock;
#ORIGIN:;
#CREDIT:;
#BANNER:[Covered Up] - I'll Torch Him!.png;
#BACKGROUND:[Covered Up] - I'll Torch Him!-bg.png;
#PREVIEWVID:;
#JACKET:[Covered Up] - I'll Torch Him!-jacket.png;
#CDIMAGE:;
#DISCIMAGE:;
#LYRICSPATH:;
#CDTITLE:cdtitle.png;
#MUSIC:[Covered Up] - I'll Torch Him!.ogg;
#OFFSET:0.526995;
#SAMPLESTART:68.649483;
#SAMPLELENGTH:11.294118;
#SELECTABLE:YES;
#BPMS:0.000=170.000;
#STOPS:;
#DELAYS:;
#WARPS:;
#TIMESIGNATURES:0.000=4=4;
#TICKCOUNTS:0.000=4;
#COMBOS:0.000=1;
#SPEEDS:0.000=1.000=0.000=0;
#SCROLLS:0.000=1.000;
#FAKES:;
#LABELS:0.000=Song Start;
#BGCHANGES:;
#KEYSOUNDS:;
#ATTACKS:
;

//---------------dance-single - ----------------
#NOTEDATA:;
#CHARTNAME:09-13;
#STEPSTYPE:dance-single;
#DESCRIPTION:;
#CHARTSTYLE:;
#DIFFICULTY:Challenge;
#METER:9;
#RADARVALUES:0.693296,0.694386,0.839368,0.244180,0.122090,636.000000,526.000000,110.000000,32.000000,0.000000,0.000000,0.000000,0.000000,0.000000,0.693296,0.694386,0.839368,0.244180,0.122090,636.000000,526.000000,110.000000,32.000000,0.000000,0.000000,0.000000,0.000000,0.000000;
#CREDIT:;
#NOTES:
// measure 0
0000
0000
0000
0000
,  // measure 1
0000
0000
0000
0000
,  // measure 2
0000
0000
0000
0000
,  // measure 3
0000
0000
0000
0000
,  // measure 4
0000
0000
0000
0000
0000
0000
0000
1000
,  // measure 5
0010
0100
0000
0001
0010
0100
0000
1000
,  // measure 6
0010
0100
0000
0001
0010
0100
0000
1000
,  // measure 7
1010
1000
0000
0001
0011
0001
0000
1000
,  // measure 8
1001
0000
0000
0000
1001
0000
0000
0000
1001
0000
0001
1000
0001
0000
0010
0000
,  // measure 9
0001
0101
0000
0101
0000
0101
0000
1010
,  // measure 10
0000
1010
0000
1010
0000
1001
0000
0011
,  // measure 11
0000
2001
0000
0010
3020
0000
1000
0100
,  // measure 12
0230
0000
0000
0000
0001
0000
0010
0000
0310
0000
1000
0000
0001
0000
1000
0001
,  // measure 13
1000
1100
0000
1100
0000
1100
0000
0011
,  // measure 14
0000
0001
1000
1001
0000
0101
0000
1010
,  // measure 15
0000
2010
0000
0001
3002
0000
0013
0100
,  // measure 16
1000
0000
1001
0000
0000
0000
1001
0000
0000
0000
0001
0100
0001
0000
1000
0000
,  // measure 17
0001
0011
0000
1001
0000
0101
0000
0110
,  // measure 18
0000
1100
0000
0110
0000
0101
0000
1001
,  // measure 19
0000
0011
0001
1000
0002
0000
0100
1000
,  // measure 20
2003
0000
0100
0001
3001
0100
0010
1000
,  // measure 21
0000
1010
0000
1001
0000
1100
0000
0011
,  // measure 22
0000
0001
1000
1010
0000
1100
0000
0011
,  // measure 23
0000
0101
0100
0001
1000
1000
0000
0001
,  // measure 24
0010
0000
0011
0000
0000
0000
1001
0000
0000
0000
1000
0010
1000
0000
0001
0000
,  // measure 25
1000
0000
0001
0010
0001
0000
0010
0000
1000
0000
0010
0000
0000
0000
0011
0000
,  // measure 26
0000
0101
0000
1100
0000
0110
0000
0101
,  // measure 27
0000
0000
0001
0010
0001
0000
0010
0000
1000
0000
0010
0000
0000
0000
0011
0000
,  // measure 28
0000
0000
1001
0000
0000
0000
1020
0000
0000
0000
0130
0000
0001
0000
1000
0010
,  // measure 29
1000
0010
0001
0010
1000
0100
0000
1100
,  // measure 30
0000
0110
0000
0101
0000
0110
0000
1100
,  // measure 31
0000
0000
1000
0010
1000
0000
0010
0000
0001
0000
0010
0000
0000
0000
1010
0000
,  // measure 32
0000
0000
1001
0000
0000
0000
0021
0000
0000
0000
0130
0000
1000
0000
0001
0100
,  // measure 33
0001
0000
1000
0100
1000
0000
0100
0000
0010
0000
0010
0000
0001
0000
0200
0000
,  // measure 34
0000
0301
0100
2000
0000
3100
0001
2000
,  // measure 35
0000
0000
3001
1000
0001
0000
0010
0000
0100
0000
0100
0000
1000
0000
0020
0000
,  // measure 36
0000
0000
0031
0000
0010
0000
2000
0000
0000
0000
3001
0000
0001
0000
1000
0100
,  // measure 37
1000
0000
0001
0100
0001
0000
0100
0000
0010
0000
0010
0000
1000
0000
0200
0000
,  // measure 38
0000
1300
0100
0002
0000
0103
1000
0002
,  // measure 39
0000
0000
1003
0001
1000
0000
0010
0000
0100
0000
0100
0000
0001
0000
0020
0000
,  // measure 40
0000
0000
1030
0000
0010
0000
0001
0000
0100
0000
0001
0000
1000
0100
1000
0100
,  // measure 41
1000
0000
0001
0100
0001
0000
0100
0000
0010
0000
0100
0000
0010
0000
0100
0000
,  // measure 42
1000
0100
0001
0100
1000
0100
0001
0101
,  // measure 43
0000
0000
1000
0100
1000
0000
0100
0000
1000
0000
0010
0000
1000
0000
0010
0000
,  // measure 44
0001
0010
1000
0010
0001
0010
0100
0101
,  // measure 45
0000
0000
1000
0100
1000
0000
0100
0000
0010
0000
0100
0000
0010
0000
0100
0000
,  // measure 46
0001
0100
1000
0100
0001
0100
1000
1100
,  // measure 47
0000
0000
0001
0100
0001
0000
0100
0000
0001
0000
0010
0000
0001
0000
0010
0000
,  // measure 48
1000
0010
0001
0010
1000
0010
0001
0100
,  // measure 49
0010
1010
0000
0011
0000
1010
0000
1100
,  // measure 50
0000
0101
0000
1100
0000
1010
0000
0101
,  // measure 51
0000
1002
0000
0010
0023
0000
0001
0100
,  // measure 52
0230
0000
1000
0010
0310
0001
0100
0010
,  // measure 53
0100
0101
0000
1100
0000
0101
0000
0011
,  // measure 54
0000
0001
1000
1010
0000
1001
0000
0011
,  // measure 55
0000
2100
0000
0001
3002
0000
0103
0010
,  // measure 56
1000
1010
0000
1001
0000
1200
0000
0000
,  // measure 57
1300
1000
0010
1000
0100
0100
0010
0001
,  // measure 58
0100
0100
0010
1000
0100
0100
0001
0100
,  // measure 59
1000
1000
0010
0100
0001
0001
0010
0100
,  // measure 60
1000
0000
0000
1000
0000
0000
0010
0000
0000
0100
0000
0000
0001
0000
1000
0000
0100
0000
1000
0000
0100
0000
1000
0000
,  // measure 61
0001
0001
0010
0001
0100
0100
0010
1000
,  // measure 62
0100
0100
0010
0001
0100
0100
1000
0100
,  // measure 63
0001
0001
0010
0100
1000
1000
0010
0100
,  // measure 64
0001
0000
0000
0001
0000
0000
0010
0000
0000
0100
0000
0000
1000
0000
0001
0000
0100
0000
0001
0000
0100
0000
0001
0000
,  // measure 65
1000
0000
0000
0000
,  // measure 66
0000
0000
0000
0000
0000
0000
0000
0000
0000
0000
0000
0000
0000
0000
0001
1000
,  // measure 67
0001
0000
0000
0000
,  // measure 68
0000
0000
0000
0000
0000
0000
1000
0000
0000
0000
1000
0000
0000
0000
1000
0001
,  // measure 69
2000
0100
0000
0100
,  // measure 70
0000
0000
0000
0000
3100
0000
0000
0000
0000
0000
0000
0000
1001
0000
0001
1000
,  // measure 71
0002
0100
0000
0103
,  // measure 72
0001
0001
1000
1000
0001
0001
1000
1000
,  // measure 73
0001
0010
0001
0101
0000
1000
0100
1100
,  // measure 74
0000
1000
0010
1010
0000
1000
0010
0001
,  // measure 75
0010
1000
0100
1100
0000
0001
0100
0101
,  // measure 76
0000
0001
0010
0011
0000
0001
0010
0100
,  // measure 77
1100
0000
1001
0000
0201
0000
0000
0310
,  // measure 78
1010
1001
0011
1002
,  // measure 79
1003
0010
0100
0101
0000
1000
0100
1100
,  // measure 80
0000
0001
0010
0011
0000
0100
1000
0001
,  // measure 81
0101
0000
1001
0000
1200
0000
0000
0310
,  // measure 82
0011
1001
1010
1002
,  // measure 83
0013
0100
0010
0011
0000
1000
0010
1010
,  // measure 84
0000
0000
0001
0000
0100
0000
0101
0000
0000
0000
1000
0000
0100
0000
0010
0100
,  // measure 85
0010
0001
0100
0010
1000
1000
0100
0010
,  // measure 86
0001
0001
0100
0010
1000
1000
0001
1000
,  // measure 87
0100
0001
0100
1000
0010
0001
0010
1000
,  // measure 88
0100
0010
0001
0100
1000
0001
0010
1000
,  // measure 89
2002
0000
0000
0000
,  // measure 90
0000
0000
0000
0000
,  // measure 91
3003
0000
0000
0000
;

//---------------dance-single - ----------------
#NOTEDATA:;
#CHARTNAME:07-10;
#STEPSTYPE:dance-single;
#DESCRIPTION:;
#CHARTSTYLE:;
#DIFFICULTY:Hard;
#METER:7;
#RADARVALUES:0.497080,0.624948,0.557035,0.419684,0.000000,456.000000,383.000000,73.000000,55.000000,0.000000,0.000000,0.000000,0.000000,0.000000,0.497080,0.624948,0.557035,0.419684,0.000000,456.000000,383.000000,73.000000,55.000000,0.000000,0.000000,0.000000,0.000000,0.000000;
#CREDIT:;
#NOTES:
0000
0000
0000
0000
,
0000
0000
0000
0000
,
0000
0000
0000
0000
,
0000
0000
0000
0000
,
0000
0000
0000
0000
0000
0000
0000
0001
,
0100
0001
0000
0001
0010
0001
0000
1000
,
0100
1000
0000
1000
0010
1000
0000
0001
,
0010
0100
0000
1000
0010
0100
0000
0001
,
0010
0000
0010
0000
0001
1000
0001
1000
,
0000
0001
0000
0100
0000
1000
0000
0001
,
0000
0010
0000
1000
0000
0001
0000
0010
,
0000
0200
0000
0000
2000
0000
0300
0000
,
0002
0000
3000
0000
1003
0010
0100
0001
,
0000
1000
0000
0100
0000
0001
0000
1000
,
0000
0010
0100
0010
0000
0001
0000
1000
,
0000
0020
0000
0000
0200
0000
0030
0000
,
0301
1000
0000
1001
0000
2002
0000
3003
,
0000
0011
0000
1001
0000
0101
0000
1010
,
0000
1001
0000
1100
0000
0011
0000
1001
,
0000
0201
0000
0000
2000
0000
0300
0000
,
0200
0000
3000
0000
0301
0100
0010
1000
,
0000
1010
0000
1001
0000
1100
0000
0011
,
0000
0001
1000
0001
0000
0101
0000
1010
,
0000
1200
0000
0000
0002
0000
0300
0000
,
0103
0010
0000
0110
0000
2002
0000
3003
,
0000
1000
0010
1000
0010
1000
0000
0020
,
0000
0230
0000
2300
0000
3200
0000
0302
,
0000
0013
0001
0010
0001
0010
0000
0200
,
0000
2300
0000
3020
0000
1000
0030
1000
,
0000
0001
0010
0001
0010
0001
0000
0020
,
0000
0230
0000
0302
0000
0203
0000
2300
,
0000
3010
1000
0010
1000
0010
0000
0200
,
0000
0302
0000
0023
0000
0130
0010
0001
,
0000
0001
0100
0010
0100
0001
0000
0101
,
0000
1001
0000
1100
0000
1001
0000
0101
,
0000
1000
0010
1000
0100
1000
0000
0011
,
0000
1001
0000
2010
0000
0001
0000
3001
,
0000
1000
0100
0010
0100
1000
0000
1100
,
0000
1001
0000
0101
0000
1001
0000
1100
,
0000
0001
0010
0001
0100
0001
0000
1010
,
0000
1001
0000
0012
0000
1003
0001
1000
,
0001
0001
0100
0100
,
0010
1000
0010
0000
1000
0001
0010
0001
,
1000
1000
0100
0100
,
0010
0001
0010
0000
0001
1000
0010
1000
,
0100
0100
1000
1000
,
0010
1000
0010
0000
0100
0001
1000
0001
,
0100
0100
0001
0001
,
0010
0001
0010
0000
0100
1000
0001
1000
,
0000
0101
0000
0101
0000
0101
0000
1010
,
0000
1010
0000
1010
0000
1001
0000
1100
,
0000
0210
0000
0000
0002
0000
0300
0000
,
0200
0000
0003
0000
1300
0010
0100
0001
,
0000
0011
0000
0011
0000
0011
0000
1100
,
0000
1000
0001
1000
0000
1001
0000
0101
,
0000
0210
0000
0000
2000
0000
0300
0000
,
3100
0010
0000
0110
0000
1002
0000
0000
,
1003
0000
0001
0010
0001
0000
0001
1000
,
0001
0000
0001
0100
0001
0000
0001
1000
,
0001
0000
1000
0010
1000
0000
1000
0001
,
1000
0000
1000
0100
1000
0000
1000
0001
,
1000
0000
0001
0100
0010
0000
1000
0010
,
0100
0000
0001
0100
0010
0000
1000
0010
,
0100
0000
0001
0010
0100
0000
1000
0100
,
0010
0000
0001
0010
0100
0000
1000
0001
,
0100
0000
0000
0000
,
0000
0000
0000
0000
,
0110
0000
0000
0000
,
0000
0000
0000
0001
0000
0001
0000
0000
,
2001
0100
0000
0100
,
0000
0100
0000
3100
,
1002
0100
0000
0103
,
0001
0100
0001
0100
0010
1000
0010
1000
,
0001
0010
0000
1100
0000
0001
0000
0101
,
0000
1000
0000
1010
0000
0001
0000
1000
,
0001
1000
0000
0101
0000
1000
0000
1100
,
0000
0001
0000
0011
0000
1000
0000
0001
,
0200
0000
0320
0000
2030
0000
0000
3010
,
0002
0023
2030
3200
,
0310
0001
0000
0101
0000
0010
0000
1010
,
0000
0100
0000
0101
0000
0010
0000
1000
,
0200
0000
0320
0000
0032
0000
0000
0013
,
2000
3020
0032
0203
,
0310
1000
0000
1100
0000
0010
0000
0011
,
0000
0100
0000
1100
0000
0010
0001
1000
,
0010
0010
0100
0100
,
0001
0001
1000
1000
,
1100
0011
0101
1010
,
0001
0010
0100
1000
0001
0010
0100
1000
,
0002
0000
0000
0000
,
0000
0000
0000
0000
,
0003
0000
0000
0000
;

//---------------dance-single - ----------------
#NOTEDATA:;
#CHARTNAME:05-07;
#STEPSTYPE:dance-single;
#DESCRIPTION:;
#CHARTSTYLE:;
#DIFFICULTY:Medium;
#METER:5;
#RADARVALUES:0.337927,0.381912,0.076306,0.358639,0.000000,310.000000,300.000000,10.000000,47.000000,0.000000,0.000000,0.000000,0.000000,0.000000,0.337927,0.381912,0.076306,0.358639,0.000000,310.000000,300.000000,10.000000,47.000000,0.000000,0.000000,0.000000,0.000000,0.000000;
#CREDIT:;
#NOTES:
0000
0000
0000
0000
,
0000
0000
0000
0000
,
0000
0000
0000
0000
,
0000
0000
0000
0000
,
0000
0000
0000
0000
,
1000
1000
0010
0010
,
1000
1000
0001
0001
,
0010
0010
0001
0001
,
1000
0010
0100
0001
,
0000
0001
0000
0010
0000
0001
0000
1000
,
0000
0010
0000
1000
0000
0001
0000
0100
,
0000
0002
0000
0000
2000
0000
0003
0000
,
0200
0000
3000
0000
0310
0000
0010
0001
,
0000
1000
0000
0010
0000
1000
0000
0001
,
0000
0010
0000
0001
0000
1000
0000
0100
,
0000
2000
0000
0000
0002
0000
3000
0000
,
0103
0000
0000
0110
0000
0220
0000
0330
,
0000
1000
0000
0010
0000
0001
0000
1000
,
0000
0100
0000
0001
0000
1000
0000
0100
,
0000
0020
0000
0000
0002
0000
0030
0000
,
2000
0000
0003
0000
3010
0000
0010
1000
,
0000
0001
0000
0010
0000
1000
0000
0001
,
0000
0100
0000
1000
0000
0001
0000
0100
,
0000
0020
0000
0000
2000
0000
0030
0000
,
3100
0000
0000
1001
0000
2002
0000
3003
,
0000
0001
0000
0010
0001
0010
0000
0001
,
0000
0001
0000
1000
0000
0001
0000
0100
,
0000
0001
0000
1000
0100
1000
0000
0001
,
0000
0010
0000
0002
0000
0000
0003
0000
,
0000
1000
0000
0010
1000
0010
0000
1000
,
0000
1000
0000
0001
0000
1000
0000
0100
,
0000
1000
0000
0001
0100
0001
0000
1000
,
0000
0010
0000
2000
0000
0000
3000
0000
,
0000
0001
0000
0010
0001
1000
0000
0001
,
0000
0100
0000
1000
0000
0100
0000
0001
,
0000
0010
0000
0100
0010
0001
0000
1000
,
0000
0010
0000
0220
0000
0000
0330
0000
,
0000
1000
0000
0010
1000
0001
0000
1000
,
0000
0100
0000
0001
0000
0100
0000
1000
,
0000
0010
0000
0100
0010
1000
0000
0001
,
0000
0010
0000
0220
0000
0000
0330
0000
,
1000
1000
0010
0010
,
0100
0000
0100
0000
0002
0000
0000
0013
,
0000
0001
0100
0100
,
0010
0000
0010
0000
2000
0000
0000
3100
,
0000
1000
0001
0001
,
0100
0000
0100
0000
0020
0000
0000
1030
,
0000
0001
0010
0010
,
0100
0000
0100
0000
2000
0000
0000
3001
,
0000
1000
0000
0010
0000
0001
0000
1000
,
0000
0100
0000
0010
0000
1000
0000
0001
,
0000
0020
0000
0000
0200
0000
0030
0000
,
2000
0000
0300
0000
3001
0000
0001
0100
,
0000
0001
0000
0010
0000
1000
0000
0001
,
0000
0100
0000
0010
0000
0001
0000
1000
,
0000
0020
0000
0000
0200
0000
0030
0000
,
0301
0000
0000
1001
0000
1002
0000
0000
,
1003
0010
0100
0010
,
1000
0010
0100
0010
,
1000
0100
0010
0100
,
1000
0100
0010
0010
,
0001
0100
0010
0100
,
0001
0100
0010
0100
,
0001
0010
0100
0010
,
0001
0010
0100
0100
,
1001
0000
0000
0000
,
0000
0000
0000
0000
,
0110
0000
0000
0000
,
0000
0000
0000
1000
0000
0001
0000
1000
,
0002
0010
0000
0010
,
0000
0010
0000
0010
,
2003
0010
0000
0010
,
3001
1000
0001
1000
,
0100
0000
0000
1000
0000
0100
0000
0001
,
0000
0100
0000
1000
0000
0000
1000
0000
,
0001
0000
0000
0001
0000
0100
0000
1000
,
0000
0100
0000
0001
0000
0000
0001
0000
,
0020
0000
0230
0000
0320
0000
0030
0001
,
2000
3020
0230
0302
,
1003
0000
0000
0001
0000
0010
0000
1000
,
0000
0010
0000
0001
0000
0000
1000
0000
,
0020
0000
0230
0000
0320
0000
0030
1000
,
0002
0023
0230
2300
,
3001
0000
0000
1000
0000
0010
0000
0001
,
0000
0010
0000
1000
0000
0000
1000
0000
,
0001
0001
0010
0010
,
0100
0100
1000
1000
,
0001
0100
0010
1000
,
0100
0001
0100
1000
,
0020
0000
0000
0000
,
0000
0000
0000
0000
,
0030
0000
0000
0000
;

//---------------dance-single - ----------------
#NOTEDATA:;
#CHARTNAME:04-05;
#STEPSTYPE:dance-single;
#DESCRIPTION:;
#CHARTSTYLE:;
#DIFFICULTY:Easy;
#METER:4;
#RADARVALUES:0.292144,0.347193,0.274702,0.221288,0.000000,268.000000,232.000000,36.000000,29.000000,0.000000,0.000000,0.000000,0.000000,0.000000,0.292144,0.347193,0.274702,0.221288,0.000000,268.000000,232.000000,36.000000,29.000000,0.000000,0.000000,0.000000,0.000000,0.000000;
#CREDIT:;
#NOTES:
0000
0000
0000
0000
,
0000
0000
0000
0000
,
0000
0000
0000
0000
,
0000
0000
0000
0000
,
0000
0000
0000
0000
,
1000
0000
0001
0000
,
1000
0000
0001
0000
,
0100
0000
0100
0000
,
0100
0100
0100
0100
,
0001
0010
0001
0010
,
0001
1000
0001
0100
,
0001
0000
0101
0000
,
1100
0000
0001
0001
,
1000
0010
1000
0010
,
1000
0001
1000
0100
,
1000
0000
1100
0000
,
0202
0000
0000
0300
0000
0003
0000
0000
,
1000
0100
1000
0100
,
0010
0001
0100
0010
,
1000
0000
1100
0000
,
0101
0000
1000
1000
,
0001
0100
0001
0100
,
0010
1000
0100
0010
,
0001
0000
0101
0000
,
2200
0000
0000
0300
0000
3000
0000
0000
,
0001
0100
0100
0000
,
0001
0001
1000
1000
,
0001
0010
0010
0000
,
0001
0100
0020
0030
,
1000
0100
0100
0000
,
1000
1000
0001
0001
,
0100
0010
0010
0000
,
1000
0100
0020
0030
,
0001
0100
0010
0000
,
0010
0100
0001
1000
,
0100
0010
0001
0000
,
0001
1000
0020
0030
,
1000
0100
0010
0000
,
0010
0100
1000
0001
,
0100
0010
1000
0000
,
1000
0001
0020
0030
,
0001
0000
0100
0000
,
0101
0000
1000
0010
,
1000
0000
0100
0000
,
1100
0000
0001
0010
,
0001
0000
0100
0000
,
1001
0000
1000
0010
,
1000
0000
0100
0000
,
1001
0000
0001
0010
,
0001
0100
0010
0100
,
1000
0100
0010
0100
,
0001
0000
0101
0000
,
1010
0000
0001
0001
,
1000
0100
0010
0100
,
0001
0100
0010
0100
,
1000
0000
1100
0000
,
0022
0000
0000
0030
0000
0003
0000
0000
,
1001
0000
0101
0000
,
1001
0000
1100
0000
,
1001
0000
0011
0000
,
1001
0000
1010
0000
,
0101
0000
0011
0000
,
1100
0000
1010
0000
,
0101
0000
1100
0000
,
0011
0000
1010
0000
,
1001
0000
0000
0000
,
0000
0000
0000
0000
,
0110
0000
0000
0000
,
0000
0000
0000
0000
,
1002
0100
0000
0100
,
0000
0100
0000
0103
,
2001
0100
0000
3100
,
1000
1000
0001
0001
,
0100
0000
0001
0000
,
1000
0000
0100
0010
,
0100
0000
1000
0000
,
0001
0000
0100
0010
,
2000
3002
0023
0030
,
0002
2003
3020
0230
,
0301
0000
1000
0000
,
0100
0000
1000
1000
,
0002
2003
3020
0030
,
2000
3002
0023
0230
,
1300
0000
0001
0000
,
0100
0000
0001
0001
,
2000
0100
0000
0100
,
0000
0100
0000
0100
,
3002
0100
0100
0103
,
0001
0100
0010
1000
,
0200
0000
0000
0000
,
0000
0000
0000
0000
,
0300
0000
0000
0000
;

//---------------dance-single - ----------------
#NOTEDATA:;
#CHARTNAME:02-03;
#STEPSTYPE:dance-single;
#DESCRIPTION:;
#CHARTSTYLE:;
#DIFFICULTY:Beginner;
#METER:2;
#RADARVALUES:0.173324,0.237694,0.022892,0.160243,0.000000,159.000000,156.000000,3.000000,21.000000,0.000000,0.000000,0.000000,0.000000,0.000000,0.173324,0.237694,0.022892,0.160243,0.000000,159.000000,156.000000,3.000000,21.000000,0.000000,0.000000,0.000000,0.000000,0.000000;
#CREDIT:;
#NOTES:
0000
0000
0000
0000
,
0000
0000
0000
0000
,
0000
0000
0000
0000
,
0000
0000
0000
0000
,
0000
0000
0000
0000
,
1000
0000
1000
0000
,
0001
0000
0001
0000
,
0100
0000
0010
0000
,
0100
0000
0100
0000
,
0001
0000
0001
0000
,
0010
0000
0010
0000
,
0100
0000
0200
0300
,
2000
3000
0002
0003
,
1000
0000
1000
0000
,
0010
0000
0010
0000
,
0100
0000
0200
0300
,
0002
0000
0000
0000
0000
0003
0000
0000
,
1000
0000
0100
0000
,
1000
0000
0100
0000
,
1000
0000
2000
3000
,
0020
0030
2000
3000
,
0001
0000
0100
0000
,
0001
0000
0100
0000
,
0001
0000
0002
0003
,
0020
0000
0000
0000
0000
0030
0000
0000
,
0001
0000
0001
0000
,
0100
0000
0001
0000
,
1000
0000
1000
0000
,
0010
0000
0010
0000
,
1000
0000
1000
0000
,
0100
0000
1000
0000
,
0001
0000
0001
0000
,
0010
0000
0010
0000
,
0001
0000
0100
0000
,
0001
0000
0100
0000
,
0010
0000
1000
0000
,
0100
0000
0100
0000
,
1000
0000
0010
0000
,
1000
0000
0010
0000
,
0100
0000
0001
0000
,
0010
0000
0010
0000
,
0001
0000
0001
0000
,
0100
0000
0001
0000
,
0100
0000
0100
0000
,
1000
0000
0100
0000
,
1000
0000
1000
0000
,
0010
0000
1000
0000
,
0010
0000
0010
0000
,
0001
0000
0010
0000
,
0001
0000
1000
0000
,
0001
0000
1000
0000
,
0010
0000
0020
0030
,
2000
3000
0200
0300
,
1000
0000
0001
0000
,
1000
0000
0001
0000
,
0010
0000
0020
0030
,
0002
0000
0000
0000
0000
0003
0000
0000
,
1000
0000
0010
0000
,
0100
0000
0001
0000
,
1000
0000
0010
0000
,
0100
0000
0001
0000
,
1000
0000
0100
0000
,
0010
0000
0001
0000
,
1000
0000
0100
0000
,
0010
0000
0001
0000
,
0100
0000
0000
0000
,
0000
0000
0000
0000
,
0100
0000
0000
0000
,
0000
0000
0000
0000
,
2002
0000
0000
0000
,
3003
0000
0000
0000
,
0220
0000
0000
0000
,
0330
0000
0000
0000
,
1000
0000
1000
0000
,
0100
0000
0100
0000
,
0010
0000
0010
0000
,
0001
0000
0001
0000
,
1000
1000
1000
0000
,
0010
0010
0010
0020
,
0000
0000
0030
0000
,
1000
0000
1000
0000
,
0001
0001
0001
0000
,
0010
0010
0010
0020
,
0000
0000
0030
0000
,
0001
0000
0001
0000
,
1000
0000
1000
0000
,
0001
0000
0001
0000
,
0100
0000
0010
0000
,
0100
0000
0010
0000
,
1001
0000
0000
0000
;
