#TITLE:Hawaiian Roller Coaster Ride;
#SUBTITLE:(Mahalo Remix);
#ARTIST:Jump5;
#TITLETRANSLIT:;
#SUBTITLETRANSLIT:;
#ARTISTTRANSLIT:;
#GENRE:;
#CREDIT:;
#BANNER:Hawaiian Roller Coaster Ride (Mahalo Remix).png;
#BACKGROUND:Hawaiian Roller Coaster Ride (Mahalo Remix)-bg.png;
#LYRICSPATH:;
#CDTITLE:;
#MUSIC:Hawaiian Roller Coaster Ride (Mahalo Remix).ogg;
#OFFSET:0.000000;
#SAMPLESTART:37.556126;
#SAMPLELENGTH:15.000000;
#SELECTABLE:YES;
#BPMS:0.000000=115.000000
;
#STOPS:
;
#BGCHANGES:;
#KEYSOUNDS:;
#ATTACKS:;

//---------------dance-single - ----------------
#NOTES:
     dance-single:
     :
     Hard:
     7:
     0.430674,0.420161,0.110777,0.181991,0.217598,344.000000,14.000000,23.000000,0.000000,0.000000,0.000000,0.430674,0.420161,0.110777,0.181991,0.217598,344.000000,14.000000,23.000000,0.000000,0.000000,0.000000:
// measure 0
0000
0000
0000
0000
,  // measure 1
0000
0000
0000
0000
,  // measure 2
0000
0000
0000
0000
,  // measure 3
0000
0000
0000
0000
,  // measure 4
1000
0000
0000
0100
0000
0000
1000
0000
0001
0000
0000
0100
0000
0000
0001
0000
,  // measure 5
0010
0001
0010
0000
0001
1000
0100
0000
,  // measure 6
1000
0000
0000
0010
0000
0000
1000
0000
0001
0000
0000
0010
0000
0000
0001
0000
,  // measure 7
1000
0100
1000
0000
1100
0000
1001
0000
,  // measure 8
0001
0000
0000
0100
0000
0000
0010
0000
1000
0000
0000
0100
0000
0000
0010
0000
,  // measure 9
0001
0100
0001
0000
1000
0010
0100
0000
,  // measure 10
0100
0000
0000
0010
0000
0000
1000
0000
0100
0000
0000
0010
0000
0000
0001
0000
,  // measure 11
0100
0000
0100
0000
0100
0000
0000
0001
0000
1000
0001
0000
0010
0000
0010
0000
,  // measure 12
0001
1000
0100
1000
0001
0100
0020
0000
,  // measure 13
1000
0000
0130
0000
1000
1000
1100
0000
,  // measure 14
0100
1000
0001
1000
0100
0010
0002
0000
,  // measure 15
0100
0000
0103
0000
0010
0100
0110
0000
,  // measure 16
1000
0000
0000
0010
0000
0000
0100
0000
0001
0000
0000
0100
0000
0000
0010
0000
,  // measure 17
1000
0000
0000
0100
0000
0000
0010
0000
0002
0000
0000
0000
1003
0000
0000
0000
,  // measure 18
0001
0000
0100
0000
0001
0000
0100
0010
0000
0010
0000
0010
1000
0000
0100
0000
,  // measure 19
1000
0000
1000
0000
1000
0000
0100
0010
0000
0010
0100
0000
1000
0000
0001
0000
,  // measure 20
0100
0000
0001
1000
0001
0100
0001
1000
,  // measure 21
0010
0100
0010
1000
0002
0000
2003
0000
,  // measure 22
3001
0000
0000
0001
0100
0000
0000
0100
0010
0000
0000
0010
1000
0000
0001
0000
,  // measure 23
1000
0000
0000
1000
0100
0000
0000
0010
0000
0000
0001
0000
1001
0000
0000
0000
,  // measure 24
1000
0100
0001
0100
1000
0100
0001
0100
,  // measure 25
1000
0010
0001
0010
1000
0010
0100
0100
,  // measure 26
0001
0100
1000
0100
0001
0100
1000
0100
,  // measure 27
0001
0010
1000
0010
0001
0010
0100
1000
,  // measure 28
0001
0001
0001
0000
0100
0010
0100
0000
,  // measure 29
2002
0000
0003
3001
,  // measure 30
1000
0000
0000
0100
0000
0000
0010
0000
0001
0000
1000
0000
0010
0000
0000
0000
,  // measure 31
0220
0000
0000
0330
,  // measure 32
0001
0000
0000
1000
0100
0000
0000
0100
1000
0000
0000
1000
0010
0000
0010
0000
,  // measure 33
1000
0000
0000
0001
0100
0000
0000
0100
0001
0000
0000
0001
0010
0000
0100
0000
,  // measure 34
0010
0000
0000
0001
1000
0000
0000
1000
0001
0000
0000
0001
0100
0000
0010
0000
,  // measure 35
0100
0000
0000
0100
0001
0000
0000
0001
0000
0000
1000
0000
1100
0000
0000
0000
,  // measure 36
0100
1000
0001
0000
0100
0001
0010
0000
,  // measure 37
0001
1000
0010
0000
1000
0100
0010
0010
,  // measure 38
0100
1000
0001
1000
0001
1000
0020
0000
,  // measure 39
0000
0000
0000
0000
0030
0000
0000
0100
0000
0010
1000
0000
0001
0000
0001
0000
,  // measure 40
2000
0000
3200
0000
1300
0001
0010
0000
,  // measure 41
0002
0000
0203
0000
0310
0010
0010
0000
,  // measure 42
2000
0000
3002
0000
0103
0010
2000
0000
,  // measure 43
0001
0000
3001
0000
0010
0100
0100
0000
,  // measure 44
1000
0000
0000
0100
0000
0000
0010
0000
0001
0000
0000
0010
0000
0000
0100
0000
,  // measure 45
1000
0000
0000
0001
0000
0000
0100
0000
0010
0000
0000
0000
0110
0000
0000
0000
,  // measure 46
0001
0000
0100
0000
0001
0000
1000
0010
0000
0010
0000
1000
0010
0000
0100
0000
,  // measure 47
0001
0000
0001
0000
0001
0000
0010
0100
0000
0100
0010
0000
0001
0000
1000
0000
,  // measure 48
0010
0000
0010
1000
0100
1000
0010
0100
,  // measure 49
0001
0010
0100
1000
0200
0000
0320
0000
,  // measure 50
0031
0000
0000
0001
1000
0000
0000
1000
0010
0000
0000
0010
0100
0000
0100
0000
,  // measure 51
0001
0000
0000
0001
0010
0000
0000
0100
0000
0000
1000
0000
1001
0000
0000
0000
,  // measure 52
0110
0000
0001
0100
1000
0001
0010
1000
,  // measure 53
0200
0000
0000
0000
,  // measure 54
1300
0000
0000
0001
0100
0000
0000
0010
0100
0000
0000
0001
1000
0000
1000
0000
,  // measure 55
0001
0000
0000
0010
0100
0000
0000
0110
0000
0000
0010
0000
0001
0000
0001
0000
,  // measure 56
1000
0100
0010
0001
1000
0100
0010
0001
,  // measure 57
0200
0000
0010
0010
0310
0000
0101
0000
,  // measure 58
2020
0000
0000
0000
,  // measure 59
3030
0000
0000
0000
;

//---------------dance-single - ----------------
#NOTES:
     dance-single:
     :
     Challenge:
     9:
     0.549364,0.536873,0.284855,0.142428,0.629055,432.000000,36.000000,18.000000,0.000000,0.000000,0.000000,0.549364,0.536873,0.284855,0.142428,0.629055,432.000000,36.000000,18.000000,0.000000,0.000000,0.000000:
0000
0000
0000
0000
,
0000
0000
0000
0000
,
0000
0000
0000
0000
,
0000
0000
0000
0000
,
1000
0000
0000
0010
0000
0010
0000
0100
0001
0000
0000
0100
0000
0100
0000
0010
,
1000
0000
0001
0000
0010
0000
0000
0100
0000
1000
0100
0000
0010
0000
0010
0000
,
0100
0000
1000
0001
0000
0100
0000
0001
0010
0001
0000
1000
0000
0010
0000
1000
,
0100
0000
0100
0000
0100
0000
0000
1000
0000
0001
1000
0000
0010
0000
0010
0000
,
1000
0000
0000
0100
0000
0100
0000
0010
0001
0000
0000
0010
0000
0010
0000
0100
,
1000
0000
0010
0000
0100
0000
0000
0100
0000
0001
1000
0000
0010
0000
0010
0000
,
0100
0000
0001
0010
0000
0001
0000
0100
0010
1000
0000
0100
0000
1000
0000
0010
,
0100
0000
0100
0000
0100
0000
0000
0001
0000
1000
0001
0000
0010
0000
0010
0000
,
0001
0000
1000
0100
0000
0100
0000
1000
0010
0000
0100
0001
0000
0000
0000
0000
,
0100
0001
0000
1000
0010
0000
1000
0000
0100
0000
0100
0000
0110
0000
0000
0000
,
1000
0000
0001
0100
0000
0100
0000
0001
1000
0000
0001
0010
0000
0000
0000
0000
,
0100
1000
0000
0100
0010
0000
0100
0000
1000
0000
0001
0000
0101
0000
0001
0000
,
0010
0000
0000
0110
0000
0000
1000
0000
0001
0000
0000
0110
0000
0000
0001
0000
,
2000
0000
0000
3020
0000
0000
0230
0000
0301
0000
0000
0000
1001
0000
0000
0000
,
1000
0000
0001
1000
0100
0000
1000
0010
0000
0010
0000
0100
0001
0000
0001
0000
,
0011
0000
1001
0000
1010
0000
0001
0010
0000
0010
0100
0000
1000
0000
0001
0000
,
2000
0000
3001
0100
0010
0100
0010
1000
,
0001
0001
0010
0100
1000
0000
0011
0000
,
1100
0000
1000
0010
0000
0100
0000
0001
0000
1000
0000
0010
0100
0000
0100
0000
,
0001
0000
0010
0100
0000
0010
0000
0001
0000
0001
1000
0000
0010
0000
0010
0000
,
0100
0000
0001
0100
0010
0000
1000
0001
0000
0001
0000
0001
0010
0000
0100
0000
,
0010
0000
0001
0000
1000
0000
0010
1000
0000
1000
0001
0000
0100
0000
0010
0000
,
1000
0000
0001
0000
1000
0000
0001
0100
0010
0000
1000
0100
0010
0000
0000
0001
,
0000
0101
0000
0100
0001
0000
1000
0100
0000
1100
0000
1000
0001
0000
0100
0000
,
0010
0000
0010
0000
0010
0000
0100
0001
1000
0000
0001
0100
0010
0100
0000
1001
,
0000
1000
0100
0000
0100
0000
1000
0001
0000
0001
0010
0100
1000
0000
0001
0000
,
0200
0000
0000
0320
0000
0000
0130
0000
0001
0000
1000
0000
0020
0000
0000
0000
,
2000
0000
0000
3030
,
0001
0000
1000
0010
0000
1000
0000
0001
0000
1000
0000
0010
1000
0000
0001
0000
,
0001
0000
1000
0100
0000
1000
0000
0001
0000
0010
0000
0001
1000
0000
1000
0000
,
0100
0000
1000
0001
0000
0100
0000
0001
0000
1000
0000
0100
0010
0000
0100
0000
,
1000
0000
0001
0010
0000
0001
0000
1000
0000
1000
0010
0000
0020
0000
0000
0000
,
1030
0000
0100
0001
0000
0100
0000
1000
0000
0100
0000
0010
0001
0000
0100
0000
,
0001
0000
0100
1000
0000
0100
0000
0001
0000
1000
0000
0010
0100
0000
0001
0000
,
1000
0100
0000
0100
0000
1000
0000
0100
0000
0000
0010
0000
0022
0000
0000
0000
,
0000
0000
0000
0000
0033
0000
0000
0001
0000
0100
0001
0000
1001
0000
0110
0000
,
1000
0000
0010
0100
0000
0001
0000
0100
0010
0000
1000
0000
0100
0000
0000
0000
,
0010
0001
0000
0001
0100
0000
0100
0000
0010
0000
1010
0000
1001
0000
0000
0000
,
0001
0000
0010
0100
0000
0010
0000
0001
1000
0000
0010
0000
0200
0000
0000
0000
,
1000
0000
0301
0000
0001
0011
0110
0100
,
1000
0000
0000
0010
0000
0000
0110
0000
0001
0000
0000
0010
0000
0000
0110
0000
,
2000
0000
0000
3002
0000
0000
0103
0000
0010
0000
0000
0000
1010
0000
0000
0000
,
1001
0000
0001
1000
0100
0000
1000
0010
0000
0010
0000
1000
0001
0000
0100
0000
,
0101
0000
1001
0000
1100
0000
0001
0100
0000
0100
0010
0000
1000
0000
0001
0000
,
2000
0000
3001
0010
0100
0010
0100
1000
,
0001
0100
0010
1000
0001
0000
0011
0000
,
1100
0000
0100
1000
0001
0000
0100
0010
0000
0010
0000
1000
0001
0000
0010
0000
,
0011
0000
1001
0000
1010
0000
0001
0100
0000
0010
1000
0000
0001
0000
0001
0000
,
0020
0000
0130
1000
0010
1000
0001
0100
,
0010
1000
0001
0010
0100
0000
0110
0000
,
1001
0000
1000
0001
0000
1000
0000
0001
0000
0001
0000
1000
0001
0000
1000
0000
,
0010
0000
0100
0010
0000
0100
0000
0001
0000
0001
0100
0000
0010
0000
0010
0000
,
0010
0000
1000
0001
0000
1000
0000
0001
0000
0010
0000
0001
1000
0000
0100
0000
,
0010
0001
0010
0100
1000
0000
1100
0000
,
0022
0000
0000
0000
,
0033
0000
0000
0000
;

//---------------dance-single - ----------------
#NOTES:
     dance-single:
     :
     Beginner:
     1:
     0.094952,0.114733,0.039563,0.000000,0.000000,79.000000,5.000000,0.000000,0.000000,0.000000,0.000000,0.094952,0.114733,0.039563,0.000000,0.000000,79.000000,5.000000,0.000000,0.000000,0.000000,0.000000:
0000
0000
0000
0000
,
0000
0000
0000
0000
,
0000
0000
0000
0000
,
0000
0000
0000
0000
,
0001
0000
0001
0000
,
0010
0000
0000
0000
,
0001
0000
0001
0000
,
0100
0000
0000
0000
,
1000
0000
1000
0000
,
0010
0000
0000
0000
,
1000
0000
1000
0000
,
0100
0000
0000
0000
,
0001
0000
0000
0000
,
1000
0000
0000
0000
,
0001
0000
0000
0000
,
1000
0000
0000
0000
,
0010
0000
0000
0000
,
0010
0000
0000
0000
,
1000
0000
1000
0000
,
0001
0000
0001
0000
,
0001
0000
0000
0000
,
1001
0000
0000
0000
,
0010
0000
0100
0000
,
0010
0000
0010
0000
,
0100
0000
0000
0000
,
1000
0000
0000
0000
,
0100
0000
0000
0000
,
0001
0000
0000
0000
,
0100
0000
0000
0000
,
0010
0000
0000
0000
,
1000
0000
0001
0000
,
1001
0000
0000
0000
,
1000
0000
0000
0000
,
0100
0000
0000
0000
,
0010
0000
0000
0000
,
0001
0000
0000
0000
,
1000
0000
0100
0000
,
0010
0000
0001
0000
,
1000
0000
0000
0001
,
0000
0000
0000
0000
,
1000
0000
0001
0000
,
0010
0010
0010
0000
,
0001
0000
1000
0000
,
0100
0100
0100
0000
,
1000
0000
0010
0000
,
0100
0000
0001
0000
,
1000
0000
1000
0000
,
0001
0000
0001
0000
,
0010
0000
0000
0000
,
0110
0000
0000
0000
,
0001
0000
0001
0000
,
1000
0000
1000
0000
,
0010
0000
0000
0000
,
0110
0000
0000
0000
,
0001
0000
0000
0000
,
1000
0000
0000
0000
,
0100
0000
0100
0000
,
0010
0000
0000
0000
,
1001
0000
0000
0000
;

//---------------dance-single - ----------------
#NOTES:
     dance-single:
     :
     Easy:
     2:
     0.198946,0.185947,0.015825,0.118690,0.000000,159.000000,2.000000,15.000000,0.000000,0.000000,0.000000,0.198946,0.185947,0.015825,0.118690,0.000000,159.000000,2.000000,15.000000,0.000000,0.000000,0.000000:
0000
0000
0000
0000
,
0000
0000
0000
0000
,
0000
0000
0000
0000
,
0000
0000
0000
0000
,
0001
0001
0100
0200
,
0000
0000
0000
0300
,
0010
0010
1000
1000
,
0001
0002
0000
0003
,
1000
1000
0100
0200
,
0000
0000
0000
0300
,
0010
0010
0001
0001
,
1000
2000
0000
3000
,
0100
0000
0100
0000
,
1000
0001
1000
0000
,
0010
0000
0010
0000
,
1000
0001
1000
0000
,
0001
0010
0001
0010
,
0100
1000
0100
1000
,
0001
0001
0100
0010
,
1000
1000
0100
0010
,
0001
1000
1000
1000
,
0002
0000
0000
0003
,
0000
0100
0000
0010
,
0000
0100
0010
0010
,
1000
1000
0100
0000
,
1000
0010
0010
0000
,
0100
0100
0001
0000
,
0010
0001
0001
0000
,
2000
3000
0002
0003
,
0220
0000
0000
0330
,
0001
0001
1000
1000
,
0020
0000
0000
0030
,
0100
0000
0100
0001
,
0010
0000
0010
0001
,
1000
0000
0010
1000
,
0100
0000
0100
1000
,
0010
0000
0100
0001
,
1000
0000
0010
1000
,
0001
0001
0001
2002
,
0000
0000
0000
3003
,
0001
0001
0100
0000
,
0010
1000
1000
0000
,
0100
1000
0100
0000
,
0010
0001
0001
0000
,
1000
0100
0001
0100
,
1000
0100
0010
0010
,
0001
0000
1000
0010
,
0100
0000
0001
0100
,
0010
1000
0001
1000
,
0200
0000
0000
0300
,
1000
1000
0100
0100
,
0010
0010
0001
0001
,
1000
0001
0100
0100
,
0020
0000
0000
0030
,
1000
0100
1000
0010
,
0100
0001
0100
0010
,
1000
0100
0010
0001
,
1000
0001
0001
0001
,
2000
0000
0000
3000
;

//---------------dance-single - ----------------
#NOTES:
     dance-single:
     :
     Medium:
     4:
     0.321027,0.298307,0.174078,0.205729,0.003956,236.000000,22.000000,26.000000,0.000000,0.000000,0.000000,0.321027,0.298307,0.174078,0.205729,0.003956,236.000000,22.000000,26.000000,0.000000,0.000000,0.000000:
0000
0000
0000
0000
,
0000
0000
0000
0000
,
0000
0000
0000
0000
,
0000
0000
0000
0000
,
0001
0100
0010
1000
,
0001
0200
0010
0310
,
1000
0100
0010
0100
,
1000
0020
0100
0130
,
0001
1000
0010
1000
,
0001
0200
0010
0310
,
1000
0100
0001
0100
,
1000
0020
0130
0110
,
0100
0000
0001
0000
0010
0001
0010
0000
,
0001
0010
0100
0100
,
1000
0000
0001
0000
1000
0100
1000
0000
,
0100
0000
0010
0000
0001
0001
0002
0000
,
2003
3100
0002
0103
,
2000
0100
0100
3001
,
0001
0101
0100
0110
,
0010
1010
1000
1001
,
0110
0000
0001
0100
0010
0000
1000
0010
,
0200
0000
0000
0300
,
0010
1010
0100
0101
,
1000
0000
1100
0000
0001
0100
0001
0000
,
1000
0000
0100
0000
1000
0100
1000
0000
,
0010
0000
0100
0000
0010
0100
0010
0000
,
1000
0000
0001
0000
1000
0001
1000
0000
,
0001
0000
0010
0000
0001
0010
0001
0000
,
1000
1000
1000
0000
0001
0000
0010
0000
,
0200
0000
0000
0300
,
0010
0000
0000
0010
0000
0000
0100
0000
0010
0000
0100
0000
1000
0000
0000
0000
,
0002
0000
0000
0003
,
1000
0000
0001
1000
0100
0000
0001
0000
,
0001
0000
1000
0001
0010
0000
1000
0000
,
1000
0000
0010
0100
0010
0000
0001
0000
,
0001
0000
0010
0100
1000
0000
1001
0000
,
0010
1000
0001
0100
,
0001
0010
0100
1000
,
0001
0100
0001
0100
0001
0100
0020
0000
,
0000
0030
0110
1001
,
1000
0000
0100
0000
1000
0010
1000
0000
,
0001
0100
0001
0000
0010
0001
0010
0000
,
0001
0000
0100
0000
0100
0010
2000
0000
,
0001
0000
3001
0000
0001
0010
0100
0000
,
0002
0103
2000
3010
,
0002
2003
3002
1003
,
0010
1010
1000
1001
,
0001
0011
0010
0110
,
1001
0000
1000
0001
0010
0000
0001
1000
,
0200
0010
0010
0310
,
0010
0000
0011
0000
0001
0100
0010
0000
,
1000
0100
0010
0000
0001
1000
0010
1000
,
0200
1000
0001
1000
,
0020
0000
0000
0330
,
1000
1100
0001
0101
,
1000
0000
1100
0000
0001
0100
0010
0010
,
0020
2030
3002
0203
,
0302
0010
0010
1003
,
1001
0000
0000
0000
;
