#TITLE:ECHO;
#SUBTITLE:(Yunosuke Remix);
#ARTIST:Fokushi;
#TITLETRANSLIT:;
#SUBTITLETRANSLIT:;
#ARTISTTRANSLIT:;
#GENRE:;
#CREDIT:;
#BANNER:;
#BACKGROUND:;
#LYRICSPATH:;
#CDTITLE:;
#MUSIC:[Covered Up] - ECHO (Yunosuke Remix).ogg;
#OFFSET:-0.825080;
#SAMPLESTART:41.593483;
#SAMPLELENGTH:27.857147;
#SELECTABLE:YES;
#BPMS:0.000000=140.000000
,252.000000=70.000000
,254.000000=140.000000
;
#STOPS:
;
#BGCHANGES:;
#KEYSOUNDS:;
#ATTACKS:;

//---------------dance-single - ----------------
#NOTES:
     dance-single:
     :
     Hard:
     9:
     0.611472,0.712595,0.431818,0.431818,0.310606,565.000000,508.000000,57.000000,57.000000,0.000000,0.000000,0.611472,0.712595,0.431818,0.431818,0.310606,565.000000,508.000000,57.000000,57.000000,0.000000,0.000000:
0000
0000
0000
0000
,
0000
0000
0000
0000
,
0000
0000
0000
0000
,
0000
0000
0000
0000
,
1000
0100
0010
0001
,
1000
0000
0100
0000
0010
0001
0100
0010
,
1000
0100
0010
0001
,
1000
0000
0100
0000
0010
0000
0010
0000
0001
0000
0100
0000
0010
1000
0001
0000
,
1000
0000
0000
0000
1001
0000
0000
0000
0001
0100
0000
0001
1000
0000
0000
0000
,
0100
0000
1000
0000
1100
0000
1000
0100
1000
0000
0100
0000
0010
0000
0001
0000
,
0100
0000
0010
0000
0110
0000
0000
0000
0010
0100
0000
0001
1000
0000
0000
0000
,
0002
0023
0230
2300
,
3001
0000
0000
0000
1001
0000
0000
0000
1000
0100
0000
1000
0001
0000
0000
0000
,
0100
0000
0001
0000
0101
0000
0001
0100
0001
0000
0100
0000
0010
0000
1000
0000
,
0100
0000
0010
0000
0110
0000
0000
0000
0010
0100
0000
1000
0001
0000
0000
0000
,
2000
3020
0200
0330
,
0001
0000
0100
0000
0001
0000
1000
0000
0001
0010
0000
0010
0200
0000
0000
0000
,
1300
0000
0100
0000
1000
0000
0001
1000
0020
0000
0000
0000
0230
0000
0000
0000
,
0310
0000
0100
0000
0001
0000
1000
0000
0001
0010
0000
0010
0100
0000
0000
0000
,
1100
0101
2002
3003
,
1000
0000
0100
0000
1000
0000
0001
0000
1000
0010
0000
0010
1000
0000
0000
0000
,
0001
0000
0100
0000
0001
0000
1000
0001
0020
0000
0000
0000
0031
0000
0000
0000
,
0010
0000
0100
0000
1000
0000
0001
0000
0100
0010
0000
0010
1000
0000
0000
0000
,
1020
0230
0302
2003
,
3010
0000
0000
0010
0000
0000
0010
0000
0000
0010
0000
0000
0100
0000
0001
0000
,
0010
0000
0000
0010
0000
0000
0010
0000
0000
0010
0000
0000
0100
0000
0010
0000
,
0100
0000
0000
0100
0000
0000
0100
0000
0000
0100
0000
0000
1000
0000
0001
0000
,
0100
0000
0000
0100
0000
0000
0100
0000
0000
0100
0000
0000
0001
0000
0100
0000
,
0010
0000
0000
1000
0000
0000
0010
0000
0000
1000
0000
0000
0010
0000
1000
0000
,
0001
0000
0000
1000
0000
0000
0001
0000
0000
1000
0000
0000
0001
0000
1000
0000
,
0001
0000
0000
0010
0000
0000
0001
0000
0000
0010
0000
0000
0001
0000
0010
0000
,
0100
0000
0000
0010
0000
0000
0100
0000
0000
0010
0000
0000
0100
0000
1000
0000
,
1100
0000
0000
0100
0000
0000
1000
0000
0000
0001
0000
0000
0100
0000
0010
0000
,
0110
0000
0000
0100
0000
0000
0010
0000
0000
1000
0000
0000
0001
0000
0010
0000
,
0110
0000
0000
0100
0000
0000
0010
0000
0000
0001
0000
0000
1000
0000
0001
0000
,
0101
0000
0000
0100
0000
0000
0010
0000
0000
1000
0000
0000
0001
0000
1000
0000
,
1200
0000
0310
0000
0011
0001
1000
0001
,
0101
0000
0100
0000
0010
0000
1000
0000
1010
0000
1000
0000
0001
1000
0001
0000
,
1001
1000
1100
0100
0110
0010
0011
0001
,
2001
0000
0000
3020
0000
0000
0230
0000
0000
0302
0000
0000
1003
0100
0010
0000
,
0110
0000
0100
0000
0010
0001
1000
0010
0100
0000
0010
0000
1000
0000
0010
1000
,
0001
0000
1000
0000
0001
0010
0001
0010
0002
0000
0023
0000
2030
0000
3010
0000
,
0110
0000
0100
0000
1000
0100
1000
0001
1000
0000
0010
0000
0100
0000
0001
0000
,
1000
0010
1010
1001
0001
0010
0011
0101
,
0110
0000
0100
0000
0010
1000
0001
0010
0100
0000
0010
0000
0001
0000
0010
0001
,
0100
0000
0010
0000
1000
0010
1000
0010
2000
0000
3020
0000
0032
0000
0013
0000
,
0110
0000
0100
0000
0001
0100
0001
1000
0001
0000
0010
0000
0100
0000
1000
0000
,
1100
0000
0000
0110
0000
0000
0011
0000
0000
1001
0000
0000
1000
0010
0100
0000
,
0101
0100
0010
1000
0001
0100
0010
1000
,
0001
0100
0010
1000
0001
0100
0010
1000
,
1100
0100
0010
0001
1000
0100
0010
0001
,
1000
0100
0010
0001
1000
0100
0010
0001
,
0101
0100
0010
1000
0001
0100
0010
1000
,
0001
0100
0010
1000
0001
0100
0010
1000
,
1100
0100
0010
0001
1000
0100
0010
0001
,
1000
0100
0001
0010
2000
0000
3001
0001
,
0101
0000
0100
0100
0110
0000
1010
0000
,
1000
0010
1010
1001
1000
0100
1100
0000
,
0110
0010
0001
1000
1001
0001
0100
0010
,
0110
0100
0010
1000
1010
0000
1001
0000
,
0021
0130
1020
0130
,
0201
0320
2030
3002
,
1003
0100
0010
0100
0001
0100
0010
0100
,
2000
0000
0000
0000
0000
0000
0000
0000
3001
0100
0010
1000
0100
0010
0001
1000
0000
0000
0000
0000
0000
0000
0000
0000
1001
0000
0000
0000
0000
0000
0000
0000
,
1000
0100
0000
1000
0001
0000
1000
0000
0001
0000
0100
0000
0101
0000
0001
0100
,
0010
2000
3020
0032
0013
0100
0001
0010
,
0100
1000
0000
1000
0001
0000
0100
0000
0020
0000
0000
0000
2030
0000
0000
0000
,
3002
2003
3200
0302
0103
0010
0110
0010
,
0001
0010
0000
0001
1000
0000
0001
0000
0100
0000
0010
0000
0110
0000
0100
0001
,
1000
0002
0023
2030
3010
0100
1000
0001
,
0100
0010
0000
0010
1000
0000
0001
0000
0020
0000
0000
0000
0230
0000
0000
0000
,
2300
3002
0203
2300
3100
0100
0100
0000
,
0010
1000
0001
1000
0100
0100
0100
0000
,
0010
0001
1000
0010
0100
0100
0100
0000
,
0010
1000
0001
0010
0200
0000
2300
0000
,
3002
0103
0000
0000
;

//---------------dance-single - ----------------
#NOTES:
     dance-single:
     :
     Medium:
     7:
     0.397186,0.484564,0.181818,0.303030,0.022727,367.000000,343.000000,24.000000,40.000000,0.000000,0.000000,0.397186,0.484564,0.181818,0.303030,0.022727,367.000000,343.000000,24.000000,40.000000,0.000000,0.000000:
0000
0000
0000
0000
,
0000
0000
0000
0000
,
0000
0000
0000
0000
,
0000
0000
0000
0000
,
1000
0100
0010
0001
,
1000
0100
0010
0001
,
1000
0010
0100
0001
,
1000
0010
0100
0000
0010
0100
0001
0000
,
1000
0000
0010
0000
0100
0010
0100
0000
,
0001
0010
0100
0010
0001
0000
1000
0000
,
0001
0000
0100
0000
0010
0100
0001
0000
,
2000
3200
0320
0030
,
0001
0000
0100
0000
0010
0100
0010
0000
,
1000
0010
0100
0010
1000
0000
0001
0000
,
1000
0000
0100
0000
0010
0100
1000
0000
,
0020
0230
0302
0003
,
1000
0000
1000
0010
0000
0010
0100
0001
,
0010
0000
0010
0100
0000
0100
1000
0001
,
0100
0000
0100
0010
0000
0010
1000
0000
,
0001
1000
2002
3003
,
0001
0000
0001
0100
0000
0100
0010
1000
,
0100
0000
0100
0010
0000
0010
0001
1000
,
0010
0000
0010
0100
0000
0100
0001
0000
,
2002
0000
0003
3001
,
0101
1000
1001
1000
,
1100
0110
0022
0033
,
0002
0023
0230
2300
,
3001
0010
0100
1000
0001
0000
1000
0000
,
1100
1000
1001
0001
,
0101
0110
1010
0010
,
1000
0010
0100
0001
,
1000
0010
0100
0001
2000
0000
3000
0100
,
0010
0000
0000
0100
0010
0000
0000
0001
,
0010
0000
0000
0001
0010
0000
0000
0001
,
1000
0000
0000
0001
1000
0000
0000
0010
,
1000
0000
0000
0010
1000
0000
0000
0010
,
0100
0000
0000
0001
0100
0000
0000
0001
,
1000
0000
0000
0001
0010
0000
0000
0001
,
0010
0001
1000
0001
0100
0010
0100
0010
,
1000
0000
0000
0001
0000
0000
0010
0000
0000
0100
0000
0000
1000
0000
0001
0000
,
0100
0000
0100
0010
1000
0000
1000
0001
,
0010
0000
0010
0100
0020
0000
0032
0000
,
1003
0000
1000
0100
0010
0000
0010
0001
,
0100
0000
0100
0010
0100
0000
0001
1000
,
0001
0000
0001
0100
0010
0000
0010
1000
,
0100
0000
0100
0010
0002
0000
2003
0000
,
3010
0000
0010
0100
0001
0000
0001
1000
,
0100
0000
0000
0100
0000
0000
0010
0000
0000
0010
0000
0000
0001
0000
1000
0000
,
0001
0100
0010
1000
,
0001
0100
0010
1000
0001
0000
0000
0000
,
1000
0100
0010
0001
,
1000
0100
0010
0001
1000
0000
0000
0000
,
0001
0100
0010
1000
,
0001
0100
0010
1000
0001
0000
0000
0000
,
1000
0100
0010
0001
1000
0000
0000
0000
,
0001
0100
0010
1000
0001
0000
1000
0100
,
2000
0000
3001
0010
0002
0000
2003
0000
,
3002
0203
2300
3200
,
0302
0203
0320
2030
,
3001
1000
0001
1000
0001
0000
0010
0000
,
0110
0100
1100
1000
,
1010
0110
0101
0001
,
0011
0101
1100
1010
,
2002
0000
3003
0000
1000
0001
1000
0001
0000
0000
0000
0000
1001
0000
0000
0000
,
0001
0010
0100
0000
0010
0000
0100
0000
,
1000
0001
0100
0000
0001
0100
0010
0100
,
2000
0000
3000
0000
1000
0100
0010
0100
,
0002
0103
0110
0010
,
1000
0001
0010
0000
0100
0000
1000
0000
,
0001
0100
0010
0000
1000
0100
0010
0100
,
0002
0000
0003
0000
0001
0100
0010
0100
,
2000
3000
0100
0100
,
0010
0010
0001
1000
,
0020
0030
0100
0100
,
0001
0001
1000
0100
,
0020
0030
0000
0000
;

//---------------dance-single - ----------------
#NOTES:
     dance-single:
     :
     Easy:
     4:
     0.250000,0.399053,0.113636,0.242424,0.000000,231.000000,216.000000,15.000000,32.000000,0.000000,0.000000,0.250000,0.399053,0.113636,0.242424,0.000000,231.000000,216.000000,15.000000,32.000000,0.000000,0.000000:
// measure 0
0000
0000
0000
0000
,  // measure 1
0000
0000
0000
0000
,  // measure 2
0000
0000
0000
0000
,  // measure 3
0000
0000
0000
0000
,  // measure 4
0001
0100
0010
1000
,  // measure 5
0001
0100
0010
0010
,  // measure 6
1000
0100
0010
0001
,  // measure 7
1000
1000
0001
0001
,  // measure 8
0100
0001
0100
0000
,  // measure 9
0001
0001
0001
0000
,  // measure 10
1000
0001
1000
0000
,  // measure 11
0100
0100
0100
0000
,  // measure 12
0010
0100
0010
0010
,  // measure 13
0001
1000
0001
0000
,  // measure 14
0100
0010
0100
0100
,  // measure 15
0010
1000
0001
0000
,  // measure 16
0020
0030
0010
0010
,  // measure 17
0200
0300
0100
0100
,  // measure 18
2000
3000
1000
1000
,  // measure 19
0001
0001
0002
0003
,  // measure 20
0100
0100
0200
0300
,  // measure 21
0010
0010
0020
0030
,  // measure 22
1000
1000
2000
3000
,  // measure 23
2002
0000
3003
0000
,  // measure 24
0001
0000
0001
0000
,  // measure 25
0001
0010
0100
0000
,  // measure 26
1000
0000
1000
0000
,  // measure 27
1000
0010
0100
0000
,  // measure 28
0001
0000
1000
0000
,  // measure 29
0100
0010
0001
0000
,  // measure 30
1000
0000
0001
0000
,  // measure 31
0100
0010
1000
0000
,  // measure 32
2020
0000
0000
3030
,  // measure 33
2002
0000
0000
3003
,  // measure 34
0022
0000
0000
0033
,  // measure 35
0220
0000
0000
0330
,  // measure 36
2200
3300
0220
0330
,  // measure 37
0022
0033
0202
0303
,  // measure 38
0110
1010
1001
0011
,  // measure 39
0220
0000
0000
0330
,  // measure 40
0100
0010
0100
0010
,  // measure 41
0100
0010
0100
0100
,  // measure 42
1000
0001
1000
0001
,  // measure 43
1000
1000
0001
0001
,  // measure 44
0100
0010
0100
0010
,  // measure 45
0100
0010
0100
0100
,  // measure 46
0001
1000
0001
1000
,  // measure 47
0001
0001
1000
1000
,  // measure 48
0100
1000
0100
1000
,  // measure 49
0100
1000
0100
0000
,  // measure 50
0010
0001
0010
0001
,  // measure 51
0010
0001
0010
0000
,  // measure 52
0001
0100
0001
0100
,  // measure 53
0001
0100
0001
0000
,  // measure 54
1000
0010
1000
0000
,  // measure 55
0010
1000
0010
0000
,  // measure 56
1000
0000
1000
0000
,  // measure 57
0100
0000
0100
0000
,  // measure 58
0010
0000
0010
0000
,  // measure 59
0001
0000
0001
0000
,  // measure 60
0100
0000
0100
0000
,  // measure 61
0010
0000
0010
0000
,  // measure 62
1000
1000
0001
0001
,  // measure 63
0020
0000
0000
0000
0000
0000
0000
0000
0000
0000
0000
0000
0000
0000
0000
0030
0000
0000
0000
0000
0000
0000
0000
0000
0110
0000
0000
0000
0000
0000
0000
0000
,  // measure 64
0100
0100
1000
0010
,  // measure 65
0100
0100
0001
0100
,  // measure 66
0020
0030
1000
0100
,  // measure 67
0020
0030
0001
0100
,  // measure 68
0010
0010
1000
0100
,  // measure 69
0010
0010
0001
1000
,  // measure 70
0200
0300
1000
0001
,  // measure 71
0200
0300
0001
0010
,  // measure 72
0100
0100
1000
0010
,  // measure 73
0100
0100
0001
0010
,  // measure 74
0100
0100
1000
0100
,  // measure 75
0010
0001
0000
0000
;
