#TITLE:Africa;
#SUBTITLE:(originally by Toto);
#ARTIST:Weezer;
#TITLETRANSLIT:;
#SUBTITLETRANSLIT:;
#ARTISTTRANSLIT:;
#GENRE:;
#CREDIT:;
#BANNER:Africa-bn.png;
#BACKGROUND:Africa-bg.png;
#LYRICSPATH:;
#CDTITLE:;
#MUSIC:Africa.ogg;
#OFFSET:-0.785057;
#SAMPLESTART:24.077911;
#SAMPLELENGTH:13.067436;
#SELECTABLE:YES;
#BPMS:0.000000=93.480003
,4.000000=92.419998
,20.000000=93.150002
,36.000000=88.800003
,37.000000=92.680000
,50.000000=90.550003
,56.000000=91.870003
,72.000000=91.300003
,80.000000=93.010002
,90.000000=92.059998
,106.000000=94.180000
,130.000000=90.940002
,134.000000=96.489998
,138.000000=92.349998
,142.000000=94.029999
,147.000000=85.900002
,148.000000=89.400002
,150.000000=94.000000
,152.000000=91.000000
,158.000000=90.669998
;
#STOPS:
;
#BGCHANGES:;
#KEYSOUNDS:;
#ATTACKS:;

//---------------dance-single - ----------------
#NOTES:
     dance-single:
     :
     Challenge:
     7:
     0.432418,0.485925,0.146464,0.414982,0.593994,372.000000,354.000000,18.000000,51.000000,0.000000,0.000000,0.432418,0.485925,0.146464,0.414982,0.593994,372.000000,354.000000,18.000000,51.000000,0.000000,0.000000:
0000
0000
0000
0000
,
1000
0000
0000
1000
0100
0010
0000
0001
1000
0000
0100
0000
1100
0000
0001
0010
,
0100
0010
0001
1000
0100
1000
0001
0100
0010
1000
0001
0010
0100
1000
0001
0010
,
0001
0000
0000
0001
0100
0010
0000
1000
0001
0000
0100
0000
0120
0000
0000
0000
,
0000
0000
0130
0000
0110
0000
0000
0000
2010
0000
0000
0001
0000
0000
3100
0000
,
0001
0000
1000
0010
1000
0000
0001
0010
0001
1000
0000
0100
1000
0000
0001
1000
,
0020
0000
0000
0000
0001
0000
1030
0200
0000
0010
0000
0000
0301
0000
0000
0100
,
1000
0000
0010
0000
0100
0001
0100
0001
1000
0010
0000
0100
0010
1000
0000
0001
,
0020
0000
0000
0130
0010
0002
0000
0203
0010
0000
0300
0000
0110
0000
0000
0000
,
1010
0000
0002
0000
2003
0000
3200
0020
0300
0000
0000
0000
0230
0000
2300
0002
,
3000
0000
0000
0000
0103
0000
0002
2000
0003
0010
0000
0000
3100
0000
0000
0000
,
0011
0000
1000
0001
0100
0000
0010
0100
0001
0000
1000
0100
0000
0020
0000
0000
,
0230
0000
2300
0002
3000
0203
0000
0000
0320
0000
0000
0000
1000
0000
0000
0000
,
0100
0000
0000
0000
0001
0000
0100
0000
0130
0000
0000
0000
0001
1000
0000
0000
,
0220
0000
0000
0000
0030
0300
0000
0001
1000
0000
0100
0000
0110
0000
1000
0001
,
1000
0001
0100
0001
0010
0000
0100
0010
0100
0000
0010
0001
1000
0010
0100
0000
,
0001
0000
0000
0001
0010
0100
0000
0100
0010
0000
0001
0000
1001
0000
1000
0010
,
1000
0001
0010
0100
0010
0100
1000
0000
0001
0100
0010
1000
0001
0010
0100
1000
,
0000
0001
1000
0010
0100
0001
1000
0200
0000
1300
0010
0100
1000
0100
0001
0010
,
0100
1000
0010
0100
0001
0010
2000
0000
0000
0000
3010
0100
2000
0000
0000
0000
,
3001
0100
0010
0001
0010
1000
0001
0100
0001
0010
0100
1000
0010
0100
0001
0100
,
0010
1000
0001
0100
0010
1000
0001
0020
0000
0000
0000
0000
1000
0000
0000
0000
,
0001
0000
0001
0000
0130
0000
0000
0000
1000
0100
0010
0100
1000
0010
0100
0010
,
1000
0001
0100
0010
0000
1000
0000
0200
0000
0000
0000
0000
0001
0000
0000
0000
,
0010
0310
0000
0100
0000
0000
1000
0000
0010
0100
0000
0001
0000
1000
0000
0001
,
0010
0000
0100
0000
0120
0000
0000
0000
0001
0000
0100
0030
0110
0000
0000
0000
,
0012
0000
0000
1000
0000
0000
0103
0000
2010
0000
0001
0000
3100
0000
1000
0020
,
0100
0000
0031
0000
0110
0000
1000
0002
0000
0000
0000
0000
0103
0000
0001
2000
,
0000
0000
0000
0000
3100
0010
0001
1000
0010
0000
0100
0000
0001
1000
0100
2000
,
0100
0100
0000
3100
1000
0001
0100
0020
0000
0000
0000
1030
0001
0010
0000
0200
,
0000
0000
0010
0000
0310
0000
0000
0000
0011
0000
0010
0000
0100
0000
1000
0002
,
0000
0000
0000
0000
0103
0000
0010
2000
0000
0000
0000
0000
3100
0000
1000
0002
,
0000
0103
0010
0100
0001
1000
0100
0010
0001
0000
0100
0000
0010
0000
1000
0002
,
0000
0000
0000
0000
0103
0000
0010
2000
0000
0000
0000
0000
3010
0000
0100
0001
,
1000
0000
0010
0000
1000
0000
0001
0000
0010
0000
0001
0000
1000
0000
0100
0000
1000
0000
0001
0000
0100
0000
0001
0000
0010
0000
0000
0000
0000
0000
0100
0000
0000
0000
0000
0000
1000
0000
0000
0000
0000
0000
0001
0000
0000
0020
0000
0000
,
0000
0000
0000
0000
0130
0000
0010
2000
0000
0000
0000
0000
0000
0000
3010
0002
,
0000
0000
0000
0000
0100
0000
0100
0000
1003
0000
0001
0100
0001
0000
1000
0010
,
0000
0000
0100
0001
0000
0010
0000
0000
0100
1000
0000
0001
0000
0100
0000
0000
,
2000
0000
0000
0000
0000
3100
0001
0000
0020
0000
0000
0000
0000
0130
1000
0000
,
0002
0000
0000
0000
0103
0110
0000
0000
2002
0000
0000
0000
3000
0003
0000
0000
;
