#TITLE:Give Me A Sign;
#SUBTITLE:;
#ARTIST:Shoichiro Hirata feat. "Red";
#TITLETRANSLIT:;
#SUBTITLETRANSLIT:;
#ARTISTTRANSLIT:;
#GENRE:2STEP;
#CREDIT:;
#BANNER:;
#BACKGROUND:;
#LYRICSPATH:;
#CDTITLE:;
#MUSIC:07 - Shoichiro Hirata feat. 'Red' - Give Me A Sign.mp3;
#OFFSET:-0.380000;
#SAMPLESTART:47.000000;
#SAMPLELENGTH:14.600000;
#SELECTABLE:YES;
#BPMS:0.000000=125.999992
;
#STOPS:
;
#BGCHANGES:;
#KEYSOUNDS:;
#ATTACKS:;

//---------------dance-single - ----------------
#NOTES:
     dance-single:
     :
     Beginner:
     1:
     0.155420,0.204954,0.049133,0.084228,0.000000,155.000000,148.000000,7.000000,12.000000,0.000000,0.000000,0.155420,0.204954,0.049133,0.084228,0.000000,155.000000,148.000000,7.000000,12.000000,0.000000,0.000000:
0000
0000
0000
0000
,
0000
0000
0000
0000
,
0000
0000
0000
0000
,
0000
0000
0000
0000
,
1000
0000
1000
0000
,
0001
0000
0001
0000
,
0100
0000
0100
0000
,
0010
0000
0010
0000
,
1001
0000
1000
0000
,
0100
0000
0010
0000
,
0001
0000
0100
0000
,
0010
0000
1000
0000
,
0001
0000
0100
0000
,
0010
0000
1000
0000
,
0100
0000
0001
0000
,
1000
0000
1001
0000
,
2000
0000
0000
3000
,
0002
0000
0000
0003
,
0200
0000
0000
0300
,
0020
0000
0000
0030
,
2000
0000
0000
3000
,
0020
0000
0000
0030
,
0002
0000
0000
0003
,
0200
0000
0000
0300
,
1000
0000
0100
0000
,
0001
0000
0100
0000
,
0010
0000
1000
0000
,
0001
0000
1000
0000
,
1001
0000
0001
0000
,
0100
0000
1000
0000
,
0010
0000
1000
0000
,
0001
0000
0100
0000
,
0001
0001
0100
0000
,
0000
1000
0000
0010
,
0100
0000
0001
0000
,
1000
0000
0100
0000
,
0010
0000
0001
0000
,
1000
0000
0100
0000
,
0010
0000
1000
0000
,
0100
0000
0110
0000
,
0100
0100
0100
0000
,
0001
0001
0001
0000
,
1000
1000
1000
0000
,
0010
0010
0010
0000
,
0100
0001
0100
0000
,
1000
0010
1000
0000
,
0001
1000
0001
0000
,
0220
0000
0000
0330
,
0100
0000
0010
0000
,
1000
0001
1000
0000
,
0010
0000
0100
0000
,
0001
0010
0001
0000
,
0100
0000
1000
0000
,
0010
1000
0010
0000
,
0100
0000
0001
0000
,
1000
0001
1000
0000
,
1000
0010
1000
0000
,
0001
0100
0001
0000
,
1000
0100
1000
0000
,
0001
0010
0001
0000
,
1000
0001
1000
0000
,
0010
0100
0010
0000
,
0001
1000
0001
0000
,
0100
0010
0100
0000
,
0110
0000
0100
0000
,
0001
0000
1000
0000
,
0010
0000
1000
0000
,
0001
0000
0100
0000
,
0001
0000
0010
0000
,
1000
0000
0100
0000
,
0001
0000
1000
0000
,
0010
0000
0100
0000
,
0220
0000
0000
0000
,
0330
0000
0000
0000
;

//---------------dance-single - ----------------
#NOTES:
     dance-single:
     :
     Easy:
     4:
     0.251680,0.252683,0.035095,0.119323,0.024566,251.000000,246.000000,5.000000,17.000000,0.000000,0.000000,0.251680,0.252683,0.035095,0.119323,0.024566,251.000000,246.000000,5.000000,17.000000,0.000000,0.000000:
0000
0000
0000
0000
,
0000
0000
0000
0000
,
0000
0000
0000
0000
,
0000
0000
0000
0000
,
0100
0001
0100
0001
,
0010
0100
1000
0000
,
0001
0100
0010
0100
,
0000
0001
0000
0000
0001
0000
0000
0100
0000
0000
0100
0000
0000
0000
0000
0000
,
0010
0100
0001
0010
,
0100
1000
0001
0000
,
0100
0010
1000
0100
,
0001
0010
0001
0000
,
0100
0010
1000
0100
,
0010
0100
0010
0000
,
0100
0001
0100
0010
,
0100
0000
0000
0000
0000
0020
0000
0200
0000
0000
0000
0000
0330
0000
0000
0000
,
2000
0000
0010
3001
,
0002
0000
0100
0013
,
0200
0000
0001
0310
,
2000
0000
0001
3010
,
0200
0001
0010
0310
,
0020
0100
1000
1030
,
2000
0100
0001
3001
,
2002
0000
3003
0001
,
0100
0010
1000
0100
,
0010
0001
0010
0000
,
0010
1000
0100
0001
,
1000
0010
0100
0001
,
1000
0100
0001
1000
,
0010
0100
0010
0000
,
0100
0001
0010
1000
,
0100
1000
0001
0000
,
1000
0000
0001
0000
1000
0000
0000
0001
0000
0000
0000
0000
0000
0000
0000
0000
,
0000
0100
0000
0000
0100
0000
0000
0010
0000
0000
0010
0000
0000
0000
0000
0000
,
0100
0001
1000
0100
,
0001
1000
0010
0100
,
0001
0100
0010
1000
,
0100
0001
1000
0000
,
0001
0100
0010
1000
,
2002
0000
0000
3003
,
0100
0001
0100
0001
,
1000
0010
1000
0010
,
1000
0100
1000
0100
,
0001
0010
0001
0010
,
1000
0001
0100
0001
,
1000
0010
1000
0100
,
0010
0100
0010
0001
,
2002
0000
0000
3003
,
0001
0100
0010
0100
,
0001
1000
0100
0000
,
1000
0100
1000
0001
,
0010
0100
0010
0001
,
0100
0001
1000
0010
,
0100
0010
1000
0000
,
0001
0100
0001
1000
,
0100
0010
0100
0010
,
1000
0100
0010
0001
,
0010
0100
1000
0001
,
0100
0010
1000
0010
,
0100
0010
0100
0001
,
0100
0010
1000
0100
,
1000
0010
0100
0001
,
1000
0001
0010
0100
,
0010
0100
0010
0001
,
1001
1000
0100
0010
,
0100
0001
0100
0010
,
1000
0100
0001
0100
,
0010
0001
1000
0010
,
0100
0001
0010
1000
,
0100
0010
1000
0001
,
0010
0100
1000
0001
,
2002
0000
0000
0000
,
3003
0000
0000
0000
;

//---------------dance-single - ----------------
#NOTES:
     dance-single:
     :
     Medium:
     8:
     0.463252,0.435527,0.091247,0.042114,0.424648,462.000000,449.000000,13.000000,6.000000,0.000000,0.000000,0.463252,0.435527,0.091247,0.042114,0.424648,462.000000,449.000000,13.000000,6.000000,0.000000,0.000000:
0000
0000
0000
0000
,
0000
0000
0000
0000
,
0000
0000
0000
0000
,
0000
0000
0000
0000
,
1000
0000
0000
0000
0001
0100
0000
0100
0000
0000
0100
0000
0010
0000
0100
0000
,
0000
0010
0000
0000
0010
0000
0000
0100
0000
0100
0000
0000
0010
0000
0100
0000
,
0010
0000
0000
0000
0100
0001
0000
0001
0000
0000
0001
0000
0010
0000
0100
0000
,
0000
1000
0000
0000
1000
0000
0000
0100
0000
0000
0100
0000
0110
0000
0000
0000
,
1000
0000
0000
0000
0001
0100
0000
0100
0000
0000
0010
0000
1000
0000
0100
0000
,
0000
1000
0000
0000
0001
0000
0000
0100
0000
0100
0000
0000
0010
0000
0100
0000
,
0001
0000
0000
0000
1000
0001
0000
0001
0000
0000
0100
0000
0010
0000
1000
0000
,
0000
0010
0000
0000
0010
0000
0000
1000
0000
0000
1000
0000
0001
0000
1000
0000
,
0001
0000
0000
0000
0100
0010
0000
0010
0000
0000
0100
0000
0001
0000
0100
0000
,
0000
0010
0000
0010
0000
0010
0000
1000
0000
0000
1000
0000
0100
0000
0010
0000
,
0100
0000
0000
0000
0010
0001
0000
0001
0000
0000
0100
0000
0010
0000
0100
0000
,
0000
0010
0000
1000
0000
0002
0000
0200
0000
0000
0000
0000
0303
0000
0000
0000
,
1000
0010
1000
0100
1000
0100
1000
0000
,
0001
0100
0001
1000
0001
0010
0001
0000
,
0100
0001
0100
0010
0100
1000
0100
0000
,
0010
0001
0010
0100
0010
1000
0010
0000
,
1000
0100
1000
0010
0100
0001
0100
0000
,
0001
1000
0001
0010
0100
0010
0100
0000
,
0010
1000
0010
1000
0001
1000
0001
1000
,
2002
0000
0000
0000
0000
0000
3003
0000
1001
0000
0000
1000
0001
0000
1000
0000
,
0001
0000
0100
0000
0001
0100
0000
0100
0000
0000
0010
0000
1000
0000
0010
0000
,
1000
0010
0000
0000
0010
0000
0000
0100
0000
0100
0000
0000
0010
0000
1000
0000
,
0010
0000
0100
0000
0001
1000
0000
1000
0000
0000
0100
0000
0010
0000
0100
0000
,
0000
0001
0000
0000
0100
0000
0000
0010
0000
0000
1000
0000
0001
0000
0100
0000
,
0010
0000
0100
0000
0010
1000
0000
1000
0000
0000
0010
0000
0100
0000
0001
0000
,
1000
0001
0000
0000
0001
0000
0000
0100
0000
0100
0000
0000
0010
0000
1000
0000
,
0001
0000
0100
0000
0001
1000
0000
1000
0000
0000
0010
0000
0100
0000
0001
0000
,
0000
1000
0000
0000
0001
0000
0000
0100
0000
0000
0010
0000
0100
0000
0001
0000
,
1000
0000
0001
0000
1000
0000
0000
1001
0000
0000
0000
0000
0000
0000
0000
0000
,
0000
1000
0000
0000
1001
0000
0000
0001
0000
0000
1001
0000
0000
0000
0000
0000
,
1000
0000
0001
0000
1000
0010
0000
0010
0000
0000
0100
0000
0001
0000
1000
0000
,
0000
0001
0000
0000
0100
0000
0000
0010
0000
0000
1000
0000
0001
0000
1000
0000
,
0010
0000
0100
0000
1000
0010
0000
0010
0000
0000
0100
0000
0010
0000
0100
0000
,
0010
1000
0000
0000
0010
0000
0000
1000
0000
1000
0000
0000
0001
0000
0100
0000
,
0001
0000
1000
0000
0010
0100
0000
0100
0000
0000
0001
0000
1000
0000
0010
0000
,
0000
0100
0000
0000
0110
0000
0000
0010
0000
0000
0110
0000
0000
0000
0000
0000
,
1000
0010
0100
0010
1000
0001
1000
0000
,
0001
1000
0010
1000
0001
0100
0001
0000
,
0100
0001
1000
0001
0100
0010
0100
0000
,
0010
1000
0001
1000
0010
0100
0010
0000
,
1000
0001
0010
0001
0100
0001
1000
0000
,
0010
0100
0001
0100
1000
0100
0010
0000
,
0001
0100
0010
1000
0001
1000
0001
0000
,
1000
0000
0000
1001
0000
0000
0001
0000
0000
1001
0000
0000
0000
0000
0000
0000
,
0001
0000
0100
0000
0001
1000
0000
1000
0000
0000
0010
0000
0100
0000
0001
0000
,
0000
1000
0000
0000
0010
0000
0000
0100
0000
0100
0000
0000
0001
0000
1000
0000
,
0001
0000
0010
0000
0001
0100
0000
0100
0000
0000
0010
0000
1000
0000
0001
0000
,
0000
0100
0000
0000
0001
0000
0000
1000
0000
0000
0010
0000
0100
0000
0001
0000
,
1000
0000
0001
0000
1000
0010
0000
0010
0000
0000
0100
0000
0001
0000
1000
0000
,
0000
1000
0000
0000
0100
0000
0000
0001
0000
0001
0000
0000
0010
0000
0100
0000
,
1000
0000
0010
0000
0100
0010
0000
0010
0000
0000
1000
0000
0001
0000
1000
0000
,
0000
0001
0000
0000
0100
0000
0000
0010
0000
0000
1000
0000
0001
0000
1000
0000
,
0001
0000
0100
0000
0001
0010
0000
0010
0000
0000
0100
0000
1000
0000
0001
0000
,
1000
0010
0000
0000
0100
0000
0000
0001
0000
0001
0000
0000
1000
0000
0001
0000
,
0100
0000
0010
0000
1000
0010
0000
0010
0000
0000
0100
0000
0001
0000
1000
0000
,
0000
0001
0000
0000
0100
0000
0000
0001
0000
0000
1000
0000
0010
0000
0100
0000
,
0001
0000
1000
0000
0010
0100
0000
0100
0000
0000
0010
0000
1000
0000
0001
0000
,
0100
0001
0000
0000
1000
0000
0000
0010
0000
0010
0000
0000
0100
0000
0001
0000
,
1000
0000
0001
0000
0100
0010
0000
0010
0000
0000
1000
0000
0001
0000
0100
0000
,
0000
0001
0000
0000
1001
0000
0000
1000
0000
0000
1001
0000
0000
0000
0001
0000
,
0100
0000
0001
0000
1000
0010
0000
0010
0000
0000
0000
0000
0100
0000
0010
0000
,
0000
1000
0000
0000
0010
0000
0000
0100
0000
0100
0000
0000
0000
0000
0001
0000
,
1000
0000
0010
0000
0100
0001
0000
0001
0000
0000
0000
0000
1000
0000
0001
0000
,
0000
0100
0000
0000
0010
0000
0000
1000
0000
0000
0001
0000
0000
0000
1000
0000
,
0001
0000
0100
0000
0001
1000
0000
1000
0000
0000
0010
0000
0100
0000
0000
0000
,
0000
0001
0000
0000
0100
0000
0000
0010
0000
0010
0000
0000
0000
0000
1000
0000
,
0001
0000
0000
0000
0000
0100
0000
0100
0000
0000
0000
0000
0010
0000
0000
0000
,
0000
1000
0000
0000
0001
0000
0000
0100
0000
0000
0010
0000
0000
0000
0000
0000
,
0220
0000
0000
0000
,
0330
0000
0000
0000
;

//---------------dance-single - ----------------
#NOTES:
     dance-single:
     :
     Hard:
     10:
     0.580569,0.614862,0.133360,0.056152,0.828239,579.000000,560.000000,19.000000,8.000000,0.000000,0.000000,0.580569,0.614862,0.133360,0.056152,0.828239,579.000000,560.000000,19.000000,8.000000,0.000000,0.000000:
// measure 0
0000
0000
0000
0000
,  // measure 1
0000
0000
0000
0000
,  // measure 2
0000
0000
0000
0000
,  // measure 3
0000
0000
0000
0000
,  // measure 4
1000
0000
0001
0000
0100
0001
0000
1000
0000
0000
0010
0000
0100
0000
0001
0000
,  // measure 5
0000
0001
0000
0000
0101
0000
0000
1000
0000
0010
0000
0000
1000
0000
0001
0000
,  // measure 6
0100
0000
0000
0000
0000
0000
0010
0000
0000
0000
0000
0000
0100
0000
0000
0001
0000
0000
0000
0000
0000
1000
0000
0000
0000
0000
0000
0000
0000
0000
0010
0000
0000
0000
0000
0000
0100
0000
0000
0000
0001
0000
0100
0000
0000
0000
0001
0000
,  // measure 7
0000
1000
0000
0000
1001
0000
0000
0100
0000
0000
0110
0000
0220
0000
0330
0000
,  // measure 8
1000
0000
0001
0000
1000
0010
0000
1000
0000
0000
0010
0000
1000
0000
0100
0000
,  // measure 9
0000
0001
0000
0000
1001
0000
0000
1000
0000
0001
0000
0000
1000
0000
0010
0000
,  // measure 10
0100
0000
0001
0000
1000
0001
0000
0100
0000
0000
0010
0000
1000
0000
0001
0000
,  // measure 11
0000
0100
0000
0000
0110
0000
0000
1000
0000
0000
1001
0000
1000
0000
0100
0000
,  // measure 12
1000
0000
0010
0000
0100
0010
0000
1000
0000
0000
0100
0000
0010
0000
0001
0000
,  // measure 13
0000
1000
0000
0001
0000
1000
0000
0001
0000
0000
1001
0000
1000
0000
0010
0000
,  // measure 14
0100
0001
0000
0100
0000
0010
0000
1000
0000
0001
0000
0000
1000
0010
0000
0100
,  // measure 15
0000
0001
0000
0010
0000
2000
0000
0002
0000
0000
0000
0000
3003
0000
0000
0000
,  // measure 16
1001
0000
1000
0010
1000
0000
0001
0100
0001
1000
0000
0001
0000
0000
0100
0001
,  // measure 17
0100
0000
0010
1000
0010
0000
0100
0001
0000
1000
0000
0001
0000
0000
1000
0000
,  // measure 18
0001
0000
0100
0000
0001
0000
1000
0010
1000
0001
0000
1000
0000
0000
0001
0100
,  // measure 19
0001
0000
1000
0001
0000
0100
0000
0010
0000
1000
0000
0001
0000
0000
0100
0000
,  // measure 20
0001
0000
1000
0001
1000
0100
1000
0010
1000
0001
0000
1000
0000
0000
0001
0000
,  // measure 21
0100
0000
0010
0100
0000
0010
0000
1000
0000
0001
0000
0100
0000
0000
0010
0000
,  // measure 22
0100
0000
0010
0000
1000
0000
0001
0100
0000
0010
0000
1000
0000
0000
0001
0100
,  // measure 23
0001
0000
1000
0001
0000
0100
0000
0010
0100
0000
0000
0010
0100
0000
0001
0000
,  // measure 24
1000
0000
0010
0000
0100
0001
0000
1000
0000
0001
0000
0000
0100
0000
0010
0100
,  // measure 25
0000
0000
0001
0000
0010
0000
1000
0001
0000
0000
0100
0000
0010
0000
1000
0001
,  // measure 26
1000
0000
0010
0000
0100
0001
0000
1000
0000
0100
0000
0000
0010
0000
0001
0100
,  // measure 27
0000
0000
0010
1000
0000
0001
0000
0100
0000
0010
0100
0000
0010
0000
1000
0001
,  // measure 28
1000
0000
0100
0000
0001
0100
0000
0010
0000
1000
0000
0000
0001
0000
0100
0001
,  // measure 29
0000
0000
1000
0000
0100
0000
1000
0001
0000
0000
1000
0000
0010
0000
0100
0010
,  // measure 30
0100
0000
0010
0000
1000
0001
0000
0100
0000
0001
0000
0000
0100
0000
0001
0100
,  // measure 31
0000
0000
0010
1000
0000
0001
0000
0100
0000
0000
0010
0000
1000
0000
0001
1000
,  // measure 32
0001
0000
0100
0000
0001
0000
0000
0101
0000
0000
0000
0000
0000
0000
0000
0000
,  // measure 33
0000
1010
0000
0000
1010
0000
0000
1001
0000
0000
1001
0000
1000
0000
0001
1000
,  // measure 34
0001
0000
0100
0000
0001
1000
0000
0010
0000
0100
0000
0000
0001
0000
1000
0001
,  // measure 35
0000
0000
0100
0010
0000
0001
0000
1000
0000
0100
0001
0000
1000
0000
0010
0100
,  // measure 36
0010
0000
0100
0000
0001
0100
0000
0010
0000
1000
0000
0000
0001
0000
0100
0001
,  // measure 37
0000
0000
1000
0000
0100
0000
1000
0010
0000
0000
0100
0000
0001
0000
1000
0000
,  // measure 38
0001
0000
0100
0001
0000
1000
0000
0010
0000
0100
0000
0000
0010
0000
0100
0010
,  // measure 39
0100
0000
0001
0100
0000
1000
0000
0010
0000
0200
0020
0000
0000
0000
0330
0000
,  // measure 40
1001
0000
1000
0000
0001
0100
0001
1000
0001
0100
0000
0001
0000
0000
1000
0000
,  // measure 41
0001
0100
0001
1000
0001
0100
0010
0100
0001
0100
0000
0000
0001
0000
1000
0000
,  // measure 42
0010
0000
0100
0000
0001
0100
0000
0010
0000
1000
0000
0000
0001
0000
0100
0000
,  // measure 43
0001
0000
0100
0001
0000
0100
0000
0010
0000
1000
0000
0001
1000
0000
0010
0000
,  // measure 44
0100
0000
0001
0000
0100
0000
0010
0100
0000
0010
0000
0100
0000
0000
0001
0000
,  // measure 45
1000
0001
0000
0100
0000
0010
0000
1000
0000
0000
0001
0000
0100
0000
0001
0000
,  // measure 46
0010
0000
1000
0000
0001
0100
0000
0010
0000
1000
0000
0000
0001
0000
0100
0000
,  // measure 47
0001
0000
1000
0001
0000
0001
1000
0000
1000
0001
0000
0001
1000
0000
0010
0000
,  // measure 48
0100
0000
0001
0000
1000
0001
0000
0100
0000
0010
0000
0000
1000
0000
0001
0100
,  // measure 49
0000
0000
0001
0000
1000
0000
0010
1000
0000
0000
0010
0000
0100
0000
0001
0100
,  // measure 50
0001
0000
0100
0000
0001
0100
0000
0010
0000
1000
0000
0000
0001
0000
1000
0001
,  // measure 51
0000
0000
0100
0001
0000
1000
0000
0100
0000
0001
0100
0000
1000
0000
0010
1000
,  // measure 52
0010
0000
1000
0000
0001
0100
0000
0001
0000
1000
0000
0000
0001
0000
0100
0001
,  // measure 53
0000
0000
1000
0000
0001
0000
0100
0001
0000
0000
0010
0000
0100
0000
1000
0100
,  // measure 54
1000
0000
0001
0000
0100
0001
0000
1000
0000
0001
0000
0000
1000
0000
0001
1000
,  // measure 55
0000
0000
0010
0100
0000
0001
0000
1000
0000
0000
0100
0000
0010
0000
1000
0001
,  // measure 56
1000
0000
0010
0000
0100
0001
0000
0100
0000
0010
0000
0000
1000
0000
0001
1000
,  // measure 57
0000
0000
0001
0000
0100
0000
0010
1000
0000
0000
0010
0000
0100
0000
0001
0100
,  // measure 58
0001
0000
0100
0000
0010
1000
0000
0001
0000
1000
0000
0000
0001
0000
1000
0001
,  // measure 59
0000
0000
0100
0010
0000
0100
0000
0001
0000
0000
1000
0000
0001
0000
0100
0001
,  // measure 60
0100
0000
0010
0000
1000
0001
0000
1000
0000
0001
0000
0000
0100
0000
0010
0100
,  // measure 61
0000
0000
0001
0000
0100
0000
0010
0100
0000
0000
0001
0000
1000
0000
0001
0000
,  // measure 62
1000
0000
0001
0100
0000
0001
0000
1000
0000
0010
0000
0000
0100
0000
0001
0100
,  // measure 63
0001
0000
1000
0001
0000
0100
0000
0010
0000
1000
0001
0000
0100
0000
0001
0000
,  // measure 64
1000
0000
0010
0000
0100
0001
0000
0001
0000
0000
0010
0000
0100
0000
1000
0000
,  // measure 65
0010
1000
0000
0000
1001
0000
0000
0100
0000
0010
0000
0000
1000
0000
0001
0000
,  // measure 66
0100
0000
0001
0000
1000
0010
0000
0100
0000
0000
0001
0000
0100
0000
0001
0000
,  // measure 67
0100
0001
0000
0000
1001
0000
0000
1000
0001
0000
0100
0000
0000
0000
0010
0000
,  // measure 68
0001
0000
0100
0000
0001
1000
0000
0010
0000
0000
0100
0000
0001
0000
1000
0000
,  // measure 69
0001
1000
0000
0000
1001
0000
0000
0001
0000
0100
0000
0000
0010
0000
1000
0000
,  // measure 70
0001
0000
0100
0000
0010
1000
0000
1000
0000
0000
0100
0000
0010
0000
0100
0000
,  // measure 71
0000
0001
0000
0000
0100
0000
0000
0010
0000
1000
0000
0000
0001
0000
1000
0000
,  // measure 72
2002
0000
0000
0000
,  // measure 73
3003
0000
0000
0000
;
