#VERSION:0.83;
#TITLE:re-fly;
#SUBTITLE:;
#ARTIST:和田光司;
#TITLETRANSLIT:;
#SUBTITLETRANSLIT:;
#ARTISTTRANSLIT:Koji Wada;
#GENRE:J-ROCK;
#ORIGIN:;
#CREDIT:;
#BANNER:[ZIvision Song Contest] - re-fly.png;
#BACKGROUND:[ZIvision Song Contest] - re-fly-bg.png;
#PREVIEWVID:;
#JACKET:[ZIvision Song Contest] - re-fly-jacket.png;
#CDIMAGE:;
#DISCIMAGE:;
#LYRICSPATH:;
#CDTITLE:cdtitle.png;
#MUSIC:[ZIvision Song Contest] - re-fly.ogg;
#OFFSET:-0.740000;
#SAMPLESTART:63.774784;
#SAMPLELENGTH:11.616627;
#SELECTABLE:YES;
#BPMS:0.000=166.000;
#STOPS:;
#DELAYS:;
#WARPS:;
#TIMESIGNATURES:0.000=4=4;
#TICKCOUNTS:0.000=4;
#COMBOS:0.000=1;
#SPEEDS:0.000=1.000=0.000=0;
#SCROLLS:0.000=1.000;
#FAKES:;
#LABELS:0.000=Song Start;
#BGCHANGES:0.000=[ZIvision Song Contest] - re-fly.avi=1.000=0=0=0=StretchNoLoop==CrossFade_Fastest==,
99999=-nosongbg-=1.000=0=0=0 // don't automatically add -songbackground-
;
#KEYSOUNDS:;
#ATTACKS:
;

//---------------dance-single - ----------------
#NOTEDATA:;
#CHARTNAME:;
#STEPSTYPE:dance-single;
#DESCRIPTION:;
#CHARTSTYLE:;
#DIFFICULTY:Hard;
#METER:8;
#RADARVALUES:0.477386,0.595695,0.072646,0.274439,0.028251,414.000000,405.000000,9.000000,34.000000,0.000000,0.000000,0.000000,0.000000,0.000000,0.477386,0.595695,0.072646,0.274439,0.028251,414.000000,405.000000,9.000000,34.000000,0.000000,0.000000,0.000000,0.000000,0.000000;
#CREDIT:;
#NOTES:
// measure 0
0000
0000
0000
0000
,  // measure 1
0000
0000
0000
0000
,  // measure 2
0000
0000
0000
0000
,  // measure 3
0000
0000
0000
0000
,  // measure 4
2000
0000
0000
0000
,  // measure 5
0000
0000
0000
3001
,  // measure 6
0200
0000
0000
0000
,  // measure 7
0301
1000
0100
1000
0001
0100
0001
1000
,  // measure 8
0010
2000
3200
0320
,  // measure 9
2030
3020
0032
0203
,  // measure 10
0320
0000
0000
0000
1030
0100
0010
0002
,  // measure 11
0000
0000
0000
0000
0013
0100
1000
0020
,  // measure 12
0000
0000
0130
0001
0000
1000
0000
1001
,  // measure 13
0000
0000
0002
0000
1003
0100
0001
0100
,  // measure 14
1000
0000
0010
0100
0010
0100
0001
0010
,  // measure 15
0100
0000
1000
0010
1000
0010
0100
0000
,  // measure 16
0001
0000
0010
0100
0010
0100
1000
0010
,  // measure 17
1000
0000
0001
0010
0100
0010
0001
0000
,  // measure 18
1000
0000
0010
0100
0010
1000
0100
0010
,  // measure 19
0001
0000
0100
0010
0100
0010
1000
0001
,  // measure 20
1000
0000
0010
0100
0000
0001
0010
0100
,  // measure 21
1000
0000
0001
0100
0000
0010
1000
0100
,  // measure 22
0010
0000
0100
1000
0000
0010
1000
0001
,  // measure 23
1000
0100
0010
0001
0000
0100
0010
0100
,  // measure 24
0001
0000
1100
0000
0010
0100
0010
0000
,  // measure 25
1000
0000
0011
0000
0100
0010
0100
0000
,  // measure 26
0001
0000
1010
0000
0100
0010
0100
0000
,  // measure 27
1000
0000
0101
0000
0010
0100
0010
1000
,  // measure 28
0100
0000
1000
0010
0000
0100
0001
0010
,  // measure 29
0100
0000
0010
0001
0000
1000
0001
1000
,  // measure 30
0000
0001
0100
0010
0001
0010
1000
1001
,  // measure 31
0000
0001
0010
1000
0010
0110
0000
0000
,  // measure 32
0100
0000
1000
0010
0100
0010
1000
0100
,  // measure 33
0010
0001
0100
0001
0000
0010
0100
1000
,  // measure 34
0010
0100
0001
0010
0100
0010
0001
1000
,  // measure 35
0010
0000
0010
0100
0000
0100
0001
1000
,  // measure 36
0001
0000
1000
0010
0100
0001
0010
0100
,  // measure 37
1000
0010
0100
0010
0000
1000
0001
1000
,  // measure 38
0001
0001
0010
0010
,  // measure 39
0100
0100
1000
1000
,  // measure 40
0010
0100
0010
0000
1000
0001
1000
0000
,  // measure 41
0100
0010
0001
0000
0100
0010
0100
0001
,  // measure 42
1000
0010
0010
0100
0001
0001
0010
0100
,  // measure 43
1000
0001
1000
0001
1000
0000
0000
0000
0000
0000
0010
0000
0100
0000
0010
0000
,  // measure 44
0000
1000
0100
0010
1000
0010
0001
0100
,  // measure 45
0010
0100
0001
1000
0000
0100
0010
0100
,  // measure 46
0000
1000
0010
0100
1000
0100
0001
0010
,  // measure 47
0100
0000
0010
0000
0001
0000
1000
0000
0000
0000
0001
0000
1000
0001
1000
0001
,  // measure 48
1000
0000
0010
0100
0000
0100
0001
0000
,  // measure 49
0010
0000
0100
1000
0000
1000
0010
0000
,  // measure 50
0100
0010
0100
0010
1000
0100
0010
0001
,  // measure 51
0000
1000
0010
0001
0010
1000
0100
0010
,  // measure 52
0000
0001
0100
0010
0001
0010
1000
0100
,  // measure 53
0010
0100
1000
0001
0000
0100
0010
0100
,  // measure 54
0000
0001
0010
0100
0001
0100
1000
0010
,  // measure 55
0100
0000
0010
0000
1000
0000
0001
0000
0000
0000
1000
0000
0001
1000
0001
1000
,  // measure 56
0001
0000
0010
0100
0000
0100
1000
0001
,  // measure 57
0000
1000
0010
0100
0001
0010
0100
1000
,  // measure 58
0001
0000
0100
0010
0000
0010
1000
0000
,  // measure 59
0100
0000
0010
0001
0000
0001
0100
0010
,  // measure 60
1000
0000
0100
0010
0000
0010
0001
0100
,  // measure 61
0001
0010
0100
1000
0000
0010
0100
0000
,  // measure 62
0001
0010
0001
0010
0001
0100
0010
1000
,  // measure 63
0000
0100
0010
0000
0110
0000
0100
1000
,  // measure 64
0001
2000
3020
0230
,  // measure 65
0320
0032
0023
0230
,  // measure 66
0320
0000
0000
0000
1030
0100
0010
0002
,  // measure 67
0000
0000
0000
0003
1000
0010
0100
0020
,  // measure 68
0000
0000
0130
0002
0000
0023
0000
0230
,  // measure 69
0000
0000
0000
0000
0300
0000
1000
0010
1000
0000
0100
0000
0010
0000
0002
0000
,  // measure 70
0000
0003
0000
0200
0000
0000
0000
0000
,  // measure 71
0320
0000
0000
1030
0001
0010
0001
2000
,  // measure 72
0000
0000
3010
0100
0000
0001
0000
1001
,  // measure 73
0000
0000
2000
0000
3001
0100
1000
0200
,  // measure 74
0002
0000
0000
0000
,  // measure 75
0000
0000
0000
0000
,  // measure 76
0000
0300
0000
0000
,  // measure 77
0000
0000
0000
0000
,  // measure 78
0020
0000
0000
0000
,  // measure 79
0000
0000
0000
0000
,  // measure 80
0030
0000
0000
0000
,  // measure 81
0000
0000
0000
0000
,  // measure 82
0003
0000
0000
0000
;

//---------------dance-single - ----------------
#NOTEDATA:;
#CHARTNAME:;
#STEPSTYPE:dance-single;
#DESCRIPTION:;
#CHARTSTYLE:;
#DIFFICULTY:Medium;
#METER:6;
#RADARVALUES:0.363228,0.430224,0.000000,0.137220,0.000000,315.000000,315.000000,0.000000,17.000000,0.000000,0.000000,0.000000,0.000000,0.000000,0.363228,0.430224,0.000000,0.137220,0.000000,315.000000,315.000000,0.000000,17.000000,0.000000,0.000000,0.000000,0.000000,0.000000;
#CREDIT:;
#NOTES:
0000
0000
0000
0000
,
0000
0000
0000
0000
,
0000
0000
0000
0000
,
0000
0000
0000
0000
,
0000
0000
0000
0000
,
0000
0000
0000
0000
,
2000
0000
0000
0000
,
3001
0000
0001
0000
1000
0000
1000
0001
,
0010
0100
0010
0001
,
1000
0010
1000
0100
,
0020
0000
0000
0000
0130
1000
0100
2000
,
0000
0000
0000
0000
3001
0100
0001
0200
,
0000
0000
0310
1000
0000
0100
0000
0020
,
0000
0000
0031
0000
0100
0010
0100
0010
,
1000
0000
0100
0000
1000
0000
0001
1000
,
0001
0000
0100
0000
0001
0010
0001
0010
,
0100
0010
0001
0100
,
0010
0000
1000
0000
0100
0000
1000
0001
,
1000
0010
0100
0010
,
1000
0000
0100
0000
1000
0010
1000
0010
,
0100
0001
0010
0100
,
1000
0000
0010
0000
0100
0000
0001
1000
,
0001
0010
0100
0010
,
0001
1000
0010
0010
,
1000
0000
0100
0000
1000
0010
1000
0000
,
0001
0000
0100
0000
0001
0010
0001
0000
,
1000
0000
0010
0000
1000
0001
1000
0000
,
0001
0000
0010
0000
0001
1000
0001
0000
,
1000
0000
0100
0000
1000
0001
1000
0000
,
0001
0000
0100
0000
0001
1000
0001
1000
,
0000
0100
0010
0000
0100
0000
1000
0001
,
0000
1000
0010
1000
0010
0200
0000
0000
,
0301
0000
0001
1000
0000
1000
0001
0000
,
1000
0000
1000
0100
0000
0100
0010
0000
,
0001
0000
0001
0100
0000
0100
0010
0000
,
1000
0000
1000
0001
0000
0001
1000
0000
,
0100
0000
0100
0010
0000
0010
0001
0000
,
0100
0000
0100
0010
0000
0010
1000
0000
,
0001
0001
1000
1000
,
0100
0100
0010
0010
,
0001
0001
0100
0100
,
0010
0000
0010
0000
1000
0100
0010
0001
,
1000
0000
0010
1000
0000
0001
1000
0000
,
0001
0100
0001
0000
0000
0010
0100
1000
,
0000
0010
0100
0000
0001
0000
1000
0000
,
0100
0000
0010
0001
0000
0100
0010
0100
,
0000
0010
1000
0000
0100
0000
0010
0000
,
0100
0000
1000
0001
0000
0000
1000
0001
,
1000
0000
0100
0010
0000
0010
0001
0000
,
1000
0000
0001
0100
0000
0100
0010
0000
,
1000
0000
0100
0000
0010
0000
0001
0100
,
0000
0001
0010
0001
0010
0000
0100
1000
,
0000
0010
0100
0000
0010
0000
1000
0000
,
0100
0000
0010
0001
0000
0100
0010
0100
,
0000
0010
1000
0000
0100
0000
0010
0000
,
0100
0000
1000
0001
0000
0100
0010
0100
,
0010
0000
1000
0100
0000
0100
0010
0001
,
0000
0000
0100
0010
0000
0010
1000
0000
,
0001
0010
1000
0010
,
0001
0100
0010
1000
,
0100
0001
0100
1000
,
0010
0100
0001
0010
,
0100
0000
0100
0000
1000
0010
1000
0001
,
0000
1000
0001
0000
0200
0000
0000
0000
,
0310
1000
0100
0010
,
0001
0100
0010
1000
,
0002
0000
0000
0000
1003
0010
1000
0020
,
0000
0000
0000
0000
1030
0100
1000
0200
,
0000
0000
0310
0001
0000
0100
0000
0020
,
0000
0000
0000
1030
0001
0000
0001
0200
,
0000
0300
0000
0020
0000
0000
0000
0000
,
2030
0000
0000
3001
0010
0001
0010
0200
,
0000
0000
0310
0001
0000
1000
0000
0002
,
0000
0000
1003
0000
0010
0100
0010
0200
,
0000
0000
0000
0000
,
0000
0000
0000
0000
,
0000
0000
0000
0000
,
0000
0000
0000
0000
,
0000
0000
0000
0000
,
0000
0000
0000
0000
,
0000
0000
0000
0000
,
0000
0000
0000
0000
,
0300
0000
0000
0000
;

//---------------dance-single - ----------------
#NOTEDATA:;
#CHARTNAME:;
#STEPSTYPE:dance-single;
#DESCRIPTION:;
#CHARTSTYLE:;
#DIFFICULTY:Easy;
#METER:4;
#RADARVALUES:0.262908,0.330941,0.008072,0.040359,0.000000,228.000000,227.000000,1.000000,5.000000,0.000000,0.000000,0.000000,0.000000,0.000000,0.262908,0.330941,0.008072,0.040359,0.000000,228.000000,227.000000,1.000000,5.000000,0.000000,0.000000,0.000000,0.000000,0.000000;
#CREDIT:;
#NOTES:
0000
0000
0000
0000
,
0000
0000
0000
0000
,
0000
0000
0000
0000
,
0000
0000
0000
0000
,
2000
0000
0000
0000
,
0000
0000
0000
3000
,
0002
0000
0000
0003
,
1000
1000
0001
0001
,
1000
0001
0100
0001
,
1000
0100
1000
0010
,
0100
0000
0001
1000
,
0001
0000
0010
0100
,
1000
0100
0010
0001
,
0000
1000
0010
1000
,
0002
0000
0000
0003
,
1000
0100
0010
0100
,
1000
0000
0001
0000
,
0100
0000
0010
0000
,
1000
0000
0001
0000
,
0010
0000
0100
0000
,
1000
0000
0010
0000
,
0100
0000
0001
0000
,
1000
0000
0100
0000
,
0010
0000
0001
1000
,
0001
0100
0000
0010
,
1000
0010
0000
1000
,
0100
1000
0000
0010
,
0100
0001
0000
0010
,
0100
1000
0000
0010
,
0100
0010
0000
1000
,
0000
0001
0001
0100
,
0010
1000
0200
0000
,
1300
0010
0100
0010
,
1000
0100
0010
0001
,
0100
0010
0100
0001
,
0010
0010
0100
0100
,
1000
0010
1000
0001
,
0010
0100
1000
0010
,
0100
0100
0010
0010
,
1000
1000
0001
0001
,
0010
0010
0100
0100
,
1000
1000
0001
0001
,
1000
0100
0010
0001
,
1001
0000
0000
0000
,
0001
0100
0010
1000
,
0100
0010
0100
0000
,
1000
0010
0100
0001
,
0010
0100
0010
0000
,
0001
0001
0100
0010
,
1000
1000
0100
0010
,
0001
0001
1000
1000
,
0001
0010
0100
1000
,
0010
0100
0010
1000
,
0100
0010
0001
0000
,
0100
0010
0100
0001
,
0010
0100
1000
0000
,
0001
0001
0100
0010
,
1000
1000
0100
0010
,
0001
1000
0010
0100
,
0001
1000
0100
0010
,
0001
0100
0010
0100
,
0001
0010
0100
1000
,
0010
0010
0100
0100
,
0000
0001
1000
0001
,
1000
0001
0010
0001
,
1000
0010
1000
0100
,
0010
0000
0001
1000
,
0001
0000
0100
0010
,
1000
0010
0100
0001
,
0000
0010
0100
0010
,
0001
0000
1000
0000
,
0001
0000
1000
0001
,
0100
0001
0010
0100
,
0000
1000
0100
0010
,
0002
0000
0000
0000
,
0000
0000
0000
0000
,
0000
0000
0000
0000
,
0000
0000
0000
0000
,
0000
0000
0000
0000
,
0000
0000
0000
0000
,
0000
0000
0000
0000
,
0000
0000
0000
0000
,
0003
0000
0000
0000
;

//---------------dance-single - ----------------
#NOTEDATA:;
#CHARTNAME:;
#STEPSTYPE:dance-single;
#DESCRIPTION:;
#CHARTSTYLE:;
#DIFFICULTY:Beginner;
#METER:2;
#RADARVALUES:0.145291,0.165471,0.008072,0.016143,0.000000,126.000000,125.000000,1.000000,2.000000,0.000000,0.000000,0.000000,0.000000,0.000000,0.145291,0.165471,0.008072,0.016143,0.000000,126.000000,125.000000,1.000000,2.000000,0.000000,0.000000,0.000000,0.000000,0.000000;
#CREDIT:;
#NOTES:
0000
0000
0000
0000
,
0000
0000
0000
0000
,
0000
0000
0000
0000
,
0000
0000
0000
0000
,
1000
0000
0000
0000
,
0000
0000
0000
0000
,
0001
0000
0000
0000
,
1000
0000
0001
0000
,
1000
0000
1000
0000
,
0010
0000
0010
0000
,
0100
0000
0100
0000
,
0001
0000
0001
0000
,
0010
0000
0010
0000
,
0100
0000
0100
0000
,
2000
0000
0000
0000
,
0000
0000
0000
3000
,
0001
0000
0000
0000
,
1000
0000
0000
0000
,
0010
0000
0000
0000
,
0100
0000
0000
0000
,
0001
0000
0000
0000
,
1000
0000
0000
0000
,
0100
0000
0000
0000
,
0010
0000
0000
0000
,
0001
1000
0000
1000
,
0000
0010
0000
0010
,
0000
0100
0000
0100
,
0000
0001
0000
0001
,
0000
1000
0000
1000
,
0000
0100
0000
0100
,
0000
1000
0001
0000
,
0000
0001
1000
0000
,
0001
0000
0001
0000
,
0100
0000
0100
0000
,
0010
0000
0010
0000
,
1000
0000
1000
0000
,
0001
0000
0001
0000
,
0010
0000
0010
0000
,
0100
0000
0100
0000
,
1000
0000
1000
0000
,
0010
0000
0100
0000
,
0010
0000
1000
0000
,
0001
0000
0000
0000
,
1001
0000
0000
0000
,
1000
0000
1000
0000
,
0001
0000
0001
0000
,
1000
0000
0100
0000
,
0010
0000
0001
0000
,
1000
0000
1000
0000
,
0001
0000
0001
0000
,
1000
0000
0010
0000
,
0100
0000
0001
0000
,
1000
0000
1000
0000
,
0010
0000
0010
0000
,
0100
0000
0001
0000
,
0010
0000
0100
0000
,
1000
0000
1000
0000
,
0100
0000
0100
0000
,
0010
0000
0001
0000
,
0100
0000
0010
0000
,
1000
0000
0001
0000
,
1000
0000
0100
0000
,
0010
0000
0001
0000
,
0100
0000
0010
0000
,
1000
0000
1000
0000
,
0100
0000
0100
0000
,
0010
0000
0010
0000
,
0001
0000
0001
0000
,
0100
0000
0100
0000
,
0010
0000
0010
0000
,
1000
0000
1000
0000
,
0001
0000
0001
0000
,
0010
0000
0010
0000
,
0100
0000
0100
0000
,
2000
0000
0000
0000
,
0000
0000
0000
0000
,
0000
0000
0000
0000
,
0000
0000
0000
0000
,
0000
0000
0000
0000
,
0000
0000
0000
0000
,
0000
0000
0000
0000
,
0000
0000
0000
0000
,
3000
0000
0000
0000
;
