#VERSION:0.83;
#TITLE:The Night is Still Young;
#SUBTITLE:;
#ARTIST:Nicki Minaj;
#TITLETRANSLIT:;
#SUBTITLETRANSLIT:;
#ARTISTTRANSLIT:;
#GENRE:;
#ORIGIN:;
#CREDIT:;
#BANNER:The Night is Still Young.png;
#BACKGROUND:The Night is Still Young-bg.png;
#PREVIEWVID:;
#JACKET:The Night is Still Young-jacket.png;
#CDIMAGE:;
#DISCIMAGE:;
#LYRICSPATH:;
#CDTITLE:;
#MUSIC:The Night is Still Young.ogg;
#OFFSET:-0.040000;
#SAMPLESTART:44.570999;
#SAMPLELENGTH:15.469000;
#SELECTABLE:YES;
#BPMS:0.000=128.000,
96.000=64.000,
144.000=128.000,
176.000=64.000;
#STOPS:;
#DELAYS:;
#WARPS:;
#TIMESIGNATURES:0.000=4=4;
#TICKCOUNTS:0.000=4;
#COMBOS:0.000=1;
#SPEEDS:0.000=1.000=0.000=0;
#SCROLLS:0.000=1.000,
176.000=2.000,
208.000=1.000;
#FAKES:;
#LABELS:0.000=Song Start;
#BGCHANGES:;
#KEYSOUNDS:;
#ATTACKS:
;

//---------------dance-single - ----------------
#NOTEDATA:;
#CHARTNAME:;
#STEPSTYPE:dance-single;
#DESCRIPTION:;
#CHARTSTYLE:;
#DIFFICULTY:Challenge;
#METER:9;
#RADARVALUES:0.501299,0.623257,0.202951,0.333888,0.510652,536.000000,505.000000,31.000000,51.000000,2.000000,0.000000,0.000000,0.000000,0.000000,0.501299,0.623257,0.202951,0.333888,0.510652,536.000000,505.000000,31.000000,51.000000,2.000000,0.000000,0.000000,0.000000,0.000000;
#CREDIT:;
#NOTES:
// measure 0
0000
0000
0000
0000
,  // measure 1
0000
0000
0000
0000
,  // measure 2
0000
0000
0000
0000
,  // measure 3
0000
0000
0000
0000
,  // measure 4
0010
0010
0010
0010
,  // measure 5
0010
0000
0010
0000
0010
1000
0100
0000
,  // measure 6
0010
0010
0010
0010
,  // measure 7
0010
0000
0000
0000
1001
0000
0000
0000
0000
0000
0000
0000
0000
0001
1000
0001
,  // measure 8
0100
0000
1000
0001
0100
0000
0010
0100
0000
0100
0001
0000
1000
0000
1000
0000
,  // measure 9
0001
0000
0000
0000
1000
0000
0100
0000
0000
0010
0000
0000
0100
0000
1000
0000
0000
0000
1000
0000
0001
0000
0100
0000
0010
0000
0000
0000
0010
0000
0000
0000
,  // measure 10
0100
0000
0010
0000
1000
0000
0100
0000
0010
0100
1000
0001
1000
0000
1000
0000
,  // measure 11
0001
0000
1000
0001
0100
0010
0100
0001
1000
0001
0010
0100
0010
0000
0010
0000
,  // measure 12
0001
0000
0010
0001
1000
0000
0010
0000
0M10
0001
1000
0000
0001
0000
0000
1000
,  // measure 13
0001
0000
0100
0001
1000
0000
0100
0000
01M0
0001
1000
0000
0001
0000
0000
0001
,  // measure 14
0100
0000
0010
0100
0001
0000
1000
0100
0000
0010
0100
0000
1000
0000
0001
0100
,  // measure 15
0000
0010
0100
0000
0001
0000
1000
0001
0010
0000
0100
0000
0100
0000
0000
0000
,  // measure 16
0110
0011
1001
1000
,  // measure 17
0010
0000
0000
0000
0100
0000
0010
0100
0001
0000
1000
0000
1000
0000
0100
0000
,  // measure 18
0010
1000
0002
0000
0203
0000
2300
0000
,  // measure 19
3001
0000
0000
0000
1000
0000
0001
1000
0010
0000
0100
0000
0100
0000
0000
0000
,  // measure 20
0110
1010
1001
0001
,  // measure 21
0010
0000
0000
0000
0100
0000
0010
0100
1000
0000
0001
0000
0001
0000
0100
0000
,  // measure 22
0010
0001
2000
0000
3200
0000
0302
0000
,  // measure 23
1003
0000
0000
0000
0001
0000
1000
0001
0010
0000
0100
0000
0010
0001
0000
0000
,  // measure 24
1002
0000
0100
0000
0010
0000
1003
0000
0001
0000
0100
0000
0010
0100
0100
0000
,  // measure 25
2001
0000
0100
0000
0010
0000
3001
0000
1000
0000
0100
0000
0010
0100
0100
0000
,  // measure 26
2001
0010
0100
3001
1000
0110
1000
0000
,  // measure 27
2010
0000
3100
0000
2100
0000
3001
0000
2001
0000
3100
0000
1100
0010
0010
0100
,  // measure 28
1000
0001
0100
1000
0100
0000
0010
0000
1000
0000
0001
0000
0010
0000
0100
0001
,  // measure 29
0100
0010
0100
0000
0010
0000
0001
0000
1000
0010
0100
0000
0110
0000
0001
0010
,  // measure 30
1000
0010
0100
1000
0001
0000
0100
0000
0010
0000
0001
0000
0010
0100
0100
0000
,  // measure 31
2010
0000
3100
0000
2100
0000
3001
0000
2001
0000
3100
0000
1100
0010
0010
0000
,  // measure 32
0110
0000
0000
0000
0000
0000
0000
0000
0001
0000
0010
0000
1000
0000
0010
0000
0002
0000
0000
1000
0000
0000
0100
0000
0000
0000
1000
0000
1003
0000
0000
0000
,  // measure 33
1001
0000
0000
0000
0000
0000
0000
0000
1000
0000
0010
0000
0001
0000
0010
0000
2000
0000
0000
0001
0000
0000
0100
0000
0000
0000
0001
0000
3001
0000
0000
0000
,  // measure 34
1001
0000
0000
0000
0000
0000
0000
0000
0001
0000
0100
0000
0010
0000
0100
0000
1000
0000
0000
0100
0000
0000
0010
0000
0000
0000
1000
0000
1000
0000
0000
0000
,  // measure 35
1001
0000
0000
0000
0000
0000
1000
0000
0100
0000
0010
0000
1000
0000
0010
0000
0100
0000
0000
0010
0000
0000
0001
0000
0000
0000
1000
0000
0000
0000
0000
0000
,  // measure 36
0001
0000
0001
0000
0001
1000
0010
0100
,  // measure 37
1000
0100
0010
1000
0100
1000
1000
1000
,  // measure 38
0001
0000
0001
0000
0001
1000
0100
0010
,  // measure 39
1000
0010
0100
1000
0010
1000
1000
1000
,  // measure 40
0001
0000
1000
0001
0100
0000
0001
0100
0010
0000
0100
0000
0001
0000
1000
0000
,  // measure 41
0001
0000
1000
0001
0010
0000
0001
0010
0100
0000
0010
0000
0001
0000
1000
0000
,  // measure 42
0001
0100
0001
1000
0001
0100
0001
1000
0001
0010
0100
1000
0001
0000
1000
0000
,  // measure 43
0001
0100
0010
1000
0100
0010
0100
1000
0001
0100
0010
0100
0001
1000
0100
0010
,  // measure 44
0001
1000
0010
0001
0010
1000
0100
0010
1000
0010
0001
0010
1000
0010
0010
0100
,  // measure 45
1000
0001
0100
1000
0100
0001
1000
0100
0010
1000
0010
0001
1000
0010
0100
1000
,  // measure 46
0100
0001
1000
0010
0001
0010
1000
0010
0001
0010
0100
0001
0010
0100
0100
0000
,  // measure 47
0110
0010
0001
0000
0011
0001
0100
0000
0101
0100
0010
0100
0001
1000
0100
0010
,  // measure 48
1000
0010
0100
1000
0001
0100
1000
0100
0001
0100
0010
0001
0010
0100
0100
0001
,  // measure 49
0010
0100
0001
0100
0010
0100
0001
0100
1000
1000
1000
0001
0100
0001
0010
0100
,  // measure 50
0001
0100
0010
0001
1000
0010
0001
0010
1000
0010
0100
1000
0100
0010
0010
0000
,  // measure 51
0110
0010
1000
0000
1010
1000
0100
0000
1100
0100
0010
0100
1000
0001
0002
2003
,  // measure 52
0000
3002
0203
0000
0320
0000
0230
0000
0302
0000
1000
0000
0013
0100
0200
0320
,  // measure 53
0000
0032
0203
0000
0320
0000
0032
0000
0023
0230
0302
0000
0013
0000
0200
0320
,  // measure 54
0000
0032
2003
0000
3020
0000
0032
0000
0023
0000
1030
0000
0001
0010
0020
0230
,  // measure 55
0000
0320
0032
0000
2003
0000
3020
0000
0032
0203
2300
3000
2002
0000
0000
0000
,  // measure 56
3003
0000
0000
0000
;
