#TITLE:The Metal;
#SUBTITLE:;
#ARTIST:Tenacious D;
#TITLETRANSLIT:;
#SUBTITLETRANSLIT:;
#ARTISTTRANSLIT:;
#GENRE:;
#CREDIT:;
#BANNER:The Metal.png;
#BACKGROUND:The Metal-bg.png;
#LYRICSPATH:;
#CDTITLE:DevilTitle.png;
#MUSIC:Guitar Hero 3 song Tenacious D - The Metal.ogg;
#OFFSET:0.000000;
#SAMPLESTART:100.000000;
#SAMPLELENGTH:12.000000;
#SELECTABLE:YES;
#BPMS:0.000000=112.000000
;
#STOPS:
;
#BGCHANGES:;
#KEYSOUNDS:;
#ATTACKS:;

//---------------dance-single - ----------------
#NOTES:
     dance-single:
     :
     Beginner:
     1:
     0.040898,0.086220,0.003329,0.000000,0.000000,86.000000,85.000000,1.000000,0.000000,0.000000,0.000000,0.040898,0.086220,0.003329,0.000000,0.000000,86.000000,85.000000,1.000000,0.000000,0.000000,0.000000:
0000
0000
0000
0000
,
0000
0000
0000
0000
,
0000
0010
0000
0000
,
0000
1000
0000
0000
,
0000
0001
0000
0000
,
0000
0100
0000
0000
,
0000
0010
0000
0000
,
0000
1000
0000
0000
,
0000
0100
0000
0000
,
0000
0001
0000
0000
,
0000
0010
0000
0000
,
0000
1000
0000
0000
,
0000
0100
0000
0000
,
0000
0100
0000
0000
,
0000
0010
0000
0000
,
0000
1000
0000
0000
,
0000
0001
0000
0000
,
0000
0100
0000
0000
,
0000
0010
0000
0000
,
0000
1000
0000
0000
,
0000
1000
0000
0000
,
0000
0001
0000
0000
,
0000
0100
0000
0000
,
0000
0010
0000
0000
,
0000
1000
0000
0000
,
0000
1000
0000
0000
,
0000
0100
0000
0000
,
0000
0010
0000
0000
,
0000
0100
0000
0000
,
0000
1000
0000
0000
,
0000
0010
0000
1000
,
0000
0001
0000
0000
,
0000
0100
0000
0010
,
0000
1000
0000
0000
,
0000
0100
0000
0010
,
0000
1000
0000
0000
,
0000
0001
0000
0100
,
0000
0010
0000
0000
,
0000
1000
0000
0000
,
0000
0010
0000
0000
,
0000
0100
0000
0000
,
0000
0100
0000
0000
,
0000
0001
0000
0000
,
0000
1000
0000
0000
,
0000
0010
0000
0000
,
0000
0100
0000
0000
,
0000
0010
0000
0000
,
0000
0010
0000
0000
,
0000
1000
0000
0000
,
0000
1000
0000
0000
,
0000
0100
0000
0000
,
0000
0100
0000
0000
,
0000
0010
0000
0000
,
0000
0010
0000
0000
,
0000
0010
0000
0000
,
0000
0100
0000
0000
,
0010
0100
0000
0000
,
0000
1000
0000
0000
,
0000
0001
0000
0000
,
0000
0000
0000
0000
,
0000
1000
0000
0000
,
0000
0000
0000
0000
,
0000
0010
0000
0000
,
0100
0000
0000
0010
,
0000
1000
0000
0001
,
0000
0000
0000
1000
,
0000
0010
0000
0010
,
0000
0010
0000
0100
,
0100
0100
0010
0000
,
0010
0000
0010
0001
,
0001
0001
0000
0000
,
0010
0000
0000
0000
,
0100
0000
0000
0000
,
1000
0000
0000
0000
,
1001
0000
0000
0000
;

//---------------dance-single - ----------------
#NOTES:
     dance-single:
     :
     Easy:
     2:
     0.108428,0.147805,0.046605,0.036618,0.000000,228.000000,214.000000,14.000000,11.000000,0.000000,0.000000,0.108428,0.147805,0.046605,0.036618,0.000000,228.000000,214.000000,14.000000,11.000000,0.000000,0.000000:
0000
0000
0000
0000
,
0000
0000
0000
0000
,
0000
1000
0000
1000
,
0000
0010
0000
0010
,
0000
0001
0000
1000
,
0000
0010
0000
0100
,
0000
0001
0001
0001
,
0000
1000
1000
1000
,
0000
0010
0000
0100
,
0000
0010
0000
1000
,
0000
0001
0001
0001
,
0000
0100
0100
0100
,
0000
0010
0000
1000
,
0000
0100
0000
0010
,
0000
1000
1000
1000
,
0000
0001
0001
0001
,
0000
1001
0000
0110
,
0000
0110
0000
1001
,
0000
0010
0010
0010
,
0000
1000
1000
1000
,
0000
0010
0100
0000
,
0000
0001
1000
0000
,
0000
0200
0000
0000
,
0000
0320
0000
0000
,
0000
1030
0100
0100
,
0100
0010
0010
0010
,
0010
0002
0000
0000
,
0000
2003
0000
0000
,
0000
3001
0100
0100
,
0100
0020
0000
0000
,
0030
1000
0000
0100
,
0000
1000
0100
0000
,
0000
0010
0000
0100
,
0010
0100
0000
0000
,
0000
0001
0000
0010
,
0100
0010
0100
0000
,
0000
1000
0000
0100
,
0010
0100
0010
0001
,
0010
0100
0010
1000
,
0001
0100
0010
0010
,
1000
0001
1000
0010
,
0100
0200
0000
0000
,
0300
1000
0010
0100
,
0010
0100
0100
0200
,
0000
0310
1000
0010
,
0100
2000
0000
0000
,
3000
0100
0100
1000
,
1000
0010
0010
0100
,
0100
0001
1000
0001
,
0010
0200
0000
0300
,
0000
0010
0010
1000
,
1000
0100
0100
0110
,
0000
0001
0001
0010
,
0010
0100
0100
0010
,
0010
1001
0010
0100
,
0010
1000
0100
0010
,
2000
3100
0001
0010
,
0010
0100
1000
0010
,
0100
0200
0000
0310
,
0001
0010
0001
0010
,
0001
1001
1001
1000
,
0100
1000
0100
1000
,
0100
0010
0010
1000
,
0000
0010
0010
0100
,
0010
1000
0000
0100
,
0000
0010
0010
0001
,
0100
0010
0100
0010
,
0001
0010
0100
1000
,
0100
1001
0010
0100
,
0010
0100
0010
0001
,
1000
1100
0010
0100
,
0010
0101
0010
0100
,
0001
0011
0010
0100
,
1000
1100
0100
0010
,
0110
0000
0000
0000
;

//---------------dance-single - ----------------
#NOTES:
     dance-single:
     :
     Medium:
     3:
     0.170251,0.210805,0.023303,0.109855,0.028296,358.000000,351.000000,7.000000,33.000000,0.000000,0.000000,0.170251,0.210805,0.023303,0.109855,0.028296,358.000000,351.000000,7.000000,33.000000,0.000000,0.000000:
0000
0000
0000
0000
,
0000
0000
0000
0000
,
0000
1000
1000
1000
,
0000
0100
0100
0100
,
0000
0000
1000
0000
1000
0000
0100
0010
,
0010
0000
0100
1000
0010
0000
1000
0000
,
0200
0000
0310
0000
0010
0000
1000
0100
,
1000
0000
0100
0000
0100
0010
0001
0010
,
0100
0000
1000
0000
0001
0000
0100
0010
,
0010
0000
0100
0001
1000
0000
0001
0000
,
0200
0000
0310
0000
0010
0000
0001
0100
,
0001
0000
0100
0000
0100
0010
1000
0010
,
0100
0000
1000
0000
0001
0000
0100
0010
,
0010
0000
0100
0001
1000
0000
0001
0000
,
0200
0000
0310
0000
0010
0000
0001
0100
,
0001
0000
0100
0000
0100
0010
1000
0010
,
0100
0000
1000
0000
0001
0000
0100
0010
,
0010
0000
0100
0001
1000
0000
0001
0000
,
0200
0000
0310
0000
0010
0000
0001
0100
,
1000
0000
0100
0000
0100
0010
0001
0010
,
0100
0010
0100
0000
2000
0000
3002
0000
,
1003
0000
0000
0000
1000
0000
0000
0000
0000
0000
0100
0010
0000
0100
0010
0000
,
0000
0000
0000
0000
0100
0000
0000
0100
0000
0000
0100
0000
0000
0000
0000
0000
,
1000
0000
1000
0000
0010
0000
0000
0010
0000
0000
0010
0000
0000
0000
0000
0000
,
0001
0001
1000
0100
1000
0010
0100
0010
,
0001
0010
0100
1000
0100
1000
0100
2000
,
0000
0000
3010
0000
0001
0000
0000
0001
0000
0000
0001
0000
0000
0000
0000
0000
,
1000
0000
1000
0000
0010
0000
0000
0010
0000
0000
0010
0000
0000
0000
0000
0000
,
0001
0001
1000
0100
1000
0010
0100
0010
,
2000
3000
0000
0000
,
0000
0000
0000
0000
0000
0000
0000
0000
0000
0000
0000
0000
0000
0000
0000
0000
1000
0000
0000
0000
0000
0000
0000
0000
0100
0000
0000
0000
0000
0000
0000
0000
0000
0000
0000
0000
0000
0000
0000
0010
0000
0000
0000
0000
0000
0000
0000
0000
0100
0000
0000
0000
0000
0000
0000
0000
0010
0000
0000
0000
0000
0000
0000
0000
,
0000
0000
0000
0000
0000
0000
0000
0000
0000
0000
0000
0000
0000
0000
0000
0000
0000
0100
0000
0000
0000
0000
0000
0000
0000
0000
0000
0000
0000
0000
0000
0000
0020
0000
0000
0000
0000
0000
0000
0000
0000
0000
0000
0000
0000
0000
0000
0000
0000
0000
0000
0000
0000
0000
0000
0000
0000
0000
0000
0000
0000
0000
0000
0000
,
0000
0000
1030
0100
0010
0001
0010
0100
,
1000
1000
2000
0000
0000
0000
3000
0000
,
0000
0000
1000
0100
0001
0000
0002
0000
,
1003
0100
1000
0000
0200
0000
0300
0000
,
0000
0000
1000
0100
1000
0001
0100
0010
,
0100
1000
0010
0200
0000
0000
0300
0000
,
0000
0000
0000
0000
1000
0100
1000
0001
,
1000
0100
1000
0100
0010
0000
0002
0000
,
1003
1000
1000
0100
0000
0010
0000
0001
,
0000
0020
0000
0000
0000
0030
0000
0000
,
0000
0000
1000
0100
1000
0001
1000
0100
,
1000
0100
0010
0000
0002
0000
1003
0000
,
0000
0100
0000
0010
0000
0001
0000
0010
,
0000
0100
0000
0000
0020
0000
0000
0000
0030
0000
0000
0000
0000
0000
0000
0000
,
0000
1000
0100
0010
,
0001
0000
1000
1000
0000
0100
1000
0000
,
0000
0000
0000
0000
1000
0000
0100
0000
0010
0000
0100
0000
0000
0100
0000
0000
,
1000
0000
0000
0200
0000
0000
0000
0000
0000
0000
0300
0000
0000
0000
0000
0000
,
0000
1100
0110
0011
,
0001
0000
0010
0000
0010
0000
0010
0000
1000
0000
0000
0000
0100
0020
0000
0000
,
0000
0030
0000
0000
1000
0000
0100
0000
0000
0010
0000
0000
0001
0000
0010
0000
,
0000
2000
0000
0000
0000
0000
0000
0000
,
0000
0100
3000
0000
1000
0000
0100
0010
,
0010
0000
0100
1000
0010
0000
1000
0000
,
0200
0000
0310
0000
0010
0000
1000
0100
,
1000
0000
0100
0000
0100
0010
0001
0010
,
0100
2000
0000
3200
,
0000
0320
0000
2030
,
0000
0000
3000
0110
0110
0110
0002
0000
,
0000
0203
0000
0320
,
0000
0000
0030
0100
1000
0000
0010
0001
,
0000
0000
0000
0001
0000
0000
0000
0001
0000
0000
0000
0000
1000
0000
0100
0000
,
0010
0001
0010
0100
1000
0000
0010
0001
,
0000
0000
0000
0001
0000
0000
0000
0001
0000
0000
0000
0000
0001
0000
0010
0000
,
0100
1000
0100
0010
0010
0001
0001
1000
,
1000
0100
0100
0010
0010
1000
1000
0100
,
0100
0010
0010
0001
0001
0100
0100
1000
,
1000
0100
0100
0010
0010
1000
1000
0100
,
0100
0001
0001
0000
1000
0100
1000
0100
,
0020
0000
1030
0001
1000
0001
1000
0001
,
0002
0000
1003
0100
1000
0100
1000
0100
,
2000
0000
3001
0100
0001
0100
0001
0000
,
0220
0000
0330
0000
;

//---------------dance-single - ----------------
#NOTES:
     dance-single:
     :
     Hard:
     5:
     0.223039,0.271891,0.046605,0.073237,0.193078,469.000000,455.000000,14.000000,22.000000,0.000000,0.000000,0.223039,0.271891,0.046605,0.073237,0.193078,469.000000,455.000000,14.000000,22.000000,0.000000,0.000000:
// measure 0
0000
0000
0000
0000
,  // measure 1
0000
0000
0000
0000
,  // measure 2
0000
0000
0000
0000
1000
0000
1000
0000
0000
1000
0001
0000
0000
0001
0000
0000
,  // measure 3
0010
0000
0100
0000
1000
0000
0001
0000
0000
1000
0001
0000
0000
0001
0000
0000
,  // measure 4
0010
0000
1000
0000
0000
0000
1000
0000
1000
0000
0000
1000
0010
0000
0000
0010
,  // measure 5
0100
0000
0000
0000
0100
0000
0100
0000
0010
0000
0000
0001
0000
0000
0100
0000
,  // measure 6
0000
0000
0000
0000
0010
0000
0100
0000
0010
0000
1000
0100
0000
0010
0100
0000
,  // measure 7
1000
0000
0000
0000
1000
0000
0100
0000
0010
0000
0000
0001
1000
0100
0000
0000
,  // measure 8
0010
0000
0001
0000
0000
0000
1000
0000
1000
0000
0000
1000
0010
0000
0000
0010
,  // measure 9
0100
0000
0000
0000
0100
0000
0100
0000
0010
0000
0000
0001
0000
0000
0100
0000
,  // measure 10
0000
0000
0000
0000
0010
0000
0100
0000
0010
0000
0001
0010
0000
0100
0010
0000
,  // measure 11
0001
0000
0000
0000
1000
0000
0100
0000
0010
0000
0000
0001
1000
0100
0000
0000
,  // measure 12
0010
0000
0100
0000
0000
0000
1000
0000
1000
0000
0000
1000
0010
0000
0000
0010
,  // measure 13
0100
0000
0000
0000
0100
0000
0100
0000
0010
0000
0000
0001
0000
0000
0100
0000
,  // measure 14
0000
0000
0000
0000
0010
0000
0100
0000
0010
0000
0001
0010
0000
0100
0010
0000
,  // measure 15
0001
0000
0000
0000
1000
0000
0100
0000
0010
0000
0000
0001
1000
0001
0000
0000
,  // measure 16
0010
0000
0100
0000
0000
0000
1000
0000
1000
0000
0000
1100
0010
0000
0000
0110
,  // measure 17
0100
0000
0000
0000
0100
0000
0100
0000
0010
0000
0000
0001
0000
0000
0100
0000
,  // measure 18
0000
0000
0000
0000
0010
0000
0100
0000
0010
0000
0001
0010
0000
0100
0010
0000
,  // measure 19
1001
0000
0000
0000
1000
0000
0100
0000
0010
0000
0000
0001
1000
0001
0000
0000
,  // measure 20
0010
0000
0100
0000
0000
0000
0100
0000
0000
0000
0100
0010
0100
0000
0000
0000
,  // measure 21
0000
0000
0010
0000
0000
0000
0010
0000
0000
0000
0010
0100
0010
0000
0200
0000
,  // measure 22
0000
0000
0300
0000
1000
0000
0000
0100
0000
0000
1000
0000
0000
0100
0000
0000
,  // measure 23
0010
0000
0000
0100
0010
0000
0001
0000
0000
1000
0000
0000
0100
0000
0000
0010
,  // measure 24
0000
0000
1000
0100
0000
0000
0000
0000
0100
0000
0010
0100
0010
0000
0000
0000
,  // measure 25
0001
0000
0001
0000
0000
0000
1000
0000
0100
1000
0100
0000
0000
0000
0010
0000
,  // measure 26
0010
0000
0000
0000
1000
0000
0000
0100
0000
0000
1000
0000
0000
0100
0000
0000
,  // measure 27
0010
0000
0000
0100
0010
0000
0001
0000
0000
1000
0000
0000
0100
0000
0000
0010
,  // measure 28
0000
0000
1000
0100
0000
0000
0000
0000
0100
0000
0010
0100
0010
0000
0100
0010
,  // measure 29
0001
0001
0000
0000
0000
0000
0000
0000
,  // measure 30
0000
0000
0000
0000
1000
0000
0100
0000
0000
0100
0000
0000
0010
0000
0001
0000
,  // measure 31
0000
0000
1000
0000
0000
0100
0000
0000
1000
0000
0000
0000
0000
0000
0000
0000
,  // measure 32
0000
0000
0000
0000
0100
0000
1000
0000
0000
0100
0000
0000
0100
0000
0000
0000
,  // measure 33
0010
0000
0100
0000
0000
2000
0000
0000
0000
0000
0000
0000
3000
0000
0000
0000
,  // measure 34
0000
0000
0000
0000
1000
0100
0000
0010
0000
0000
0001
0000
0000
0200
0000
0000
,  // measure 35
0010
0300
0000
0000
0000
0000
0010
0000
0000
0010
0000
0000
0000
0000
0000
0000
,  // measure 36
0000
0000
1000
0100
0100
0010
0100
1000
,  // measure 37
0100
0000
0000
0010
0000
0000
0100
0000
0000
0010
0000
0000
1000
0000
0100
0000
0000
0000
0100
0000
0010
0000
0000
0000
,  // measure 38
0010
0000
0000
0000
0001
0000
0000
0000
0000
0000
0000
0000
0000
0000
0000
0000
0000
0000
1000
0000
0000
0000
0000
0000
1000
0000
0000
0000
0000
0000
0000
0000
0000
1000
0000
0000
0010
0000
0000
0000
0000
0000
0000
0000
0000
0010
0000
0000
,  // measure 39
0100
0000
0000
0000
0100
0000
0100
0000
0010
0000
0000
0001
0000
0000
0100
0000
,  // measure 40
0000
0000
0000
0000
0010
0000
0100
0000
0010
0000
0001
0010
0000
0100
0010
0000
,  // measure 41
0001
0000
0000
0000
1000
0000
0100
0000
0010
0000
0000
0001
1000
0100
0000
0000
,  // measure 42
0010
0000
0100
0000
0000
0000
0001
0000
0001
0000
0000
0001
0100
0000
0000
0100
,  // measure 43
0010
0000
0000
0000
0010
0000
0010
0000
0100
0000
0000
1000
0000
0000
0010
0000
,  // measure 44
0000
0000
0000
0000
0100
0000
0010
0000
0100
0000
0001
0010
0000
0100
0010
0000
,  // measure 45
0001
0000
0000
0000
0001
0000
0010
0000
0100
0000
0000
1000
0001
1000
0000
0000
,  // measure 46
0100
0000
0010
0000
0000
0000
1000
0000
1000
0000
0000
1000
0010
0000
0000
0010
,  // measure 47
0100
0000
0000
0000
0100
0000
0100
0000
0010
0000
0000
0001
0000
0000
0100
0000
,  // measure 48
0000
0000
0000
0000
0010
0000
0100
0000
0010
0000
0001
0010
0000
0100
0010
0000
,  // measure 49
0001
0000
0000
0000
1000
0000
0100
0000
0010
0000
0000
0001
1000
0100
0000
0000
,  // measure 50
0010
0000
0100
0000
0000
0000
1000
0000
1000
0000
0000
1000
0100
0000
0000
0100
,  // measure 51
0010
0000
0001
0000
0001
0000
0000
0000
0010
0000
0000
0001
0000
0000
0100
0000
,  // measure 52
0000
0000
0000
0000
0010
0000
0100
0000
0010
0000
0001
0010
0000
0100
0010
0000
,  // measure 53
0001
0000
0000
0000
1000
0000
0100
0000
0010
0000
0000
0001
1000
0100
0000
0000
,  // measure 54
0010
0000
0100
0000
0000
0000
1000
0000
1000
0000
0000
1000
0010
0000
0000
0010
,  // measure 55
0100
0000
0000
0000
0100
0000
0100
0000
0010
0000
0000
0001
0000
0000
0200
0000
,  // measure 56
0000
0000
0300
0000
0010
0000
0100
0000
0010
0000
0001
0010
0000
0100
0010
0000
,  // measure 57
0001
0000
0000
0000
1000
0000
0100
0000
0010
0000
0000
0001
1000
0100
0000
0000
,  // measure 58
0010
0100
2000
0000
0000
0000
3200
0000
,  // measure 59
2300
3200
0320
0032
,  // measure 60
0023
0000
0030
1100
0100
1100
0002
0000
,  // measure 61
2003
3200
0320
0230
,  // measure 62
0320
0000
0000
0000
0030
0000
1100
0000
0100
0000
0000
0000
0010
0000
0000
0010
,  // measure 63
0000
0000
0000
1000
0000
0000
0000
1000
0000
0000
0000
0000
1000
0000
0100
0000
,  // measure 64
0010
0000
0100
0000
1000
0000
0000
0000
0110
0000
0010
0000
0000
1000
0000
0000
,  // measure 65
1000
0000
0000
0100
0000
0000
0000
0100
0000
0000
0000
0000
0010
0000
0100
0000
,  // measure 66
0010
0000
0100
0000
0010
0000
1000
0000
1000
0010
0100
0000
0000
0000
1000
0000
,  // measure 67
1000
0001
1000
0000
0000
0000
1000
0000
1000
0010
0110
0000
0100
0000
0110
0000
,  // measure 68
0100
0000
0101
0000
0000
0000
0001
0000
0001
0010
0100
0000
0000
0000
0001
0000
,  // measure 69
0001
1000
0001
0000
0000
0000
0001
0000
0001
0100
0110
0000
0010
0000
0110
0000
,  // measure 70
0010
0000
0110
0000
0000
0000
1000
0000
0100
0010
0100
0000
0100
0000
0100
0010
,  // measure 71
0100
0000
0002
0000
0003
0000
1000
0001
1000
0000
1000
0000
0001
1000
0001
0000
,  // measure 72
2000
0000
3000
0000
0000
0000
0100
0010
0100
0000
0100
0000
0100
0010
0100
0000
,  // measure 73
0002
0000
0003
0000
0000
0000
0100
0001
0100
0000
0100
0000
0100
0001
0100
0000
,  // measure 74
0220
0330
0000
0000
;
