#TITLE:THE MESSAGE;
#SUBTITLE:;
#ARTIST:NI-NI;
#TITLETRANSLIT:;
#SUBTITLETRANSLIT:;
#ARTISTTRANSLIT:;
#CREDIT:;
#BANNER:[ZIvision Song Contest] - THE MESSAGE.png;
#BACKGROUND:[ZIvision Song Contest] - THE MESSAGE-bg.png;
#LYRICSPATH:;
#CDTITLE:cdtitle.png;
#MUSIC:[ZIvision Song Contest] - THE MESSAGE.mp3;
#OFFSET:-0.050;
#SAMPLESTART:44.971;
#SAMPLELENGTH:14.087;
#SELECTABLE:YES;
#BPMS:0.000=133.000;
#STOPS:;
#BGCHANGES:;

//---------------dance-single - ----------------
#NOTES:
     dance-single:
     :
     Hard:
     7:
     0.418,0.408,0.062,0.000,0.065:
0000
0000
0000
0000
,
0000
0000
0000
0000
,
0000
0000
0000
0000
,
0000
0000
0000
0000
,
1000
0000
0000
0100
0000
0000
1000
0000
0000
0000
0010
0000
0000
0000
0010
0000
,
0100
0000
0000
0001
0000
0000
0100
0000
0000
0000
0010
0000
0010
0000
0010
0000
,
1000
0000
0000
0100
0000
0000
1000
0000
0000
0000
0001
0000
0000
0000
0001
0000
,
0010
0000
0000
0100
0000
0000
0010
0000
0001
0000
0000
0001
0000
0000
0100
0000
,
1001
0000
0000
0000
,
0010
0000
0010
0010
1000
0010
0000
0100
,
0001
0000
0010
0100
1000
0000
0001
0000
,
0010
0000
0010
0010
0100
1000
0000
1000
,
0010
0100
0010
0100
0001
0000
0000
0000
,
1000
0000
1000
1000
0100
1000
0000
0001
,
0100
0000
0010
1000
0100
0000
1000
0000
,
0001
0000
0001
0001
0010
0001
0000
1000
,
0010
0100
0010
0100
0001
0000
0000
0000
,
1000
0000
1000
0000
0100
1000
0001
0000
,
0010
0000
0010
0000
0001
0100
1000
0000
,
0100
0001
0010
0100
,
1000
0010
1000
0001
0100
0000
0000
0000
,
0010
0000
0010
0000
1000
0100
1000
0000
,
0001
0000
0001
0000
0010
0100
1000
0000
,
0010
0000
0010
0000
0100
0001
1000
0000
,
0010
1000
0010
0100
0001
0000
0000
0000
,
0010
0001
0000
0000
0010
0001
0000
0000
1000
0000
0100
0000
1000
0000
0000
0000
,
0010
0010
0100
0010
0100
0100
0010
0000
,
1000
0100
0000
0000
1000
0100
0000
0000
0010
0000
0001
0000
0010
0000
0000
0000
,
0001
0100
0001
0100
0010
0000
0000
0000
,
1000
0001
0000
0000
1000
0001
0000
0000
0010
0000
0100
0000
0010
0000
0000
0000
,
0001
0001
0010
0100
1000
1000
0001
0000
,
1000
0010
0000
0000
1000
0010
0000
0000
0100
0000
0001
0000
0100
0000
0000
0000
,
0010
0100
0010
0100
0001
0000
0000
0000
,
0010
0000
0010
0010
0001
0010
0000
0100
,
1000
0000
0010
0100
0001
0000
1000
0000
,
0001
0000
0001
0001
0010
0001
0000
1000
,
0100
0010
0100
0010
0001
0000
0000
0000
,
1000
0000
1000
1000
0010
1000
0000
0001
,
0100
0000
0010
1000
0001
0000
0010
0000
,
0100
0000
0100
0100
1000
0100
0000
0010
,
0001
0010
0001
0010
0100
0000
0000
0000
,
1010
0000
0011
0000
0100
1000
0001
0000
,
0010
0010
0010
0000
0100
0100
0100
0000
,
1100
1100
0001
0001
,
1000
0010
0001
0010
1000
0000
0000
0000
,
0101
0000
1100
0000
0010
1000
0001
0000
,
0011
0011
1100
1100
,
0010
0010
0010
0000
1000
1000
1000
0000
,
0001
0010
0100
0010
0001
0000
0000
0000
,
1000
1000
1000
1000
0100
1000
0000
0010
,
0100
0100
0010
1000
0001
0010
0100
0000
,
0010
0010
0010
0010
0001
0010
0000
0100
,
1000
0010
1000
0010
0100
0000
0001
0000
,
0100
0100
0100
0100
0010
0100
0000
0001
,
0010
0010
0100
0010
0001
1000
0100
0000
,
0010
0010
0010
0010
0001
0010
0000
0100
,
1000
0010
1000
0010
0100
0000
0000
0000
,
0001
0000
0001
0001
0010
0001
0000
0010
,
0100
0000
1000
0001
0100
0000
0001
0000
,
1000
0000
1000
1000
0010
0100
0000
0001
,
0010
0100
0010
0100
1000
0000
0000
0000
,
0010
0000
0010
0010
1000
0010
0000
0100
,
0001
0000
0010
0100
1000
0000
0010
0000
,
1000
0000
1000
1000
0010
1000
0000
0001
,
0010
0100
0010
0100
1000
0000
0000
0000
,
0001
0000
0000
0000
,
1000
0100
0010
0001
,
1000
0000
0000
0000
,
0010
1000
0001
0100
,
0001
0001
0001
0001
,
0010
0010
0010
0010
,
0100
0100
0100
0100
,
1000
1000
1000
1000
,
0001
0000
0000
0100
0001
0000
0010
0000
0100
0000
0000
0000
0000
0000
0000
0000
,
1000
0000
0100
0000
1000
0001
0001
0000
,
1000
0000
0000
0010
1000
0000
0001
0000
0100
0000
0000
0000
0000
0000
0000
0000
,
0010
0000
0000
0000
1000
0000
0000
1000
0001
0000
0010
0000
0010
0000
0000
0000
,
0100
0000
0000
1000
0100
0000
0010
0000
0001
0000
0010
0000
0000
0000
0010
0000
,
0000
0001
0000
0001
0000
1000
1000
0010
,
0100
0000
0000
0001
0100
0000
0010
0000
1000
0000
0000
0000
1000
0000
1000
0000
,
0001
0000
0000
0000
0010
0000
0000
0100
1000
0000
1000
0000
1000
0000
0000
0000
,
0001
0100
0001
0000
0001
0000
0001
0000
0010
0000
0001
0000
0000
0000
1000
0000
,
0100
0100
0010
0001
0100
0000
0010
0000
,
1000
0010
1000
0000
1000
0000
1000
0000
0001
0000
1000
0000
0000
0000
0010
0000
,
0100
0001
0100
0001
1000
0000
0000
0000
,
0010
1000
0010
0000
0010
0000
0010
0000
1000
0000
0010
0000
0000
0000
0100
0000
,
0001
0001
0010
0100
1000
0000
0001
0000
,
0010
0100
0010
0000
0010
0000
0010
0000
0001
0000
0010
0000
0000
0000
0100
0000
,
1000
0010
1000
0010
0100
0000
0000
0000
,
0001
0000
0001
0001
1000
0001
0000
0001
,
1000
0000
0001
0010
1000
0000
0010
0000
,
0001
0000
0001
0001
1000
0001
0000
0100
,
0010
1000
0010
1000
0001
0000
0000
0000
,
0010
0000
0010
0010
0001
0010
0000
0100
,
1000
0000
0001
0100
1000
0000
0100
0000
,
0001
0000
0001
0001
0010
0100
0000
1000
,
0001
0010
0100
1000
0001
0000
0000
0000
;

//---------------dance-single - ----------------
#NOTES:
     dance-single:
     :
     Medium:
     6:
     0.388,0.380,0.006,0.000,0.000:
0000
0000
0000
0000
,
0000
0000
0000
0000
,
0000
0000
0000
0000
,
0000
0000
0000
0000
,
1000
0100
1000
0100
1000
0100
0000
0010
,
0001
0000
0010
0001
0010
0000
0001
0000
,
1000
0010
1000
0010
0100
0001
0000
1000
,
0010
0000
0100
0001
0100
0000
0000
0000
,
1001
0000
0000
0000
,
0010
0000
1000
0001
1000
0000
0100
0000
,
0010
0001
0010
0001
0010
0000
0001
0000
,
1000
0000
0010
0100
0010
0000
0100
0000
,
0001
0010
0100
1000
0001
0000
0000
0000
,
1000
0000
0100
1000
0100
0000
0010
0000
,
0001
0010
0001
0010
0001
0000
1000
0000
,
0010
0000
1000
0010
1000
0000
0010
0000
,
0100
0001
1000
0010
0100
0000
0000
0000
,
0001
0000
0010
0000
0001
0010
0100
0000
,
1000
0000
0010
0000
1000
0010
0100
0000
,
0001
0000
1000
0000
0001
1000
0100
0000
,
0010
0001
0010
0100
1000
0000
0000
0000
,
0010
0000
1000
0000
0001
0010
0001
0000
,
1000
0100
1000
0100
1000
0000
0010
0000
,
0100
0000
0100
0001
0010
0000
0100
0000
,
1000
0010
0100
0001
1000
0000
0000
0000
,
0001
0001
0001
0000
0010
0010
0000
0000
,
0100
1000
0100
0010
0001
0000
1000
0000
,
0010
0010
0010
0000
0100
0100
0000
0001
,
0010
0100
1000
0001
0010
0000
0000
0000
,
0001
0001
0001
0000
1000
1000
0000
0010
,
1000
0001
0100
0010
1000
0000
0001
0000
,
0010
0010
0010
0000
0001
0001
0000
0010
,
0100
1000
0001
0010
0100
0000
0000
0000
,
1000
0000
0010
1000
0010
0100
0000
0001
,
0010
0000
0001
0010
0100
0000
1000
0000
,
0001
0000
0001
0001
0100
0001
0000
0010
,
0100
0010
0100
0010
0100
0000
0000
0000
,
1000
0000
0010
1000
0001
0100
0000
0010
,
1000
0000
0100
1000
0010
0000
0100
0000
,
0001
0000
0010
0001
0010
0001
0000
0010
,
0100
0000
1000
0100
0010
0000
0000
0000
,
0001
0000
0001
0000
1000
0010
0100
0000
,
0001
0000
0001
0000
1000
0010
0100
0000
,
0001
0000
0001
0000
0010
0100
1000
0000
,
0001
0010
0100
1000
0001
0000
0000
0000
,
1000
0000
0010
0000
0100
0001
0100
0000
,
0010
0000
1000
0000
0001
0100
0001
0000
,
1000
0000
0010
0000
0100
0001
0100
0000
,
0001
0010
0100
1000
0001
0000
0000
0000
,
0010
0010
0010
0000
0100
0100
0000
0001
,
0010
0000
0100
1000
0001
0000
0010
0000
,
0100
0100
0100
0000
0010
0010
0000
0001
,
1000
0100
0010
0001
1000
0000
0000
0000
,
0010
0010
0010
0000
1000
1000
0000
0001
,
0010
0000
0100
1000
0001
0000
0010
0000
,
0100
0100
0100
0000
1000
1000
0000
0001
,
0010
0100
1000
0001
0010
0000
0000
0000
,
1000
0000
0001
0010
0001
0000
0010
0000
,
0100
1000
0100
1000
0100
0000
0010
0000
,
0001
0000
0100
0001
0100
0000
0010
0000
,
1000
0100
0010
0001
1000
0000
0000
0000
,
0010
0000
1000
0001
1000
0000
0010
0000
,
0100
0001
0100
0010
1000
0000
0001
0000
,
0010
0000
0001
0010
0001
0000
0010
0000
,
0100
1000
0001
0010
0100
0000
0000
0000
,
1000
0010
0100
0001
,
0010
0100
1000
0001
,
0010
0001
0100
0010
,
1000
0010
0100
0001
,
0010
0010
0001
0001
,
1000
1000
0100
0100
,
0010
0010
0100
0100
,
1000
1000
0001
0001
,
0100
0000
0100
0100
0100
0000
0000
0000
,
0010
0000
0010
0000
0100
0100
0100
0000
,
0001
0000
0001
0001
0001
0000
0000
0000
,
1000
0000
1000
0000
0100
0100
0100
0000
,
0010
0000
0010
0010
0010
0000
0000
0000
,
0001
0000
0001
0000
1000
1000
1000
0000
,
0010
0000
0010
0010
0010
0000
0000
0000
,
0100
0000
0100
0000
0001
0001
0001
0000
,
1000
0100
0010
0001
1000
0100
0000
0010
,
0001
1000
0010
0100
0001
0000
1000
0000
,
0001
0010
0100
1000
0001
0010
0000
0100
,
1000
0010
0100
0001
1000
0000
0000
0000
,
0001
0100
0010
1000
0001
0100
0000
0010
,
1000
0010
0100
0001
1000
0000
0001
0000
,
1000
0100
0010
0001
1000
0100
0000
0010
,
0001
0010
0100
1000
0001
0000
0000
0000
,
1000
0000
0010
1000
0010
0000
0100
0000
,
0001
0010
0100
1000
0001
0000
0100
0000
,
0010
0000
1000
0100
1000
0000
0001
0000
,
0010
0001
1000
0100
0010
0000
0000
0000
,
0001
0000
1000
0001
1000
0000
0010
0000
,
0100
0001
0100
0010
1000
0000
0001
0000
,
0010
0000
0100
1000
0100
0000
0010
0000
,
0001
0010
0100
1000
0001
0000
0000
0000
;

//---------------dance-single - ----------------
#NOTES:
     dance-single:
     :
     Easy:
     2:
     0.157,0.190,0.006,0.000,0.000: // measure 1
0000
0000
0000
0000
,  // measure 2
0000
0000
0000
0000
,  // measure 3
0000
0000
0000
0000
,  // measure 4
0000
0000
0000
0000
,  // measure 5
0001
0001
0001
0000
,  // measure 6
0001
0000
0000
0000
,  // measure 7
1000
1000
1000
0000
,  // measure 8
1000
0000
0000
0000
,  // measure 9
0010
0000
0000
0000
,  // measure 10
0100
0000
0000
0000
,  // measure 11
0100
0000
0100
0000
,  // measure 12
0010
0000
0000
0000
,  // measure 13
0010
0000
0010
0000
,  // measure 14
1000
0000
0000
0000
,  // measure 15
1000
0000
1000
0000
,  // measure 16
0001
0000
0000
0000
,  // measure 17
0001
0000
0001
0000
,  // measure 18
1000
0000
0000
0000
,  // measure 19
1000
0000
0000
0000
,  // measure 20
0010
0000
0000
0000
,  // measure 21
0010
0010
0010
0000
,  // measure 22
0010
0000
0000
0000
,  // measure 23
0100
0000
0000
0000
,  // measure 24
0100
0000
0000
0000
,  // measure 25
0100
0100
0100
0000
,  // measure 26
1000
0000
0000
0000
,  // measure 27
0001
0001
0001
0001
,  // measure 28
0001
0000
0000
0000
,  // measure 29
1000
1000
1000
0000
,  // measure 30
0010
0000
0000
0000
,  // measure 31
0010
0010
0010
0010
,  // measure 32
0010
0000
0000
0000
,  // measure 33
0100
0100
0100
0000
,  // measure 34
0001
0001
0001
0000
,  // measure 35
1000
0000
0000
0000
,  // measure 36
0010
0010
0010
0000
,  // measure 37
0100
0000
0000
0000
,  // measure 38
0001
0001
0001
0000
,  // measure 39
0010
0000
0000
0000
,  // measure 40
0100
0100
0100
0000
,  // measure 41
1000
0001
1000
0000
,  // measure 42
0010
0000
0000
0000
,  // measure 43
0010
0000
0010
0000
,  // measure 44
1000
1000
1000
0000
,  // measure 45
0001
0001
0001
0000
,  // measure 46
0010
0000
0100
0000
,  // measure 47
0010
0000
0100
0000
,  // measure 48
0010
0010
0010
0000
,  // measure 49
1000
0000
0000
0000
,  // measure 50
0001
0000
0000
0000
,  // measure 51
1000
1000
1000
1000
,  // measure 52
1000
0000
0000
0000
,  // measure 53
0010
0010
0010
0000
,  // measure 54
0100
0000
0000
0000
,  // measure 55
0010
0010
0010
0010
,  // measure 56
0010
0000
0000
0000
,  // measure 57
1000
1000
1000
0000
,  // measure 58
0010
0000
0010
0000
,  // measure 59
0010
0010
0010
0000
,  // measure 60
0100
0000
0100
0000
,  // measure 61
0100
0100
0100
0000
,  // measure 62
0001
0000
0001
0000
,  // measure 63
0001
0001
0001
0000
,  // measure 64
1000
0000
1000
0000
,  // measure 65
1000
1000
1000
0000
,  // measure 66
0100
0000
0000
0000
,  // measure 67
0010
0010
0010
0010
,  // measure 68
0010
0000
0000
0000
,  // measure 69
0100
0100
0100
0100
,  // measure 70
0100
0000
0000
0000
,  // measure 71
1000
1000
1000
1000
,  // measure 72
1000
0000
0000
0000
,  // measure 73
0010
0000
0010
0010
,  // measure 74
0010
0000
0010
0000
,  // measure 75
0010
0000
0010
0000
,  // measure 76
0010
0010
0010
0000
,  // measure 77
0010
0000
0010
0000
,  // measure 78
0100
0100
0100
0000
,  // measure 79
0100
0000
0100
0000
,  // measure 80
0100
0100
0100
0000
,  // measure 81
0100
0000
0100
0000
,  // measure 82
1000
1000
1000
0000
,  // measure 83
0001
0000
0001
0000
,  // measure 84
1000
1000
1000
0000
,  // measure 85
0001
0000
0001
0000
,  // measure 86
0010
0010
0010
0000
,  // measure 87
0010
0000
0010
0000
,  // measure 88
0010
0010
0010
0000
,  // measure 89
0100
0000
0100
0000
,  // measure 90
1000
0000
0000
0000
,  // measure 91
0001
0000
0001
0000
,  // measure 92
0010
0000
0000
0000
,  // measure 93
0100
0000
0100
0000
,  // measure 94
1000
0000
0000
0000
,  // measure 95
0001
0000
1000
0000
,  // measure 96
0010
0000
0000
0000
,  // measure 97
0100
0000
0110
0000
;
