#VERSION:0.83;
#TITLE:THE BOYS;
#SUBTITLE:;
#ARTIST:Girls' Generation;
#TITLETRANSLIT:;
#SUBTITLETRANSLIT:;
#ARTISTTRANSLIT:;
#GENRE:K-POP;
#ORIGIN:;
#CREDIT:;
#BANNER:[ZIvision Song Contest] - THE BOYS.png;
#BACKGROUND:[ZIvision Song Contest] - THE BOYS-bg.png;
#PREVIEWVID:;
#JACKET:[ZIvision Song Contest] - THE BOYS-jacket.png;
#CDIMAGE:;
#DISCIMAGE:;
#LYRICSPATH:;
#CDTITLE:;
#MUSIC:[ZIvision Song Contest] - THE BOYS.ogg;
#OFFSET:-6.261000;
#SAMPLESTART:116.862152;
#SAMPLELENGTH:16.173920;
#SELECTABLE:YES;
#BPMS:0.000=115.000;
#STOPS:;
#DELAYS:;
#WARPS:;
#TIMESIGNATURES:0.000=4=4;
#TICKCOUNTS:0.000=4;
#COMBOS:0.000=1;
#SPEEDS:0.000=1.000=0.000=0;
#SCROLLS:0.000=1.000;
#FAKES:;
#LABELS:0.000=Song Start;
#BGCHANGES:7.938=[ZIvision Song Contest] - THE BOYS.avi=1.000=0=0=1=====,
99999=-nosongbg-=1.000=0=0=0 // don't automatically add -songbackground-
;
#KEYSOUNDS:;
#ATTACKS:
;

//---------------dance-single - ----------------
#NOTEDATA:;
#CHARTNAME:;
#STEPSTYPE:dance-single;
#DESCRIPTION:;
#CHARTSTYLE:;
#DIFFICULTY:Medium;
#METER:6;
#RADARVALUES:0.373065,0.362619,0.089536,0.246223,0.000000,350.000000,338.000000,12.000000,33.000000,0.000000,0.000000,0.000000,0.000000,0.000000,0.373065,0.362619,0.089536,0.246223,0.000000,350.000000,338.000000,12.000000,33.000000,0.000000,0.000000,0.000000,0.000000,0.000000;
#CREDIT:DDRDAIKENKAI;
#NOTES:
// measure 0
0000
0000
0000
0000
,  // measure 1
0000
0000
0000
0000
,  // measure 2
0100
0000
0001
1000
0000
1000
0001
0000
,  // measure 3
0100
0000
0010
1000
0000
1000
0010
0000
,  // measure 4
0100
0000
0001
0010
0000
0010
0001
0000
,  // measure 5
0100
0001
1000
0001
1000
0000
1001
0000
,  // measure 6
0010
0000
1000
0001
0000
0001
1000
0000
,  // measure 7
0010
0000
1000
0100
0000
0100
1000
0000
,  // measure 8
0010
0000
0100
0001
0000
0001
0100
0000
,  // measure 9
0010
0100
0010
0100
0010
0000
0120
0000
,  // measure 10
1030
0100
0001
0000
0001
0100
1000
0000
,  // measure 11
0001
1000
0001
1000
0000
0010
0210
0000
,  // measure 12
0301
0010
1000
0000
1000
0010
0001
0000
,  // measure 13
0001
1000
0001
1000
0000
0010
0110
0000
,  // measure 14
0200
0000
0000
0001
0000
0301
1000
0000
,  // measure 15
0200
0000
0000
0010
0000
0310
0001
0000
,  // measure 16
1000
0000
0001
0100
0000
0010
1000
0000
,  // measure 17
0001
0010
0100
1000
0000
0001
1001
0000
,  // measure 18
1000
0100
1000
0001
0001
0001
0000
1000
,  // measure 19
0001
0100
0001
1000
1000
1000
0000
0001
,  // measure 20
0100
0010
0100
0100
0000
0001
0000
1002
,  // measure 21
0000
1000
0000
1000
0000
1000
1003
0000
,  // measure 22
0100
0010
0001
0010
0010
0010
0000
0001
,  // measure 23
0010
0100
1000
0200
0000
1300
0000
1000
,  // measure 24
0001
0100
0010
1000
0000
0001
0000
1002
,  // measure 25
0000
1000
1000
1003
0000
0100
0010
0002
,  // measure 26
0000
0000
0000
0000
0000
0000
0000
0003
,  // measure 27
0000
1000
0001
1000
0001
0000
1001
0000
,  // measure 28
1000
0001
0100
0010
1000
0000
0001
1000
,  // measure 29
0001
1000
0010
0100
0001
0000
1000
1000
,  // measure 30
0010
0100
0010
0100
0001
0000
0001
0001
,  // measure 31
0100
0010
0100
0010
1000
0001
0001
0001
,  // measure 32
0000
1000
1000
0010
0010
0100
0100
0001
,  // measure 33
0000
0010
0010
0100
0100
1000
1000
0001
,  // measure 34
0000
1000
1000
0001
0001
0100
0100
0010
,  // measure 35
0000
0010
1000
1000
0100
0100
0010
0010
,  // measure 36
0000
0001
0001
0001
0001
0000
0200
0000
,  // measure 37
0301
0010
0001
1000
1000
1000
0000
1000
,  // measure 38
0001
0100
0001
1000
1000
1000
0000
1000
,  // measure 39
0010
0100
0010
0020
0000
2030
0000
3020
,  // measure 40
0000
0100
0000
0100
0000
1000
1030
0000
,  // measure 41
0001
0100
0010
1000
1000
1000
0000
0001
,  // measure 42
1000
0100
0010
0002
0000
1003
0000
1000
,  // measure 43
0001
0010
0001
0010
0000
0100
0000
0020
,  // measure 44
0000
0001
0001
0031
0000
0200
0000
0320
,  // measure 45
1000
1000
1030
0000
0010
1000
0100
0000
,  // measure 46
0010
0001
0100
0010
1000
0000
0001
0001
,  // measure 47
1000
0010
0100
0001
0020
0000
0100
0130
,  // measure 48
0000
1000
0001
1000
0001
0000
1001
0000
,  // measure 49
2000
0000
0010
0010
3020
0000
0230
0000
,  // measure 50
0302
0000
0010
0010
0023
0000
0230
0000
,  // measure 51
2300
0000
0001
0001
3002
0000
1003
0000
,  // measure 52
0002
0000
1000
1000
2003
0000
3001
0000
,  // measure 53
0210
0000
0310
1000
0100
0010
0001
0000
,  // measure 54
0200
0000
0010
0310
0000
0000
0100
0100
,  // measure 55
0001
0010
0100
1000
0020
0000
0100
0230
,  // measure 56
0000
0301
1000
0001
1000
0000
1001
0000
,  // measure 57
1000
1000
0000
0001
0010
0001
0010
0100
,  // measure 58
1000
0010
1000
0010
1000
0000
0001
0001
,  // measure 59
1000
0001
0100
0100
0000
0010
0010
0000
,  // measure 60
0220
0000
0000
0330
;

//---------------dance-single - ----------------
#NOTEDATA:;
#CHARTNAME:;
#STEPSTYPE:dance-single;
#DESCRIPTION:;
#CHARTSTYLE:;
#DIFFICULTY:Hard;
#METER:9;
#RADARVALUES:0.556399,0.657247,0.410371,0.149226,0.227569,522.000000,467.000000,55.000000,20.000000,0.000000,0.000000,0.000000,0.000000,0.000000,0.556399,0.657247,0.410371,0.149226,0.227569,522.000000,467.000000,55.000000,20.000000,0.000000,0.000000,0.000000,0.000000,0.000000;
#CREDIT:DDRDAIKENKAI;
#NOTES:
// measure 0
0000
0000
0000
0000
,  // measure 1
0000
0000
0000
0000
,  // measure 2
0100
0000
1001
0001
0000
1000
1001
0000
,  // measure 3
0010
0000
1001
1000
0000
0001
1001
0000
,  // measure 4
0100
0000
0110
0010
0000
0100
0110
0000
,  // measure 5
0100
0000
0001
0000
1000
0000
0100
1000
0100
1000
0100
0000
1100
0000
0000
0000
,  // measure 6
1000
0100
0010
0001
0100
0010
1000
0000
,  // measure 7
0001
0010
0100
1000
0010
0100
0001
0000
,  // measure 8
1000
0000
1001
0100
0000
0100
0110
0000
,  // measure 9
1001
0000
1000
0000
1000
0000
0001
0100
0001
0100
0001
0000
1001
0000
0000
0000
,  // measure 10
0001
0010
1000
0010
0001
0100
1000
0100
,  // measure 11
0001
1000
0100
1000
0000
0001
1001
0001
,  // measure 12
1000
0010
0001
0010
1000
0100
0001
0100
,  // measure 13
1000
0010
1000
0001
0000
1000
1001
0001
,  // measure 14
1000
0000
1100
0100
0000
0010
0011
0001
,  // measure 15
0100
0000
0101
0100
0000
0010
1010
1000
,  // measure 16
0001
0000
0101
1000
0000
0100
1100
0002
,  // measure 17
0000
0013
1000
0020
0000
0031
1002
1000
,  // measure 18
1003
0000
0100
0000
0010
0000
0001
0100
0001
0100
0010
0000
0110
0000
0010
0000
,  // measure 19
0100
0000
0001
0000
0010
0000
0100
1000
0100
1000
0001
0000
1001
0000
0001
0000
,  // measure 20
1000
0000
0010
0000
0001
0000
0010
0100
0010
0100
0010
0000
0110
0000
0010
0000
,  // measure 21
1000
0100
0001
0100
1000
0001
1001
0000
,  // measure 22
1000
0000
0010
0000
0100
0000
0001
1000
0001
1000
0100
0000
1100
0000
0100
0000
,  // measure 23
0010
0000
0100
0000
1000
0000
0001
1000
0001
1000
0010
0000
1010
0000
0010
0000
,  // measure 24
0001
0000
0010
0000
0100
0000
0001
0010
0001
0010
0100
0000
0110
0000
0100
0000
,  // measure 25
1000
0010
0100
1000
0100
0001
1000
0200
,  // measure 26
0000
0010
0010
1000
1000
0010
0020
0330
,  // measure 27
0000
0010
0001
0100
1000
0000
1100
0000
,  // measure 28
0101
0000
0001
0010
0001
0000
1000
0000
0100
0000
0000
0000
1000
0010
1000
0010
,  // measure 29
1000
0100
1000
0100
1000
0000
0100
0000
0010
0000
0000
0000
0001
0100
0001
0100
,  // measure 30
0001
0000
0001
0100
0000
0100
0010
0000
1000
0000
0000
0000
0100
0010
0100
0010
,  // measure 31
0100
1000
0010
1000
0010
0100
0001
0100
0001
0000
0001
0000
0011
0000
0110
0000
,  // measure 32
1001
0000
0001
0100
0010
0000
0010
1000
0100
0000
0100
0010
0001
0000
1000
0000
,  // measure 33
0100
0000
0010
0001
0010
0001
0010
0100
1000
0000
1000
0100
0010
0000
0010
0000
,  // measure 34
0001
0000
1000
0001
0100
0000
0010
0000
0100
0001
1000
0100
1000
0010
1000
0010
,  // measure 35
1000
0100
1100
0001
0011
0100
0110
0020
,  // measure 36
0000
1000
1000
1000
2030
0000
0001
0001
,  // measure 37
3001
0000
0100
0000
1000
0000
0001
0010
0001
0010
1000
0000
1001
0000
0001
0000
,  // measure 38
1000
0000
0100
0000
0001
0000
1000
0010
1000
0010
0001
0000
1001
0000
1000
0000
,  // measure 39
0001
0000
0100
0000
1000
0000
0001
0010
0001
0010
1000
0000
1001
0000
0100
0000
,  // measure 40
0010
0000
0001
0000
0100
0000
0001
1000
0001
1000
0001
0000
0101
0000
0000
0000
,  // measure 41
0110
0000
0100
0000
0001
0000
1000
0100
1000
0100
1000
0000
1010
0000
0010
0000
,  // measure 42
0100
0000
1000
0000
0100
0000
0001
0010
0001
0010
0100
0000
0110
0000
0010
0000
,  // measure 43
0001
0000
1000
0000
0010
0000
0100
0001
0100
0001
0100
0000
0110
0000
0010
0000
,  // measure 44
1000
0000
0100
0000
0010
0000
0100
1000
0100
1000
0001
0000
2001
0000
0000
0000
,  // measure 45
3100
1000
0010
0001
0010
1000
1000
1000
,  // measure 46
0001
0010
0001
0100
0010
0000
0010
1000
,  // measure 47
0100
0010
1000
0010
0002
0000
0100
0203
,  // measure 48
0000
0010
0310
1000
0001
0000
1001
0001
,  // measure 49
2000
0000
0100
0100
3200
0000
2300
0000
,  // measure 50
3010
0001
0010
0100
1000
0100
0001
0000
,  // measure 51
0100
1000
0100
0010
0001
0010
1000
0000
,  // measure 52
1001
0000
1001
0001
0110
0000
1001
0000
,  // measure 53
1100
0100
1000
0010
0100
0001
0010
0100
,  // measure 54
2000
0000
0010
3020
0000
1030
1100
0100
,  // measure 55
0010
0001
0100
0010
2000
0000
0001
3001
,  // measure 56
0020
0000
0100
0000
0100
0000
0130
1000
0100
1000
0100
0000
1100
0000
0000
0000
,  // measure 57
1000
2000
0000
3001
0001
0100
0100
0010
,  // measure 58
0010
0001
0010
1000
0100
0000
0010
1000
,  // measure 59
0010
0001
0101
0100
0000
0010
1010
1000
,  // measure 60
2002
0000
0000
3003
;

//---------------dance-single - ----------------
#NOTEDATA:;
#CHARTNAME:;
#STEPSTYPE:dance-single;
#DESCRIPTION:;
#CHARTSTYLE:;
#DIFFICULTY:Easy;
#METER:3;
#RADARVALUES:0.237696,0.317292,0.179071,0.089536,0.000000,223.000000,199.000000,24.000000,12.000000,0.000000,0.000000,0.000000,0.000000,0.000000,0.237696,0.317292,0.179071,0.089536,0.000000,223.000000,199.000000,24.000000,12.000000,0.000000,0.000000,0.000000,0.000000,0.000000;
#CREDIT:DDRDAIKENKAI;
#NOTES:
// measure 0
0000
0000
0000
0000
,  // measure 1
0000
0000
0000
0000
,  // measure 2
1000
0000
0000
0001
0000
0000
1000
0000
,  // measure 3
0100
0000
0000
0010
0000
0000
0100
0000
,  // measure 4
1000
0000
0000
0001
0000
0000
1000
0000
,  // measure 5
0010
0010
0010
0010
,  // measure 6
0100
0000
0000
0010
0000
0000
0100
0000
,  // measure 7
0001
0000
0000
1000
0000
0000
0001
0000
,  // measure 8
0100
0000
0000
0010
0000
0000
0100
0000
,  // measure 9
0110
0000
0000
0000
,  // measure 10
1000
0001
1000
0001
,  // measure 11
0100
0000
0100
0100
0000
0000
0100
0000
,  // measure 12
0010
1000
0010
1000
,  // measure 13
0001
0000
0001
0001
0000
0000
0010
0000
,  // measure 14
0200
0000
0000
0000
0000
0300
1000
0000
,  // measure 15
0200
0000
0000
0000
0000
0300
0010
0000
,  // measure 16
0002
0003
2000
3000
,  // measure 17
0001
1000
2002
3003
,  // measure 18
0010
0100
0001
0001
,  // measure 19
0100
0010
1000
1000
,  // measure 20
0100
0010
0001
1000
,  // measure 21
0002
0000
0000
0003
,  // measure 22
0010
0100
0010
0010
,  // measure 23
0001
1000
0001
0001
,  // measure 24
0100
0010
0100
0100
,  // measure 25
0020
0000
1030
0100
,  // measure 26
0020
0000
0000
0000
,  // measure 27
0000
0031
0001
0001
,  // measure 28
1000
0001
1001
0000
,  // measure 29
0001
1000
1001
0000
,  // measure 30
0100
0010
0110
0000
,  // measure 31
0010
0100
0110
0110
,  // measure 32
0100
1000
0010
0010
,  // measure 33
0100
0001
0010
0010
,  // measure 34
0100
1000
0010
0010
,  // measure 35
0100
0110
0110
1002
,  // measure 36
0000
1000
1000
1003
,  // measure 37
0001
0000
0000
1000
0000
0000
1001
0000
,  // measure 38
0001
0000
0000
1000
0000
0000
1001
0000
,  // measure 39
1000
0000
0000
0001
0000
0000
1001
0000
,  // measure 40
0100
0100
0100
0100
,  // measure 41
0010
0000
0000
0100
0000
0000
0110
0000
,  // measure 42
0100
0000
0000
0010
0000
0000
0110
0000
,  // measure 43
0010
0000
0000
0100
0000
0000
0110
0000
,  // measure 44
0010
0010
0010
0110
,  // measure 45
1000
0100
0010
0001
,  // measure 46
1000
0010
0100
0001
,  // measure 47
0010
0000
0100
0000
1000
0000
0001
0001
,  // measure 48
0000
1000
1000
1000
,  // measure 49
1001
0001
0001
0001
,  // measure 50
1000
1000
1000
1000
,  // measure 51
0100
0100
0100
0100
,  // measure 52
0110
0110
0110
0110
,  // measure 53
1001
1000
0100
0010
,  // measure 54
0001
0000
0100
0100
0000
0000
0010
0000
,  // measure 55
1000
0000
0001
0000
0010
0000
0100
0100
,  // measure 56
0000
0010
0010
0010
,  // measure 57
0001
0001
1000
0010
,  // measure 58
0100
0001
1000
1000
,  // measure 59
0001
0100
0010
1000
,  // measure 60
2002
0000
0000
3003
;
