#VERSION:0.82;
#TITLE:Salsa Tequila;
#SUBTITLE:;
#ARTIST:Anders Nilsen;
#TITLETRANSLIT:;
#SUBTITLETRANSLIT:;
#ARTISTTRANSLIT:;
#GENRE:Faux Espanol Pop;
#ORIGIN:;
#CREDIT:;
#BANNER:[ZIvision Song Contest] - Salsa Tequila.png;
#BACKGROUND:[ZIvision Song Contest] - Salsa Tequila-bg.png;
#PREVIEWVID:;
#JACKET:[ZIvision Song Contest] - Salsa Tequila-jacket.png;
#CDIMAGE:;
#DISCIMAGE:;
#LYRICSPATH:;
#CDTITLE:;
#MUSIC:[ZIvision Song Contest] - Salsa Tequila.ogg;
#OFFSET:-0.059627;
#SAMPLESTART:30.059626;
#SAMPLELENGTH:14.999998;
#SELECTABLE:YES;
#BPMS:0.000=128.000;
#STOPS:;
#DELAYS:;
#WARPS:;
#TIMESIGNATURES:0.000=4=4;
#TICKCOUNTS:0.000=4;
#COMBOS:0.000=1;
#SPEEDS:0.000=1.000=0.000=0;
#SCROLLS:0.000=1.000;
#FAKES:;
#LABELS:0.000=Song Start;
#BGCHANGES:0.000=[ZIvision Song Contest] - Salsa Tequila.avi=1.000=0=0=0=StretchNoLoop==CrossFade_Fastest==,
99999=-nosongbg-=1.000=0=0=0 // don't automatically add -songbackground-
;
#KEYSOUNDS:;
#ATTACKS:
;

//---------------dance-single - ----------------
#NOTEDATA:;
#CHARTNAME:;
#STEPSTYPE:dance-single;
#DESCRIPTION:;
#CHARTSTYLE:;
#DIFFICULTY:Beginner;
#METER:1;
#RADARVALUES:0.069926,0.077033,0.000000,0.000000,0.000000,61.000000,0.000000,0.000000,0.000000,0.000000,0.000000,0.000000,0.000000,0.069926,0.077033,0.000000,0.000000,0.000000,61.000000,0.000000,0.000000,0.000000,0.000000,0.000000,0.000000,0.000000;
#CREDIT:;
#NOTES:
// measure 0
0000
0000
0000
0000
,  // measure 1
0000
0000
0000
0000
,  // measure 2
0000
0000
0000
0000
,  // measure 3
0000
0000
0000
0000
,  // measure 4
0010
0000
0000
0000
,  // measure 5
0010
0000
0000
0000
,  // measure 6
0010
0000
0000
0000
,  // measure 7
0010
0000
0000
0000
,  // measure 8
0010
0000
0000
0000
,  // measure 9
0010
0000
0000
0000
,  // measure 10
0010
0000
0000
0000
,  // measure 11
0010
0000
0000
0000
,  // measure 12
0100
0000
0000
0000
,  // measure 13
0100
0000
0000
0000
,  // measure 14
0100
0000
0000
0000
,  // measure 15
0100
0000
0000
0000
,  // measure 16
0010
0000
0000
0000
,  // measure 17
0010
0000
0000
0000
,  // measure 18
0100
0000
0000
0000
,  // measure 19
0100
0000
0000
0000
,  // measure 20
0001
0000
0000
0000
,  // measure 21
0001
0000
0000
0000
,  // measure 22
1000
0000
0000
0000
,  // measure 23
1000
0000
0000
0000
,  // measure 24
0010
0000
0000
0000
,  // measure 25
0001
0000
0000
0000
,  // measure 26
0001
0000
0000
0000
,  // measure 27
0010
0000
0000
0000
,  // measure 28
0010
0000
0000
0000
,  // measure 29
1000
0000
0000
0000
,  // measure 30
1000
0000
0000
0000
,  // measure 31
0010
0000
0000
0000
,  // measure 32
0010
0000
0000
0000
,  // measure 33
0010
0000
0000
0000
,  // measure 34
0100
0000
0000
0000
,  // measure 35
0100
0000
0000
0000
,  // measure 36
0010
0000
0000
0000
,  // measure 37
0010
0000
0000
0000
,  // measure 38
0100
0000
0000
0000
,  // measure 39
0100
0000
0000
0000
,  // measure 40
0010
0000
0000
0000
,  // measure 41
0010
0000
0000
0000
,  // measure 42
0010
0000
0000
0000
,  // measure 43
0010
0000
0000
0000
,  // measure 44
0100
0000
0000
0000
,  // measure 45
0100
0000
0000
0000
,  // measure 46
0100
0000
0000
0000
,  // measure 47
0100
0000
0000
0000
,  // measure 48
0010
0000
0000
0000
,  // measure 49
0010
0000
0000
0000
,  // measure 50
0100
0000
0000
0000
,  // measure 51
0100
0000
0000
0000
,  // measure 52
0001
0000
0000
0000
,  // measure 53
0001
0000
0000
0000
,  // measure 54
1000
0000
0000
0000
,  // measure 55
1000
0000
0000
0000
,  // measure 56
0010
0000
0000
0000
,  // measure 57
0010
0000
0000
0000
,  // measure 58
0100
0000
0000
0000
,  // measure 59
0100
0000
0000
0000
,  // measure 60
0001
0000
0000
0000
,  // measure 61
0001
0000
0000
0000
,  // measure 62
1000
0000
0000
0000
,  // measure 63
1000
0000
0000
0000
,  // measure 64
1000
0000
0000
0000
;

//---------------dance-single - ----------------
#NOTEDATA:;
#CHARTNAME:;
#STEPSTYPE:dance-single;
#DESCRIPTION:;
#CHARTSTYLE:;
#DIFFICULTY:Easy;
#METER:2;
#RADARVALUES:0.145583,0.179744,0.000000,0.080243,0.000000,117.000000,0.000000,10.000000,0.000000,0.000000,0.000000,0.000000,0.000000,0.145583,0.179744,0.000000,0.080243,0.000000,117.000000,0.000000,10.000000,0.000000,0.000000,0.000000,0.000000,0.000000;
#CREDIT:;
#NOTES:
// measure 0
0000
0000
0000
0000
,  // measure 1
0000
0000
0000
0000
,  // measure 2
0000
0000
0000
0000
,  // measure 3
0000
0000
0000
0000
,  // measure 4
0010
0000
0010
0000
,  // measure 5
0010
0000
0000
0000
,  // measure 6
0100
0000
0100
0000
,  // measure 7
0100
0000
0000
0000
,  // measure 8
0010
0000
0010
0000
,  // measure 9
0010
0000
0000
0000
,  // measure 10
1000
0000
1000
0000
,  // measure 11
1000
0000
0000
0000
,  // measure 12
0001
0000
0001
0000
,  // measure 13
0001
0000
0000
0000
,  // measure 14
0100
0000
0100
0000
,  // measure 15
0100
0000
0000
0000
,  // measure 16
0010
0000
1000
1000
,  // measure 17
1000
0000
0010
0000
,  // measure 18
0010
0000
0001
0001
,  // measure 19
0001
0000
0010
0000
,  // measure 20
0010
0000
1000
1000
,  // measure 21
1000
0000
0010
0000
,  // measure 22
0010
0000
0001
0001
,  // measure 23
0002
0000
0003
0000
,  // measure 24
0010
0000
0010
0010
,  // measure 25
0001
0000
0001
0001
,  // measure 26
0100
0000
0100
0100
,  // measure 27
1000
0000
1000
1000
,  // measure 28
0010
0000
0010
0010
,  // measure 29
1000
0000
1000
1000
,  // measure 30
0100
0000
0100
0100
,  // measure 31
0001
0000
0001
0001
,  // measure 32
0010
0000
0010
0000
,  // measure 33
0001
0000
0001
0000
,  // measure 34
1000
0000
1000
0000
,  // measure 35
0100
0000
0100
0000
,  // measure 36
0010
0000
0010
0000
,  // measure 37
1000
0000
1000
0000
,  // measure 38
0001
0000
0001
0000
,  // measure 39
0100
0000
0100
0000
,  // measure 40
0010
0000
0010
0000
,  // measure 41
0010
0000
0000
0000
,  // measure 42
1000
0000
1000
0000
,  // measure 43
1000
0000
0000
0000
,  // measure 44
0001
0000
0001
0000
,  // measure 45
0001
0000
0000
0000
,  // measure 46
0100
0000
0100
0000
,  // measure 47
0100
0000
0000
0000
,  // measure 48
0010
0000
1000
1000
,  // measure 49
1000
0000
0010
0000
,  // measure 50
0010
0000
0001
0001
,  // measure 51
0001
0000
0010
0000
,  // measure 52
0010
0000
1000
1000
,  // measure 53
1000
0000
0010
0000
,  // measure 54
0010
0000
0001
0001
,  // measure 55
0002
0000
0003
0000
,  // measure 56
0020
0000
0030
0000
,  // measure 57
0020
0000
0030
0000
,  // measure 58
2000
0000
3000
0000
,  // measure 59
2000
0000
3000
0000
,  // measure 60
0002
0000
0003
0000
,  // measure 61
0002
0000
0003
0000
,  // measure 62
0200
0000
0300
0000
,  // measure 63
0200
0000
0300
0000
,  // measure 64
0100
0000
0000
0000
;

//---------------dance-single - ----------------
#NOTEDATA:;
#CHARTNAME:;
#STEPSTYPE:dance-single;
#DESCRIPTION:;
#CHARTSTYLE:;
#DIFFICULTY:Medium;
#METER:4;
#RADARVALUES:0.239582,0.256776,0.000000,0.000000,0.000000,209.000000,0.000000,0.000000,0.000000,0.000000,0.000000,0.000000,0.000000,0.239582,0.256776,0.000000,0.000000,0.000000,209.000000,0.000000,0.000000,0.000000,0.000000,0.000000,0.000000,0.000000;
#CREDIT:;
#NOTES:
// measure 0
0000
0000
0000
0000
,  // measure 1
0000
0000
0000
0000
,  // measure 2
0000
0000
0000
0000
,  // measure 3
0000
0000
0000
0000
,  // measure 4
0010
0000
0010
0010
,  // measure 5
0100
0000
0010
0010
,  // measure 6
0100
0000
0010
0010
,  // measure 7
0100
0000
0010
0100
,  // measure 8
0010
0000
0010
1000
,  // measure 9
1000
0000
1000
1000
,  // measure 10
0010
0000
0010
0001
,  // measure 11
0001
0000
0001
0001
,  // measure 12
0010
0000
1000
1000
,  // measure 13
0100
0000
0001
0001
,  // measure 14
0100
0000
1000
1000
,  // measure 15
0010
0000
0001
0001
,  // measure 16
0010
0010
0100
1000
,  // measure 17
0001
0100
1000
0100
,  // measure 18
0010
0010
0100
0001
,  // measure 19
1000
0100
0001
0100
,  // measure 20
0010
0010
0100
1000
,  // measure 21
0010
0100
0001
1000
,  // measure 22
0010
0010
0100
0001
,  // measure 23
1000
0001
0010
0100
,  // measure 24
1000
0000
0000
0000
0010
0100
0000
0000
,  // measure 25
0001
0000
0000
0000
0100
0010
0100
0000
,  // measure 26
0001
0000
0000
0000
0010
0100
0000
0000
,  // measure 27
1000
0000
0000
0000
0010
0100
0010
0000
,  // measure 28
1000
0000
0000
0000
0100
0010
0000
0000
,  // measure 29
0001
0000
0000
0000
0100
0010
0100
0000
,  // measure 30
0001
0000
0000
0000
0100
0010
0000
0000
,  // measure 31
1000
0000
0000
0000
0010
0100
0010
0000
,  // measure 32
1000
1000
0010
0010
,  // measure 33
0100
0100
0001
0001
,  // measure 34
1000
1000
0010
0010
,  // measure 35
0100
0100
0001
0001
,  // measure 36
1000
1000
0100
0100
,  // measure 37
0010
0010
0001
0001
,  // measure 38
1000
0010
0100
0001
,  // measure 39
1000
0100
0010
0001
,  // measure 40
1000
0000
1000
1000
,  // measure 41
0010
0000
0010
0010
,  // measure 42
0100
0000
0100
0100
,  // measure 43
0001
0000
0001
0001
,  // measure 44
0010
0000
0010
0010
,  // measure 45
0100
0000
0100
0100
,  // measure 46
1000
0000
1000
1000
,  // measure 47
0001
0000
0001
0001
,  // measure 48
0010
0010
0100
1000
,  // measure 49
0010
0001
0010
0100
,  // measure 50
0010
0010
0100
0001
,  // measure 51
0010
1000
0010
0100
,  // measure 52
0010
0010
0100
1000
,  // measure 53
0001
1000
0010
0100
,  // measure 54
0010
0010
0100
0001
,  // measure 55
1000
0001
0100
0010
,  // measure 56
1000
0000
1000
1000
,  // measure 57
0010
0000
0010
0010
,  // measure 58
0100
0000
0100
0100
,  // measure 59
0001
0000
0001
0001
,  // measure 60
0010
0000
0010
0010
,  // measure 61
0100
0000
0100
0100
,  // measure 62
1000
0000
1000
1000
,  // measure 63
0001
0000
0001
0001
,  // measure 64
1000
0000
0000
0000
;

//---------------dance-single - ----------------
#NOTEDATA:;
#CHARTNAME:;
#STEPSTYPE:dance-single;
#DESCRIPTION:;
#CHARTSTYLE:;
#DIFFICULTY:Hard;
#METER:7;
#RADARVALUES:0.411530,0.462198,0.096291,0.080243,0.000000,337.000000,12.000000,10.000000,0.000000,0.000000,0.000000,0.000000,0.000000,0.411530,0.462198,0.096291,0.080243,0.000000,337.000000,12.000000,10.000000,0.000000,0.000000,0.000000,0.000000,0.000000;
#CREDIT:;
#NOTES:
// measure 0
0000
0000
0000
0000
,  // measure 1
0000
0000
0000
0000
,  // measure 2
0000
0000
0000
0000
,  // measure 3
0000
0000
0000
0000
,  // measure 4
0010
0010
0100
0100
,  // measure 5
0010
1000
0100
0010
,  // measure 6
0001
0001
1000
1000
,  // measure 7
0001
0100
0010
1000
,  // measure 8
0001
0000
0101
0000
0010
1000
0010
0000
,  // measure 9
1000
0000
1100
0000
0010
0001
0010
0000
,  // measure 10
0001
0000
0011
0000
0100
1000
0100
0000
,  // measure 11
1000
0000
1010
0000
0100
0001
0100
0000
,  // measure 12
0001
0100
0001
0000
0010
0010
0010
0000
,  // measure 13
0010
0001
0100
0000
0010
1000
0100
0000
,  // measure 14
1000
0100
1000
0000
0100
0100
0100
0000
,  // measure 15
0010
0001
0100
0000
0010
1000
0100
0000
,  // measure 16
1000
0000
0100
0000
0001
0100
1000
0000
,  // measure 17
0001
0100
1000
0000
0100
0000
0001
0000
,  // measure 18
1000
0000
0010
0000
0001
0010
1000
0000
,  // measure 19
0001
0010
1000
0000
0010
0000
0001
0000
,  // measure 20
1000
0000
0010
0000
0100
0001
0010
0000
,  // measure 21
0010
0001
0100
0000
0010
0000
1000
0000
,  // measure 22
0001
0000
0100
0000
0010
1000
0010
1000
,  // measure 23
0200
0000
0310
0000
0100
0010
0100
0010
,  // measure 24
0001
0000
0010
0000
0100
0100
0100
0000
,  // measure 25
1000
0000
0010
0000
0100
0001
0010
0000
,  // measure 26
0100
0000
1000
0000
0010
0010
0010
0000
,  // measure 27
0100
0000
0001
0000
0010
0100
0010
0100
,  // measure 28
1000
0000
0010
0000
0100
0100
0100
0000
,  // measure 29
0001
0000
0010
0000
0100
1000
0010
0000
,  // measure 30
0100
0000
0001
0000
0010
0010
0010
0000
,  // measure 31
0100
0000
1000
0000
0010
0100
0010
0100
,  // measure 32
0001
0001
0000
0010
0010
0010
0000
0100
,  // measure 33
0100
0100
0000
1000
1000
1000
0000
0010
,  // measure 34
0010
0010
0000
0100
0100
0100
0000
0001
,  // measure 35
0001
0001
0000
1000
1000
1000
0000
0001
,  // measure 36
0010
0010
0000
0100
1000
1000
0000
0010
,  // measure 37
0100
0100
0000
0001
1000
1000
0000
0000
,  // measure 38
0001
0100
0001
0100
0010
1000
0100
0000
,  // measure 39
1000
0010
0100
0001
0010
0100
1000
0000
,  // measure 40
0001
0000
0101
0000
0010
1000
0010
0000
,  // measure 41
1000
0000
1100
0000
0100
0010
0001
0000
,  // measure 42
1000
0000
1010
0000
0100
0001
0100
0000
,  // measure 43
0001
0000
0011
0000
0010
0100
1000
0000
,  // measure 44
0001
0100
0010
0000
1000
0010
1010
0000
,  // measure 45
1000
0100
0010
0000
0001
0010
0011
0000
,  // measure 46
0001
0010
0100
1000
0010
0100
0110
0000
,  // measure 47
1000
0010
0100
0001
0010
0100
0110
0000
,  // measure 48
0001
0000
0100
0000
1000
0100
0001
1000
,  // measure 49
0100
0010
0001
1000
0010
0100
0001
0000
,  // measure 50
1000
0000
0100
0000
0001
0100
1000
0001
,  // measure 51
0100
0010
1000
0001
0010
0100
1000
0000
,  // measure 52
0001
0000
0010
0000
1000
0010
0001
0010
,  // measure 53
1000
0010
0001
0100
0010
1000
0001
0000
,  // measure 54
1000
0000
0010
0000
0001
0010
1000
0010
,  // measure 55
0200
0000
0301
0000
0010
0100
1000
0100
,  // measure 56
0020
0000
0031
0000
0100
0010
0100
0000
,  // measure 57
0020
0000
1030
0000
0100
0010
0001
0010
,  // measure 58
0200
0000
1300
0000
0010
0100
0010
0000
,  // measure 59
0200
0000
0301
0000
0010
0100
1000
0100
,  // measure 60
0020
0000
0031
0000
0100
0010
1000
0010
,  // measure 61
0200
0000
0301
0000
0001
0010
0100
1000
,  // measure 62
0020
0000
1030
0000
0100
0010
0001
0010
,  // measure 63
0200
0000
1300
0000
1000
0010
0100
0001
,  // measure 64
1000
0000
0000
0000
;

//---------------dance-single - ----------------
#NOTEDATA:;
#CHARTNAME:;
#STEPSTYPE:dance-single;
#DESCRIPTION:;
#CHARTSTYLE:;
#DIFFICULTY:Challenge;
#METER:8;
#RADARVALUES:0.558260,0.513051,0.000000,0.016049,0.509541,485.000000,0.000000,2.000000,0.000000,0.000000,0.000000,0.000000,0.000000,0.558260,0.513051,0.000000,0.016049,0.509541,485.000000,0.000000,2.000000,0.000000,0.000000,0.000000,0.000000,0.000000;
#CREDIT:;
#NOTES:
// measure 0
0000
0000
0000
0000
,  // measure 1
0000
0000
0000
0000
,  // measure 2
0000
0000
0000
0000
,  // measure 3
0000
0000
0000
0000
,  // measure 4
0010
0000
0000
0000
0100
0000
0000
0000
0010
1000
0000
0000
0100
0000
0000
0000
,  // measure 5
0010
0000
0000
0000
0100
0000
0000
0000
0010
0001
0000
0000
0100
0000
0000
0000
,  // measure 6
0010
0000
0000
0000
1000
0000
0000
0000
0100
0010
0000
0000
0001
0000
0000
0000
,  // measure 7
0100
0010
0000
0100
0000
0000
0010
0000
0000
0000
1000
0000
0010
0000
0100
0000
,  // measure 8
0001
0100
0000
0010
0000
0000
1000
0000
0100
0000
0010
0000
0001
0000
0100
0000
,  // measure 9
0010
1000
0000
0010
0000
0000
0100
0000
0001
0000
0010
0000
0100
0000
1000
0000
,  // measure 10
0100
0010
0000
0001
0000
0000
0100
0000
0010
0000
1000
0000
0100
0000
1000
0000
,  // measure 11
0010
0100
0000
0001
0000
0000
0100
0000
0001
0000
0010
0000
0001
0000
0100
0000
,  // measure 12
0010
1000
0000
0100
0000
0000
0010
0000
0001
0000
0100
0000
0010
1000
0000
0010
,  // measure 13
0100
0010
0000
1000
0000
0000
0001
0000
0010
0000
0100
0000
1000
0010
0000
0100
,  // measure 14
0010
0100
0000
0001
0000
0000
1000
0000
0100
0000
0010
0000
0001
0100
0000
0010
,  // measure 15
0100
0010
0000
1000
0000
0000
0100
0000
0010
0000
0001
0000
0100
0000
0010
0000
,  // measure 16
1000
0000
1000
0100
0000
0000
0100
0000
0010
0000
0001
0000
0100
0000
1000
0000
,  // measure 17
0100
0001
0010
1000
0001
0100
1000
0010
,  // measure 18
0100
0000
0100
0010
0000
0000
0010
0000
0100
0000
1000
0000
0100
0000
0001
0000
,  // measure 19
0100
1000
0001
0010
1000
0100
0010
0001
,  // measure 20
1000
0000
1000
0010
0000
0000
0010
0000
0100
0000
0001
0000
0010
0000
1000
0000
,  // measure 21
0010
0001
0100
1000
0001
0010
1000
0100
,  // measure 22
1000
0000
1000
0010
0000
0000
0100
0000
0001
0000
0010
0000
0100
0000
1000
0000
,  // measure 23
0020
0000
0100
0000
1030
0100
0010
0001
,  // measure 24
1000
0000
0010
0000
0000
0100
0000
0001
0100
0000
0010
0000
1000
0000
0100
0000
,  // measure 25
0010
0000
0001
0100
0000
0010
0000
0100
0001
0000
0010
0000
0100
0000
1000
0000
,  // measure 26
0010
0000
0100
0010
0000
1000
0010
0000
0100
0000
0001
0000
0010
0000
0100
0000
,  // measure 27
0010
0000
0001
0010
0000
0100
0010
0000
0100
0000
1000
0000
0010
0000
0100
0000
,  // measure 28
0001
1000
0000
0010
0000
0000
0100
0000
0001
0000
0010
0000
0100
0000
1000
0000
,  // measure 29
0001
1000
0000
0100
0000
0000
0010
0000
0001
0000
0100
0000
0010
0000
1000
0000
,  // measure 30
0001
0000
0100
0010
0000
0000
1000
0000
0100
0010
0000
0001
0000
0000
1000
0000
,  // measure 31
0010
0000
0100
0001
0000
0000
1000
0000
0010
0000
0100
0000
0001
0000
1000
0010
,  // measure 32
0100
0000
0001
0000
0000
0000
1000
0010
0100
0000
0001
0000
0000
0000
1000
0100
,  // measure 33
0010
0000
0001
0000
0000
0000
1000
0100
0010
0000
0001
0000
0000
0000
0001
0010
,  // measure 34
0100
0000
1000
0000
0000
0000
0001
0010
0100
0000
1000
0000
0000
0000
0001
0100
,  // measure 35
0010
0000
1000
0000
0000
0000
0001
0100
0010
0000
1000
0000
0000
0000
0001
0100
,  // measure 36
0010
0000
1000
0000
0000
0000
0100
0010
0001
0000
0100
0000
0000
0000
0010
1000
,  // measure 37
0100
0000
0010
0000
0000
0000
0001
0100
0010
0000
1000
0000
0000
0000
0000
0000
,  // measure 38
0001
0100
0001
0100
0000
0000
0010
0000
1000
0000
0010
0000
0000
0000
1000
0000
,  // measure 39
0100
0010
0000
0001
0000
0000
0100
0000
0010
0000
1000
0000
0100
0000
0010
0000
,  // measure 40
0001
0100
0000
0010
0000
0000
1000
0000
0100
0000
0010
0000
0001
0100
0000
0010
,  // measure 41
1000
0010
0000
0100
0000
0000
0001
0000
0010
0000
0100
0000
1000
0100
0000
0010
,  // measure 42
0001
0010
0000
0100
0000
0000
1000
0000
0010
0000
0100
0000
0001
0010
0000
0100
,  // measure 43
1000
0100
0000
0010
0000
0000
0001
0000
0100
0000
0010
0000
1000
0010
0000
0100
,  // measure 44
0001
0100
0000
0010
0000
1000
0010
0000
1000
0000
0100
0000
0010
0000
0001
0000
,  // measure 45
1000
0100
0000
0010
0000
0001
0010
0000
0001
0000
0100
0000
0010
0000
1000
0000
,  // measure 46
0001
0010
0000
0100
0000
1000
0100
0000
1000
0000
0010
0000
0100
0000
0001
0000
,  // measure 47
1000
0010
0000
0100
0000
0001
0100
0000
0001
0000
0010
0000
0100
0000
1000
0000
,  // measure 48
0001
0000
0100
0001
0000
0100
0010
0000
1000
0000
0100
0000
0001
0000
1000
0000
,  // measure 49
0010
0001
1000
0010
0100
0001
0010
0100
,  // measure 50
1000
0000
0100
1000
0000
0100
0010
0000
0001
0000
0100
0000
1000
0000
0001
0000
,  // measure 51
0010
1000
0001
0010
0100
1000
0010
0100
,  // measure 52
0001
0000
1000
0010
0000
1000
0001
0000
0010
0000
0001
0000
0100
0000
1000
0000
,  // measure 53
0001
0010
1000
0100
0010
0001
0100
0010
,  // measure 54
1000
0000
0001
0010
0000
0001
1000
0000
0010
0000
1000
0000
0100
0000
0010
0000
,  // measure 55
0002
0000
0000
0000
0103
0000
0000
0000
0010
0000
1000
0100
1000
0000
0010
0000
,  // measure 56
0100
0001
0000
0010
0000
0000
0100
0000
1000
0000
0010
0000
0100
0001
0000
0100
,  // measure 57
0000
0010
0000
1000
0000
0000
0100
0000
0010
0000
0001
0000
0100
0010
0000
1000
,  // measure 58
0000
0001
0000
0100
0000
0000
0010
0000
1000
0000
0100
0000
0010
0001
0000
0010
,  // measure 59
0000
0100
0000
1000
0000
0000
0010
0000
0100
0000
0001
0000
0010
0100
0000
1000
,  // measure 60
0000
0010
0000
0100
0000
0000
0010
0000
0100
0000
0001
0000
0010
0000
0100
0000
,  // measure 61
1000
0010
0000
0100
0000
0000
0001
0000
0100
0000
0010
0000
1000
0000
0100
0000
,  // measure 62
0010
0001
0000
0010
0000
0000
0100
0000
1000
0000
0010
0000
0100
0000
0001
0000
,  // measure 63
1000
0100
0000
0010
0000
0000
0001
0000
0100
0000
0010
0000
1000
0001
0000
1000
;
