#TITLE:SEXY SUNSHINE;
#SUBTITLE:;
#ARTIST:FAKE TYPE.;
#TITLETRANSLIT:;
#SUBTITLETRANSLIT:;
#ARTISTTRANSLIT:;
#GENRE:;
#CREDIT:;
#BANNER:;
#BACKGROUND:;
#LYRICSPATH:;
#CDTITLE:;
#MUSIC:SEXY SUNSHINE.ogg;
#OFFSET:-6.223002;
#SAMPLESTART:61.593616;
#SAMPLELENGTH:18.461533;
#SELECTABLE:YES;
#BPMS:0.000000=130.000000
;
#STOPS:16.000000=1.385000,
113.000000=0.923000,
171.000000=0.231000,
171.500000=0.231000,
172.000000=0.231000,
173.000000=0.692000,
296.000000=0.231000,
296.500000=0.231000,
297.000000=0.231000,
298.000000=0.692000
;
#BGCHANGES:;
#KEYSOUNDS:;
#ATTACKS:;

//---------------dance-single - ----------------
#NOTES:
     dance-single:
     :
     Hard:
     7:
     0.446394,0.501439,0.325747,0.187003,0.159857,518.000000,464.000000,54.000000,31.000000,0.000000,0.000000,0.446394,0.501439,0.325747,0.187003,0.159857,518.000000,464.000000,54.000000,31.000000,0.000000,0.000000:
// measure 0
0000
0000
0000
0000
,  // measure 1
0000
0000
0000
0000
,  // measure 2
0000
0000
0000
0000
,  // measure 3
0000
0000
0000
0000
,  // measure 4
0000
0000
1001
0000
0001
0100
0010
0000
,  // measure 5
0100
0001
1000
0000
0100
1000
0002
0000
,  // measure 6
0103
0001
0000
1000
0010
0000
0100
0001
,  // measure 7
0010
0000
0100
0000
0010
0000
0001
1000
,  // measure 8
1001
0000
0001
0000
0100
0000
0010
1000
,  // measure 9
0100
0000
0010
0000
0001
1000
0001
1000
,  // measure 10
0001
0000
1000
0000
0010
1000
0000
0000
0100
0001
0000
0000
0001
0010
0000
0000
,  // measure 11
1001
0000
1000
1000
0001
0010
1000
0010
,  // measure 12
0200
0000
0300
0000
1000
0000
0000
0100
0000
0000
1000
0000
0001
0000
0000
0100
,  // measure 13
0000
0001
0010
0001
1000
0100
1000
0001
,  // measure 14
0000
0000
0000
0000
0100
0000
0000
0100
0000
0000
0010
0000
1000
0000
0000
0100
,  // measure 15
0000
0010
0001
1000
0100
1000
0001
0100
,  // measure 16
0000
0000
0010
1000
0001
1000
0010
0100
,  // measure 17
1000
0000
0100
0000
0001
0000
0010
0000
0001
0000
1000
0000
0010
0000
0000
0100
,  // measure 18
0000
0001
1000
0020
0200
0330
0010
0100
,  // measure 19
0001
0000
1000
0000
0001
0000
0000
0001
0000
0000
1000
0000
2002
0000
0000
0000
,  // measure 20
3003
0210
0010
0010
,  // measure 21
0310
0120
0100
0100
,  // measure 22
0130
1002
1000
1000
,  // measure 23
1003
2001
0001
0001
,  // measure 24
3001
0000
1000
0010
0100
0001
1000
0010
,  // measure 25
0100
0000
0001
0000
1000
0000
0000
1000
0000
0000
1000
0000
0001
0000
0000
0001
,  // measure 26
0000
0001
0100
0100
0010
1000
0001
0001
,  // measure 27
0010
0000
0000
0001
0000
0000
1001
0000
0000
0000
0000
0101
0000
0000
0000
1001
0000
0000
0000
0000
1010
0000
0000
0000
,  // measure 28
0100
0010
2002
0003
3000
0000
0101
0000
,  // measure 29
1100
0000
1000
0010
1000
0100
1000
0001
,  // measure 30
0010
0100
0000
0010
0001
0200
0000
0310
,  // measure 31
1000
0002
0000
0000
0013
0000
0100
1000
,  // measure 32
0001
0000
1000
0010
0000
0000
0000
0000
0000
0000
0000
0000
1100
0000
0000
0000
,  // measure 33
0101
0000
1000
0001
0010
0001
0100
0010
,  // measure 34
1000
0200
0000
0300
0010
0001
2000
0000
,  // measure 35
3200
0000
1300
0010
0100
0001
0000
1000
,  // measure 36
1001
0000
0000
0000
0000
0000
0001
0000
1001
0000
0000
0000
0001
0000
1000
0010
,  // measure 37
0000
1000
0010
0000
1000
0000
0001
0010
0000
0001
0010
0000
1001
0000
0000
0000
,  // measure 38
0110
0000
0000
0000
1001
0000
0000
0000
0110
0000
0000
0000
1000
0000
0001
0010
,  // measure 39
0000
0001
0010
0000
0001
0000
1000
0010
0000
1000
0010
0000
1000
0000
1000
0000
,  // measure 40
0001
0000
0010
0000
0100
0010
0000
0001
0000
0000
0100
0000
0201
0000
0000
0000
,  // measure 41
0310
1200
0310
1001
,  // measure 42
0101
0000
1001
0000
1010
0000
1001
0110
,  // measure 43
0101
0010
1001
0000
0000
0000
0000
0000
,  // measure 44
1000
1000
0001
0001
,  // measure 45
1000
0100
0010
0001
1000
0001
1000
0000
,  // measure 46
0001
0001
1000
1000
,  // measure 47
0001
0100
0010
1000
0001
1000
0001
0000
,  // measure 48
0100
0000
0000
0010
0000
1000
0010
0000
0000
0100
0000
0000
,  // measure 49
0001
0000
0000
0010
0001
1000
0100
0000
0000
0010
0000
0000
,  // measure 50
0100
0000
1000
0001
0000
0000
1000
0000
0010
0100
0000
0000
,  // measure 51
0001
0000
0010
0100
0000
1000
0010
0000
0010
0100
0000
0000
,  // measure 52
0001
0000
0000
0010
0000
0000
0001
0000
0020
0000
0000
0000
0130
0000
0000
0000
,  // measure 53
0010
0000
0000
0001
0000
0000
0100
0000
0002
0000
0000
0000
1003
0000
0100
0000
,  // measure 54
0010
0000
0000
0100
0000
0000
1000
0000
0001
0000
0000
0100
0000
0000
0010
0000
,  // measure 55
0100
0000
0000
0001
0000
0000
1000
0000
0010
0000
0000
1000
0000
0000
0001
0000
,  // measure 56
1000
0000
0000
0100
0000
0000
1000
0000
0010
0000
0000
0100
0000
0000
0010
0000
,  // measure 57
0100
0000
0000
0001
0000
0000
0100
0000
0020
0000
0000
0000
1000
0000
0000
0000
,  // measure 58
0130
0000
0010
0100
1000
0001
0010
0001
,  // measure 59
2000
0000
0000
3002
0000
0000
0203
0000
0020
0000
0300
0000
0030
0000
0000
0000
,  // measure 60
1001
0000
1010
0000
1000
0010
0100
0001
,  // measure 61
0010
0001
1000
0100
0000
1000
0001
0020
,  // measure 62
0000
0130
1000
0020
0000
0000
0130
0000
,  // measure 63
0010
0000
0100
0000
0001
0000
1000
0100
0000
0000
0000
0000
0000
0000
0000
0000
,  // measure 64
1001
0000
0011
0000
0001
0100
0010
1000
,  // measure 65
0100
1000
0001
1000
0000
0000
0100
0010
,  // measure 66
0001
0000
1000
0000
0010
0100
0001
1000
,  // measure 67
0000
0010
0110
0000
0000
0100
0110
0000
,  // measure 68
1000
0000
0001
0100
0000
0001
0100
0000
0001
0000
1000
0100
0000
1000
0100
0000
,  // measure 69
1001
0110
1001
0110
,  // measure 70
0001
0000
1000
0100
0000
1000
0100
0000
1000
0000
0001
0100
0000
0001
0100
0000
,  // measure 71
0010
0000
0100
0000
0001
0000
1000
0010
0000
0000
0000
0000
0000
0000
0000
0000
,  // measure 72
0102
0013
2010
3100
,  // measure 73
1001
1100
0101
1010
,  // measure 74
1001
0011
1100
0100
1001
0000
0020
0000
,  // measure 75
0000
0030
1001
0000
1000
0001
0010
0000
,  // measure 76
0100
0000
0010
0010
0001
1000
0100
0100
,  // measure 77
1000
0010
0100
0100
0001
0010
0001
0000
,  // measure 78
1000
0000
0001
0100
0001
0000
0001
0000
0010
0000
0100
0000
1000
0000
1000
0000
,  // measure 79
0001
0100
0001
0000
1000
0010
1000
0000
,  // measure 80
0100
0000
0010
0001
0010
0001
1000
0100
,  // measure 81
1000
0100
0010
0000
0001
0000
0100
0000
,  // measure 82
0010
0000
1000
1000
0001
0010
0001
1000
,  // measure 83
0010
0100
0000
0000
0000
0000
0000
0000
;

//---------------dance-single - ----------------
#NOTES:
     dance-single:
     :
     Medium:
     5:
     0.333503,0.400548,0.174938,0.090485,0.036194,387.000000,358.000000,29.000000,15.000000,0.000000,0.000000,0.333503,0.400548,0.174938,0.090485,0.036194,387.000000,358.000000,29.000000,15.000000,0.000000,0.000000:
0000
0000
0000
0000
,
0000
0000
0000
0000
,
0000
0000
0000
0000
,
0000
0000
0000
0000
,
0000
0000
1001
0000
0001
0010
0001
0000
,
0100
0010
1000
0001
,
1000
0100
0000
0010
0100
0000
1000
0001
,
0000
0100
0001
0000
0010
0000
0001
0000
,
1100
0000
1000
0000
0010
0000
0100
0001
,
0100
0000
0001
0000
0010
0000
0100
1000
,
0100
1100
0101
1100
,
1001
0000
1000
0001
1000
0001
0010
0100
,
0000
0010
0011
0001
,
1001
0000
1000
0000
0010
0000
0100
0001
,
0000
1010
1000
1100
,
1000
0000
0001
0000
0010
0000
0100
0010
,
0000
0000
0100
0000
1000
0000
0010
1000
,
0010
0000
0100
0000
0001
0000
0010
0001
,
0010
0000
0100
0010
0010
0000
0001
0000
,
1000
0000
0000
0000
0010
0000
0000
0100
0000
0000
0002
0000
2000
0000
0000
0000
,
3003
1000
0001
1000
,
0001
0100
0010
0100
,
0010
1000
1000
0001
,
0001
1000
0001
0100
,
0001
0000
0010
0001
0010
0000
0100
1000
,
0100
1000
0001
0100
,
0001
0000
1000
0100
0010
0001
1000
0100
,
0010
0000
0100
0000
1000
0000
0000
1000
0000
0000
0001
0000
0000
0001
0000
0000
,
1000
0001
0100
0000
0000
0000
0010
0000
,
1000
0100
1000
0001
,
0010
0000
0001
1000
0001
1000
0000
0001
,
1000
0001
0000
0000
0100
0000
0010
0000
,
1000
0101
0000
0001
,
0010
0001
1000
0100
,
1000
0000
0010
0000
0100
0010
1000
0000
,
0001
0000
1000
0100
1000
0001
0000
0100
,
0010
0000
0000
0000
0000
0000
0100
0000
0010
0000
0000
0000
1000
0000
0000
1000
,
0000
0000
1000
0000
0001
0000
0000
0001
0000
0000
0001
0000
1000
0000
0000
0000
,
0001
0000
0000
0000
0100
0000
0000
0000
0010
0000
0000
0000
1000
0000
0000
1000
,
0000
0000
1000
0000
0010
0000
0000
0010
0000
0000
0010
0000
0100
0000
0000
0000
,
0001
0000
0010
0100
0010
0000
0002
0000
,
0013
2000
3100
0002
,
1003
0000
0020
0000
0130
0000
0001
0100
,
0010
1000
1001
0000
0000
0000
0000
0000
,
0001
0001
1000
1000
,
0010
0000
0010
0000
0100
0010
0100
0000
,
0010
0010
1000
1000
,
0001
0000
0001
0000
0100
0010
0100
0000
,
0001
1000
0010
1001
,
0001
1000
0100
1001
,
0010
1001
0100
1001
,
0110
1001
0110
1001
,
0001
1000
0010
1010
,
1000
0001
0010
0011
,
0001
1000
0100
0100
,
1000
0001
0101
1001
,
0002
1003
0200
1300
,
0020
1030
0200
0310
,
1001
0000
0001
0000
1000
0000
0001
1000
,
0010
0000
0000
0010
0000
0000
0010
0000
0100
0000
0000
0000
0000
0000
0000
0000
,
1001
1000
0010
1000
,
0100
0000
0010
0000
0001
1000
0001
1000
,
0000
0001
1000
0001
0000
0000
0010
0000
,
0001
1000
1100
0000
,
1000
0010
0100
0001
,
0010
0000
0100
1000
0100
0000
1000
0100
,
0010
0000
0001
0000
0100
0000
0010
1000
,
0000
0001
0100
0000
0000
0001
1000
0000
,
0100
0000
0000
0100
0000
0000
0100
0000
0010
0000
0000
0010
0000
0000
0010
0000
,
0001
1000
0100
1000
,
0001
0000
0000
0001
0000
0000
0001
0000
1000
0000
0000
1000
0000
0000
1000
0000
,
0010
0000
0100
0000
0001
1000
0010
0000
,
2000
3010
0200
0301
,
0002
0013
0200
1300
,
0100
0010
0001
1000
1001
0000
0020
0000
,
0000
0030
1001
0000
1000
0000
0001
0000
,
1000
0100
0100
1000
,
1000
0001
0100
0001
,
0010
0000
0100
0010
0001
1000
0010
0100
,
0001
1000
0010
0100
,
0010
1000
1000
0001
,
0001
1000
0100
1000
,
0001
0010
0010
0001
,
1000
0000
0000
0000
;

//---------------dance-double - ----------------
#NOTES:
     dance-double:
     :
     Challenge:
     7:
     0.434329,0.501439,0.241294,0.193035,0.171922,504.000000,464.000000,40.000000,32.000000,0.000000,0.000000,0.434329,0.501439,0.241294,0.193035,0.171922,504.000000,464.000000,40.000000,32.000000,0.000000,0.000000:
00000000
00000000
00000000
00000000
,
00000000
00000000
00000000
00000000
,
00000000
00000000
00000000
00000000
,
00000000
00000000
00000000
00000000
,
00000000
00000000
10000000
00000000
00010000
00100000
00010000
00000000
,
01000000
00010000
00100000
01000000
,
00100000
00001000
00000000
00010000
00001000
00000010
00000001
00001000
,
00000000
00000001
00000100
00000010
00001000
00000100
00000010
00000001
,
00001001
00000001
00000100
00000010
,
00010000
00001000
00010000
00010000
,
00010000
00011000
00110000
00101000
,
00021000
00000000
00031000
00001000
00010000
00000100
00000010
00000001
,
00000200
00000000
00000300
00000000
00000010
00000000
00000000
00001000
00000000
00000000
00000001
00000000
00000100
00000000
00000000
00000010
,
00000000
00001000
00000100
00010000
00001000
00100000
00001000
00010000
,
00000000
00000000
00000000
00000000
00001000
00000000
00000000
00100000
00000000
00000000
00010000
00000000
01000000
00000000
00000000
00100000
,
00000000
10000000
01000000
10000000
00010000
01000000
10000000
01000000
,
00000000
00000000
00000000
00000000
00100000
00000000
00000000
10000000
00000000
00000000
00010000
00000000
00100000
00000000
00010000
00000000
,
10000000
00000000
01000000
00000000
10000000
00000000
00010000
00000000
01000000
00000000
00010000
00000000
00100000
00000000
00000000
00001000
,
00000000
00000000
00010000
00000000
00000100
00000000
00000010
00000000
00000010
00000000
00000000
00000000
00000001
00000000
00000000
00000010
,
00000000
00000000
00000001
00000000
00001000
00000000
00000000
00000100
00000000
00000000
00020000
00000000
00002000
00000000
00000000
00000000
,
00033000
00010200
00001000
00010000
,
00001300
02010000
00001000
00010000
,
03001000
01002000
00013000
00010200
,
00001300
00000000
00000100
00000010
00000001
00001000
00000001
00000000
,
00000100
00000010
00001000
00001000
00000001
00000010
00000100
00000100
,
00000010
00000000
00000001
00000000
00001000
00000000
00000000
00000100
00000000
00000000
00010000
00000000
00001000
00000000
00000000
00100000
,
00000000
01000000
10000000
01000000
00010000
01000000
00100000
00010000
,
00100000
00000000
00001000
00000000
00011000
00000000
00000000
00001010
00000000
00000000
00000101
00000000
00000000
00001100
00000000
00000000
,
00000100
00010000
00022000
00003000
00030000
00000000
00110000
00000000
,
10100000
00000000
10000000
00100000
01000000
00010000
00100000
01000000
,
00100000
00010000
00000000
00100000
00001000
00010000
00000000
00010000
,
00000100
00000010
00000000
00000000
00000011
00000000
00000001
00001000
,
00000100
00000000
00000010
00000001
00000000
00000000
00000000
00000000
00000000
00000000
00000000
00000000
00000011
00000000
00000000
00000000
,
00001010
00000000
00001000
00000010
00000100
00000001
00000010
00001000
,
00000010
00000100
00000000
00000000
00000010
00000100
00002000
00000000
,
00003100
00000000
00000100
00010000
00001000
01000000
00000000
00100000
,
10010000
00000000
00000000
00000000
00000000
00000000
01000000
00000000
10010000
00000000
00000000
00000000
10000000
00000000
00010000
00100000
,
00000000
00010000
10000000
00000000
00010000
00000000
10000000
00010000
00000000
10000000
00100000
00000000
02000000
00000000
00000000
00000000
,
03010000
00000000
00000000
00000000
00200000
00000000
00000000
00000000
00301000
00000000
00000000
00000000
00010000
00000000
00000100
00010000
,
00000000
00010000
00000100
00000000
00001000
00000000
00000010
00001000
00000000
00001000
00000100
00000000
00000010
00000000
00000001
00000000
,
00001000
00000000
00000001
00000000
00001000
00000100
00000000
00000010
00000000
00000000
00000100
00000000
00002000
00000000
00000000
00000000
,
00003010
00000200
00000301
00000002
,
00001003
00000000
00000200
00000000
00010300
00000000
00011000
00101000
,
00010100
00000010
00000110
00000000
00000000
00000000
00000000
00000000
,
00000001
00000001
00001000
00001000
,
00000100
00010000
00001000
00100000
01000000
10000000
00010000
00000000
,
10000000
10000000
00010000
00010000
,
00100000
00001000
00010000
00000100
00000010
00000001
00001000
00000000
,
00000001
00000000
00000000
00001000
00000000
00000010
00001000
00000000
00000000
00000100
00000000
00000000
,
00001000
00000000
00000000
00000100
00010000
00001000
01000000
00000000
00000000
00100000
00000000
00000000
,
10000000
00000000
00010000
00100000
00000000
00000000
01000000
00000000
00100000
00010000
00000000
00000000
,
10000000
00000000
01000000
00100000
00000000
00100000
00001000
00000000
00010000
00000100
00000000
00000000
,
00000020
00000000
00000000
00000031
00000000
00000000
00000100
00000000
00000020
00000000
00000000
00001030
00000000
00000000
00000000
00000000
,
00000200
00000000
00000000
00010300
00000000
00000000
00001000
00000000
00200000
00000000
00000000
01300000
00000000
00000000
00000000
00000000
,
10000000
00000000
00000000
00000000
00100000
00000000
00000000
00000000
01000000
00000000
00010000
10000000
00000000
10000000
00010000
00000000
,
00100000
00000000
00001000
00010000
00000000
00010000
00000100
00000000
00000010
00000000
00000001
00001000
00000000
00001000
00000001
00000000
,
00002000
00000000
00000000
00003010
00000000
00000000
00000100
00000000
00000002
00000000
00000000
00001003
00000000
00000000
00000100
00000000
,
00000020
00000000
00000000
00000031
00000000
00000000
00001000
00000000
00000200
00000000
00000000
00000000
00020300
00000000
00000000
00000000
,
00031000
00000000
00100000
00010000
10000000
00100000
01000000
00010000
,
00100000
00000000
00000000
00100000
00000000
00000000
00002000
00000000
00020000
00000000
00003000
00000000
00030000
00000000
00000000
00000000
,
00010100
00000000
00001100
00000000
00000100
00000010
00000001
00001000
,
00000010
00001000
00000100
00000010
00000000
00000100
00010000
00001000
,
00000000
00001000
01000000
00100000
00000000
00000000
10010000
00000000
,
10000000
00000000
00010000
00000000
00100000
00000000
00010000
01000000
00000000
00000000
00000000
00000000
00000000
00000000
00000000
00000000
,
10100000
00000000
00110000
00000000
00100000
00010000
10000000
01000000
,
10000000
00010000
00100000
00001000
00000000
00000000
00100000
00001000
,
00010000
00000000
00000100
00000000
00000010
00000001
00000100
00001000
,
00000000
00000100
00000110
00000000
00000000
00000010
00000110
00000000
,
00000001
00000000
00001000
00000010
00000000
00000010
00000100
00000000
00000010
00000000
00010000
00001000
00000000
00001000
00010000
00000000
,
00110000
10100000
11000000
10010000
,
10000000
00000000
01000000
00100000
00000000
00100000
00010000
00000000
00100000
00000000
00001000
00010000
00000000
00010000
00001000
00000000
,
00010000
00000000
00000100
00000000
00001000
00000000
00000100
00000000
00000010
00000001
00000000
00000100
00000000
00000000
00000010
00000000
,
00002000
00003100
00020000
00031000
,
00200000
01300000
20000000
30010000
,
10010000
00011000
00001001
00000010
00001001
00000000
00000000
00000000
,
00000000
00000000
00000001
00000000
00000100
00000010
00001000
00000000
,
00000100
00000000
00000010
00000010
00000001
00000100
00000010
00001000
,
00000100
00010000
00001000
00100000
00010000
01000000
00100000
00000000
,
10000000
00000000
00010000
00100000
00010000
00000000
10000000
00000000
01000000
00000000
10000000
00000000
00010000
00000000
00100000
00000000
,
00001000
00010000
00000100
00000000
00000010
00000000
00000001
00000000
,
00001000
00000000
00000010
00010000
00000100
00010000
00001000
00100000
,
01000000
10000000
00100000
00000000
01000000
00000000
00010000
00000000
,
10000000
00000000
01000000
00100000
00010000
00010000
10000000
00010000
,
00100000
00001000
00000000
00000000
00000000
00000000
00000000
00000000
;

//---------------dance-single - ----------------
#NOTES:
     dance-single:
     :
     Easy:
     3:
     0.199067,0.275377,0.030162,0.090485,0.000000,231.000000,226.000000,5.000000,15.000000,0.000000,0.000000,0.199067,0.275377,0.030162,0.090485,0.000000,231.000000,226.000000,5.000000,15.000000,0.000000,0.000000:
0000
0000
0000
0000
,
0000
0000
0000
0000
,
0000
0000
0000
0000
,
0000
0000
0000
0000
,
0000
0010
0000
1000
,
0000
0001
1000
0001
,
0100
0000
0010
0010
,
0000
0100
0000
0001
,
0000
1000
0000
0001
,
0000
0100
0010
0100
,
0000
0001
0001
0001
,
1001
1000
0001
0100
,
0000
0010
0000
1000
,
0000
0100
1000
0100
,
0000
1000
0000
0001
,
0000
0100
0001
0100
,
0000
0010
0000
1000
,
0000
0001
0010
0001
,
0001
1000
0001
0100
,
0000
0010
1000
1001
,
0000
2000
3000
0002
,
0003
2000
3000
1001
,
0000
0020
0030
0200
,
0300
0010
0010
0010
,
0000
1000
0000
0001
,
0000
0010
0100
0010
,
0001
1000
1000
0001
,
1000
0020
0000
0000
,
0000
0030
0000
0100
,
0100
0010
1000
0001
,
0010
0001
1000
0000
,
1000
0000
0001
0020
,
0000
0030
0000
0100
,
0010
0001
1000
0100
,
0100
0000
1000
0010
,
0100
0001
1000
0000
,
0100
0000
0100
1000
,
1000
0001
0001
0200
,
0310
0020
0130
0001
,
0001
1000
1000
0100
,
0010
1001
0000
0001
,
0100
1000
0100
0001
,
0010
0000
1000
0000
0010
0000
0001
1000
,
0001
1000
0001
0000
0000
0000
0000
0000
,
0100
0000
0100
0000
,
0100
0000
0100
0000
,
0010
0000
0010
0000
,
0010
0000
0010
0000
,
1000
0000
0001
0001
,
1000
0000
0010
0010
,
0100
0000
0010
0000
,
1000
1000
0001
0001
,
0100
0000
0001
0000
,
0010
0000
0001
0000
,
1000
0000
0100
0000
,
1000
0000
0010
0000
,
0100
0100
0100
0000
,
0010
0010
0010
0000
,
1000
0000
0001
0000
,
0100
0000
0000
0000
,
0010
0010
1000
0000
,
0001
0000
0000
1000
,
0000
1000
0000
0100
,
2000
0000
3000
0000
,
0100
0000
1000
0000
,
0001
0100
0001
0000
,
0010
0010
0001
0000
,
0000
1000
0000
1000
,
0001
0010
0001
1000
,
0100
0010
0001
1000
,
1000
0001
1000
0010
,
0100
0100
1001
0000
,
0002
1003
2000
3001
,
0200
0310
0020
0130
,
0001
1000
0001
1000
0001
0000
0200
0000
,
0000
0310
1000
0010
,
0100
0001
1000
0001
,
0100
0001
0001
0010
,
0001
1000
0100
0001
,
0100
1000
0000
0010
,
0000
0100
0000
0001
,
0000
1000
0000
0001
,
0000
0100
0100
0010
,
1000
0000
0000
0000
;

//---------------dance-single - ----------------
#NOTES:
     dance-single:
     :
     Beginner:
     1:
     0.099103,0.174712,0.018097,0.000000,0.000000,115.000000,112.000000,3.000000,0.000000,0.000000,0.000000,0.099103,0.174712,0.018097,0.000000,0.000000,115.000000,112.000000,3.000000,0.000000,0.000000,0.000000:
0000
0000
0000
0000
,
0000
0000
0000
0000
,
0000
0000
0000
0000
,
0000
0000
0000
0000
,
0000
0010
0000
0000
,
0000
1000
0000
0000
,
0000
0001
0000
0000
,
0000
1000
0000
0000
,
0000
0010
0000
0000
,
0000
0100
0000
0000
,
0000
0001
0001
0001
,
1000
0001
0000
0000
,
0000
0100
0000
0100
,
0000
0100
0000
0000
,
0000
0010
0000
0010
,
0000
0010
0000
0000
,
0000
1000
0000
0000
,
0000
0001
0000
0000
,
0000
0100
0000
0000
,
0000
0010
0000
0100
,
0000
1001
0000
0000
,
0000
1000
0000
0000
,
0000
0010
0000
0000
,
0000
0100
0000
0000
,
0000
0001
0000
0001
,
0000
0001
0000
0000
,
0000
1000
0000
1000
,
0000
0110
0000
0000
,
0000
0000
0000
0010
,
0000
0000
0000
0100
,
0000
0000
0000
0001
,
0000
0001
0000
1000
,
0000
0000
0000
0010
,
0010
0000
0000
0100
,
0000
0000
0001
0001
,
0000
1000
0000
0010
,
0000
0000
0100
0010
,
0000
0010
0000
0010
,
0000
0000
0000
1000
,
0000
1000
0000
1000
,
0000
0001
0000
1000
,
0000
0000
0000
0010
,
0000
0000
0000
0100
,
0000
0000
0000
0000
,
0010
0000
0000
0000
,
0000
0000
0000
0000
,
0010
0000
0000
0000
,
0000
0000
0000
0000
,
0100
0000
0000
0000
,
0001
0000
0000
0000
,
1000
0000
1000
0000
,
0001
0001
0001
0001
,
1000
0000
0000
0000
,
0010
0000
0000
0000
,
0100
0000
0100
0000
,
0100
0000
0000
0000
,
0010
0000
0000
0000
,
1000
0000
0000
0000
,
0001
0000
1000
0000
,
0110
0000
0000
0000
,
0100
0000
0000
0000
,
0010
0000
0000
1000
,
0000
1000
0000
0001
,
0001
0000
0000
0000
,
0100
0100
0100
0000
,
0010
0000
0000
1000
,
1000
0000
0001
0000
,
0010
0000
0000
0100
,
0010
0000
0010
0000
,
0001
0000
0000
0000
,
1000
0000
1000
0000
,
0010
0000
0100
0000
,
0010
0000
1000
0000
,
0001
0000
1000
0000
,
0010
0000
0000
0100
,
0000
0010
0000
0000
,
0000
1000
0000
0000
,
0000
0001
0000
0000
,
0000
0010
0000
0000
,
0000
0001
0000
0000
,
0000
1000
0000
0000
,
0000
0010
0000
0000
,
0000
0100
0000
0010
;
