#TITLE:Leave It All To Me;
#SUBTITLE:;
#ARTIST:Miranda Cosgrove ft. Drake Bell ;
#TITLETRANSLIT:;
#SUBTITLETRANSLIT:;
#ARTISTTRANSLIT:;
#GENRE:;
#CREDIT:;
#MUSIC:[ZIvision Song Contest] - Leave It All To Me.ogg;
#BANNER:;
#BACKGROUND:;
#CDTITLE:;
#SAMPLESTART:88.695;
#SAMPLELENGTH:8.429;
#SELECTABLE:YES;
#OFFSET:2.019;
#BPMS:0.000=105.000
,266.000=84.000
,267.000=71.000
,267.500=59.000
,268.000=52.500
;
#STOPS:;
#DISPLAYBPM:105.000;
#BGCHANGES:;
#FGCHANGES:;

//--------------- dance-single - iWari ----------------
#NOTES:
     dance-single:
     iWari:
     Hard:
     8:
     0,0,0,0,0:
0000
0000
0000
0000
,
0000
0000
0000
0000
0000
0000
0000
0000
0000
0000
0000
0000
0000
0000
0000
0000
0000
0000
0001
0000
1000
0100
0000
0000
,
0010
0001
0200
0010
0310
1000
0200
0010
,
0310
0001
0100
0010
1000
0100
0010
0001
,
0100
0010
1100
1000
0102
0000
0023
0000
,
2030
0000
0000
0000
0000
0000
3010
0000
0001
0100
0000
0000
0110
0000
0000
0000
0000
0000
1100
0000
0100
1000
0000
0000
,
0012
0100
0103
0010
0100
0001
2000
0100
,
3100
0010
0001
1000
0010
1000
0001
1000
,
0001
1000
1010
0100
0011
0010
0020
1000
,
1030
0000
0010
0001
0000
0000
0100
0000
0010
0100
0000
0000
0001
0000
1000
0100
0000
0000
1000
0000
0100
1000
0000
0000
,
1001
0001
0010
0100
1000
1000
0010
0100
,
0001
0000
1000
0100
0000
0000
0010
0000
0001
0100
0000
0000
0010
0000
0000
0100
0000
0000
0001
0000
0000
0100
0000
0000
,
0010
0000
0100
0010
0000
0000
1000
0000
0100
1000
0000
0000
0100
0000
0001
0100
0000
0000
1000
0000
0010
0100
0000
0000
,
0001
1000
0001
0100
0000
1100
0001
0100
,
0010
0000
2002
0000
0000
0000
0000
0000
0000
0000
3000
0000
0010
0003
0100
0000
,
1000
0100
0010
0001
0010
0100
2000
0000
0000
0000
0010
0000
0010
0000
3010
0000
,
1010
0100
0011
0100
1000
0001
0010
0100
,
1010
1100
0011
0101
1000
0100
0001
0100
,
1000
0000
0100
1000
0000
0000
0101
0000
0001
0100
0000
0000
0010
0000
0000
0100
0000
0000
1000
0000
0000
0100
0000
0000
,
0001
0000
0010
0001
0000
0100
0010
0000
1000
0100
0000
0000
1100
0000
0000
0011
0000
0000
1010
0000
0000
0201
0000
0000
,
2300
0000
0000
0000
3200
0000
0000
0000
0302
0000
0000
0000
0023
0000
0000
0030
,
1100
0000
0000
1000
0000
0000
0010
0000
1000
0100
0000
0000
0001
0000
0100
0010
0000
0000
0200
0000
0000
1000
0000
0000
,
1300
0011
1000
0011
0100
1000
0010
0001
,
0011
1010
1100
0101
1001
0110
1001
0110
,
2002
0000
0000
0000
,
3003
0000
0000
0000
,
1000
0001
1000
0001
,
1000
0100
0010
0100
1000
0010
0100
0001
,
0010
0010
2100
0000
3020
0000
0032
0000
,
0023
0000
0130
0001
0110
0000
1001
0000
,
1010
0000
0000
0100
0000
0000
0010
0000
0100
0010
0000
0000
1000
0000
0000
0001
0000
0000
0010
0000
0100
1000
0000
0010
,
0100
0002
0100
0010
2003
0100
0010
0100
,
3001
0010
1100
1000
0020
0000
0230
0000
,
0302
0003
0010
0100
0000
1000
0100
0000
0010
0100
0000
0010
0001
0000
0100
0010
0000
0000
0200
0000
0000
0320
0000
0030
,
0200
0001
0301
0010
0010
0100
1000
0010
,
0201
0000
0010
0310
1001
1100
0010
0100
,
0010
0010
0001
0001
1000
0100
1000
0010
,
0200
1000
0010
0301
0000
0100
0010
1000
,
0100
0220
0000
0030
0000
0000
0310
0001
,
0100
0010
1000
0001
0010
0100
0020
0000
0000
0000
0100
0000
0100
0000
0130
0000
,
1001
0000
0000
0001
0000
0000
1100
0000
0000
0010
0000
0000
0101
0000
0000
0010
0000
0000
1100
0000
0001
0010
0000
0010
,
0100
0000
1000
0010
0000
0000
0100
0000
0000
0001
0000
0000
0020
0000
0000
2030
0000
0000
3020
0000
0000
0032
0000
0000
,
1003
0000
0100
0010
0000
0000
0100
0000
1000
0010
0000
0000
0100
0000
0001
1000
0000
0000
0100
0000
0000
0010
0000
0000
,
0101
0000
0000
0011
0000
0000
1100
0000
0000
1010
0000
0000
0100
0000
0000
0001
0000
0000
0100
0000
0001
1000
0000
0010
,
1000
0000
0100
0010
0000
0010
0001
0000
0001
0100
0000
0000
0020
0000
0000
0000
0000
0000
2030
0000
0000
0000
0000
0000
,
3001
0000
1000
0010
0000
0000
0100
0000
0000
0001
0000
0000
0020
0000
0000
0230
0000
0000
2300
0000
0000
3020
0000
0030
,
0101
0000
0000
0100
0000
0000
0001
0000
1000
0001
0000
0000
0010
0000
0100
1000
0000
0000
0010
0000
0000
0100
0000
0000
,
0011
1010
1100
0101
1001
0110
1001
0110
,
2002
0000
0000
0000
,
3003
0000
2000
3002
,
0023
0100
1000
0100
,
0031
0100
0010
1000
0010
0100
0010
0100
,
0002
0000
0000
0000
0000
0013
0200
0000
0000
0000
0000
1300
0020
0000
0000
0000
0000
0130
0020
0000
0000
1030
0000
0000
,
0100
0000
0000
0001
0000
0000
0100
0000
0000
1000
0000
0000
0010
0000
0000
0001
0000
0000
0010
0000
0000
1000
0000
1000
,
0200
0000
0000
0300
0000
0100
0002
0000
0000
0003
0000
0001
0020
0000
0000
0030
0000
0010
2000
0000
0000
0000
0000
0000
,
3001
1000
0001
0010
0100
1000
0010
0100
,
0011
0011
1100
0011
0101
1010
0110
1001
,
1000
0000
0100
0010
0000
0001
0100
0000
0010
1000
0000
1000
0100
0000
0000
0010
0000
0000
0100
0000
0000
1000
0000
0000
,
0001
0000
0100
0010
0000
0000
0100
0000
0000
0001
0000
0000
1010
0000
0000
1100
0000
0000
0011
0000
0000
0101
0000
0000
,
0010
0000
1000
0100
0000
0010
0001
0000
0100
0010
0000
0000
1000
0000
0000
0010
0000
0000
0001
0000
0000
0010
0000
0000
,
1000
0100
1000
0010
0201
0010
1000
0310
,
0021
0100
1000
0130
1001
1000
0110
0100
,
0011
0000
0100
0010
0000
0000
1000
0000
0100
1000
0000
0000
0110
0000
0000
0010
0000
0000
1000
0000
0000
0001
0000
0000
,
0110
0101
1100
0011
1010
0110
1001
0110
,
1001
0000
0000
0001
0000
0000
0100
0000
0010
1000
0000
0000
0100
0000
0000
0010
0000
0000
0001
0000
1000
0100
0000
0000
,
0010
0000
0001
1000
0000
1000
0100
0000
0010
0001
0000
0001
0100
0000
0000
0010
0000
0000
1000
0000
0000
0100
0000
0000
,
0001
0010
1000
0001
2000
0010
3020
0230
,
0302
0000
0000
0000
,
0003
0000
0000
0000
;
