#TITLE:Konya Wa Hurricane;
#SUBTITLE:;
#ARTIST:Kinuko Oomori;
#TITLETRANSLIT:;
#SUBTITLETRANSLIT:;
#ARTISTTRANSLIT:;
#GENRE:;
#CREDIT:;
#BANNER:banner.jpg;
#BACKGROUND:BG.jpg;
#LYRICSPATH:;
#CDTITLE:;
#MUSIC:There_s_a_Hurricane_tonight_mp3.ogg;
#OFFSET:-0.100000;
#SAMPLESTART:118.419998;
#SAMPLELENGTH:12.000000;
#SELECTABLE:YES;
#BPMS:0.000000=165.919998
;
#STOPS:
;
#BGCHANGES:;
#KEYSOUNDS:;
#ATTACKS:;

//---------------dance-single - ----------------
#NOTES:
     dance-single:
     :
     Hard:
     8:
     0.605851,0.646818,0.421211,0.121170,0.000000,735.000000,662.000000,73.000000,21.000000,0.000000,0.000000,0.605851,0.646818,0.421211,0.121170,0.000000,735.000000,662.000000,73.000000,21.000000,0.000000,0.000000:
// measure 0
0000
0000
0000
0000
,  // measure 1
0000
0000
0000
0000
,  // measure 2
0000
0000
0000
0000
,  // measure 3
0000
0000
0000
0000
,  // measure 4
2000
0000
0000
0000
,  // measure 5
3002
0000
0000
0000
,  // measure 6
0203
0000
0000
0000
,  // measure 7
0301
0010
0100
1000
0001
1000
0001
0100
,  // measure 8
0001
0000
1000
0001
0010
0100
1000
0001
,  // measure 9
1000
0100
0010
0001
1000
0000
0001
0100
,  // measure 10
1000
0000
0001
0100
0001
0100
0001
0010
,  // measure 11
0100
0001
1000
0100
0010
0000
0001
0010
,  // measure 12
0100
0000
1000
0100
1000
0001
0100
0001
,  // measure 13
0010
0001
1000
0100
1000
0001
0100
0001
,  // measure 14
1000
0000
0000
0001
1000
0000
0000
0100
,  // measure 15
0010
1001
0110
1001
,  // measure 16
0001
1000
0100
0010
0100
0010
0001
0100
,  // measure 17
0001
1000
0010
0100
0001
0000
1000
0001
,  // measure 18
1000
0000
0001
1000
0001
0010
0100
1000
,  // measure 19
0001
0100
0001
1000
0001
0000
1000
0100
,  // measure 20
0001
0000
1000
0001
0010
0100
1000
0001
,  // measure 21
0100
0001
1000
0100
0010
0001
1000
0001
,  // measure 22
1000
0000
0000
0010
0001
0000
0100
0000
,  // measure 23
0110
1001
0110
0000
,  // measure 24
0000
1000
0100
0001
0100
1000
0001
0100
,  // measure 25
1000
0100
0001
1000
0001
1000
0000
0000
,  // measure 26
0000
0100
2000
0000
0000
3001
0010
0001
,  // measure 27
2000
0001
3001
1001
,  // measure 28
0100
1000
0001
0010
0001
0100
0001
1000
,  // measure 29
0010
1000
0100
1000
0001
0010
0001
0000
,  // measure 30
1000
0100
0000
0000
0001
0100
0000
0000
,  // measure 31
1000
0001
2000
0000
0000
0000
3001
0000
,  // measure 32
0000
0000
1000
0001
0010
0100
0000
0000
,  // measure 33
1000
0100
1000
0001
0100
0001
1000
0001
,  // measure 34
0100
0001
1000
0010
0100
1000
0010
0100
,  // measure 35
0001
1000
0010
0100
0001
1000
0100
1000
,  // measure 36
0000
0000
0001
0010
0100
1000
0100
1000
,  // measure 37
0100
0010
0100
0010
0001
0010
0001
0000
,  // measure 38
1001
0000
1000
0100
0010
0001
0010
0001
,  // measure 39
0101
1001
1100
0110
,  // measure 40
1001
0000
1000
0001
0010
0001
1000
0200
,  // measure 41
0000
1000
1000
1300
,  // measure 42
0001
0100
0001
1000
0001
1000
0010
2000
,  // measure 43
0000
0000
0000
3000
,  // measure 44
1000
0100
0001
0000
0001
0100
1000
0000
,  // measure 45
1000
0100
0001
0000
0001
0010
1000
0000
,  // measure 46
0001
1000
0001
0000
0000
0000
0001
0100
,  // measure 47
1000
0100
0001
0000
1000
0001
1000
0000
,  // measure 48
1001
0000
0001
1000
0100
1000
0001
0020
,  // measure 49
0000
0000
0000
0000
0000
0000
0000
0030
,  // measure 50
0000
1000
0100
0010
0001
0010
1000
0001
,  // measure 51
0020
0000
0000
0000
0000
0000
0000
0030
,  // measure 52
0001
1000
0001
0000
1000
0001
0100
0000
,  // measure 53
0001
0010
0001
0000
1000
0100
1000
0010
,  // measure 54
1000
0100
1001
0000
0000
1000
1100
0000
,  // measure 55
0000
0001
0011
0000
0000
0000
1000
1000
,  // measure 56
0001
0100
0001
0000
1000
0100
1000
0000
,  // measure 57
0001
0010
0001
1000
0010
1000
0100
0010
,  // measure 58
0001
1000
0010
1000
0001
0100
0001
0100
,  // measure 59
0001
1000
0100
1000
0100
1000
0001
0100
,  // measure 60
0010
1000
0001
0100
0010
1000
0001
1000
,  // measure 61
0001
1000
0010
0100
0001
0100
0010
1000
,  // measure 62
0000
1100
0000
1100
0000
1001
0000
1001
,  // measure 63
0000
0011
0000
0011
0000
0101
0000
0101
,  // measure 64
0000
1010
0000
1010
0000
0001
0100
0001
,  // measure 65
1000
0001
0100
0001
1000
0100
1000
0010
,  // measure 66
1000
0000
0010
1000
0001
1000
0100
0010
,  // measure 67
0100
0001
1000
0001
1000
0010
0100
0001
,  // measure 68
0010
0100
1000
0100
0010
0001
1000
0100
,  // measure 69
1000
0001
0010
0001
1000
0001
1000
0000
,  // measure 70
0001
0100
0010
0100
0001
1000
0100
0010
,  // measure 71
0100
0001
1000
0001
0100
0001
0000
0000
,  // measure 72
0001
1000
1000
0000
0001
1000
1000
0000
,  // measure 73
0100
0010
0200
0000
0000
0000
0300
0000
,  // measure 74
0000
0000
1000
0010
0100
0001
0100
0001
,  // measure 75
1000
0100
0010
0100
0010
0001
1000
0000
,  // measure 76
0001
0001
1001
0000
0001
0001
0011
0000
,  // measure 77
1000
1000
1100
0000
0100
0100
0110
0000
,  // measure 78
0001
0010
0100
1000
0100
0010
0001
0100
,  // measure 79
0010
0100
0001
1000
0001
0010
0100
0010
,  // measure 80
0110
0000
0100
1000
0010
0100
0001
1000
,  // measure 81
0100
1000
0010
0000
0100
0000
1001
0000
,  // measure 82
0001
0100
1000
0001
1000
0001
1000
0000
,  // measure 83
1001
0101
0011
1001
,  // measure 84
1100
0001
1000
0010
1000
0100
1000
0000
,  // measure 85
0110
1001
1010
1100
,  // measure 86
1001
0001
1000
0100
0010
0001
0010
0100
,  // measure 87
0010
0100
0010
0001
0010
0100
1000
0000
,  // measure 88
0001
1000
1001
0000
0010
0000
0100
0010
,  // measure 89
0110
0000
0100
1000
,  // measure 90
0001
1000
0100
1000
0100
1000
0100
0010
,  // measure 91
1001
1100
1001
0101
,  // measure 92
1001
1000
0001
0100
0001
1000
0001
0100
,  // measure 93
1001
0110
1001
1100
,  // measure 94
0011
0001
1000
0010
0100
0001
1000
0001
,  // measure 95
0100
0010
0100
0001
1000
0100
0010
0001
,  // measure 96
1001
0000
0001
1000
0000
0010
0100
0000
,  // measure 97
1000
0001
1000
0001
1000
0000
0010
0000
,  // measure 98
0001
0100
0001
2000
,  // measure 99
0001
3001
0001
1001
,  // measure 100
0001
1000
0001
0000
0100
0000
0001
0000
,  // measure 101
2000
0100
3100
0001
,  // measure 102
1000
1000
1001
0000
0010
0010
0110
0000
,  // measure 103
0001
1000
1100
0000
1000
0001
0101
0000
,  // measure 104
1000
0100
0001
0000
1000
0100
0001
0000
,  // measure 105
2000
0000
0000
3000
,  // measure 106
1000
0001
0010
0001
1000
0100
0010
0001
,  // measure 107
2000
0000
3002
0000
0203
0000
0020
0330
,  // measure 108
1000
1000
0001
0001
0100
0100
0010
0010
,  // measure 109
0000
0000
0002
0000
2003
0000
3002
0003
,  // measure 110
1000
0010
1000
0100
1000
0001
1000
0010
,  // measure 111
0100
0010
0100
0001
0010
0100
1000
0001
,  // measure 112
1001
0100
0101
1000
,  // measure 113
1100
0000
0010
0000
0110
0000
1000
0001
,  // measure 114
1001
0010
0011
0001
,  // measure 115
1001
0000
0010
0000
1010
0000
1000
0010
,  // measure 116
0101
1000
1001
0001
,  // measure 117
0110
0000
0001
0000
1000
0001
1000
0001
,  // measure 118
1001
0000
0000
0000
;
