#TITLE:Invincible;
#SUBTITLE:;
#ARTIST:Amaranthe;
#TITLETRANSLIT:;
#SUBTITLETRANSLIT:;
#ARTISTTRANSLIT:;
#GENRE:;
#CREDIT:Telperion;
#BANNER:[ZIvision Song Contest] - Invincible.png;
#BACKGROUND:[ZIvision Song Contest] - Invincible-bg.png;
#LYRICSPATH:;
#CDTITLE:;
#MUSIC:[ZIvision Song Contest] - Invincible.ogg;
#OFFSET:-0.173000;
#SAMPLESTART:143.326004;
#SAMPLELENGTH:27.429001;
#SELECTABLE:YES;
#DISPLAYBPM:140.000000;
#BPMS:0.000000=140.000000
;
#STOPS:
;
#BGCHANGES:0.000=[ZIvision Song Contest] - Invincible-bg.png=1.000=0=0=0=StretchNoLoop====,
2.479=[ZIvision Song Contest] - Invincible.avi=1.000=0=0=1=====,
99999=-nosongbg-=1.000=0=0=0 // don't automatically add -songbackground-
;
#KEYSOUNDS:;
#ATTACKS:;

//---------------dance-single - ----------------
#NOTES:
     dance-single:
     :
     Hard:
     9:
     0.724362,0.732815,0.274841,0.190706,0.712343,904.000000,855.000000,49.000000,34.000000,0.000000,0.000000,0.724362,0.732815,0.274841,0.190706,0.712343,904.000000,855.000000,49.000000,34.000000,0.000000,0.000000:
0000
0000
0000
0000
,
0000
0000
0000
0000
,
0000
0000
0000
0000
,
0000
0000
0000
0000
0000
0000
0000
0000
1000
0001
0100
0001
0000
0000
1000
0001
,
0100
0001
0000
0000
0010
0000
0100
0000
1000
0001
1000
0100
0000
0000
1000
0001
,
1000
0100
0000
0000
0010
0000
0001
0000
1000
0010
1000
0001
0000
0000
1000
0010
,
1000
0001
0000
0000
0010
0000
0100
0000
1100
0000
1000
0000
0000
0000
0101
0000
,
0001
0000
0000
0000
2010
0000
0000
0000
3001
0010
0100
0010
0000
0000
0001
0010
,
0100
0010
0000
0000
0001
0000
1000
0000
0010
1000
0010
0100
0000
0000
0010
1000
,
0010
0100
0000
0000
0001
0000
1000
0000
0100
0010
0100
1000
0000
0000
0100
0010
,
0100
1000
0000
0000
0001
0000
0100
0000
0110
0000
0010
0000
0000
1000
0000
0000
,
1010
0000
0014
0000
1003
0010
0010
0100
,
0100
0001
1000
0100
0000
1000
0001
0010
,
1000
0010
0001
0000
1000
0001
0001
0010
,
0010
0100
0100
1000
0000
0010
0001
0010
,
1000
0001
0010
0000
0001
0010
0010
0100
,
0100
1000
0001
0100
0000
0001
1000
0010
,
0001
0010
1000
0000
0001
1000
1010
0000
,
0100
0001
0011
0010
0000
0100
0010
1000
,
0010
0000
0001
0000
1000
0000
0000
0000
0010
0000
1000
0001
0100
0001
0000
0000
,
1000
0000
0100
0010
0001
0010
0100
0000
1000
0000
0001
0100
0010
1000
0010
0000
,
0100
0000
0001
0000
1000
0000
0000
0000
0100
0000
1000
0001
0010
0001
0000
0000
,
1000
0000
0010
0100
0001
0100
0010
0000
1000
0000
0001
0010
0100
1000
0001
0000
,
0100
0000
0010
0000
0100
0000
0001
0000
1000
0000
0100
0010
0100
0001
0000
0000
,
0100
0000
0010
0001
0010
0100
1000
0000
0001
0000
0100
0010
1000
0001
0010
0000
,
0100
1000
0001
0100
0010
0000
1000
0000
1010
0000
0000
0000
0010
0000
0110
0000
,
0000
0100
0101
0000
0004
0000
0403
0000
,
0340
0000
0000
0000
1030
0000
0000
0000
0001
1000
0100
1000
0000
0000
0001
1000
,
0100
1000
0000
0000
0010
0000
0100
0000
0001
1000
0001
0100
0000
0000
0001
1000
,
0001
0100
0000
0000
0010
0000
1000
0000
0100
0010
0001
1000
0000
0000
0001
0010
,
0001
1000
0000
0000
0010
0000
0100
0000
0101
0000
0001
0000
0000
0000
1100
0000
,
1000
0000
0000
0000
0012
0000
0000
0000
1003
0010
0100
0010
0000
0000
1000
0010
,
0100
0010
0000
0000
1000
0000
0001
0000
0010
0001
0010
0100
0000
0000
0010
0001
,
0010
0100
0000
0000
1000
0000
0100
0000
0010
0100
1000
0001
0000
0000
0100
0010
,
0100
0001
0000
0000
1000
0000
0100
0000
0110
0000
0010
0000
0000
0001
0000
0000
,
0011
0000
0000
0000
4010
0000
0000
0000
3001
0000
0001
0000
0100
0001
0000
0001
,
1000
0000
1000
0000
0100
1000
0100
1000
0001
0000
0001
0000
0010
0001
0000
0001
,
1000
0000
0010
0000
0100
0000
0001
0000
1000
0000
1000
0000
0100
0010
0000
0010
,
0001
0000
0001
0000
1000
0010
1000
0010
0100
0000
0001
1000
0001
1000
0100
0010
,
0001
0000
1000
0000
1010
0000
0000
0000
0101
0000
0001
0000
1000
0100
0000
1000
,
0001
0000
0010
0000
0100
1000
0000
0001
1000
0001
0100
0000
0010
0100
0000
0001
,
1000
0000
0100
0000
0010
0001
0010
0000
0100
0000
1000
0000
0001
0100
0000
0001
,
1000
0000
0100
0000
0010
0001
0010
0001
1000
0000
0000
0000
0000
0000
0010
0000
,
0100
0000
0110
0000
1001
0000
0000
0000
1000
0000
0001
1000
0100
1000
0000
0000
,
0001
0000
0100
0010
1000
0010
0100
0000
0001
0000
1000
0100
0010
0001
0010
0000
,
0100
0000
1000
0000
0001
0000
0000
0000
0100
0000
0001
1000
0010
1000
0000
0000
,
0001
0000
0010
0100
1000
0100
0010
0000
0001
0000
1000
0010
0100
0001
1000
0000
,
0100
0000
0010
0000
0100
0000
1000
0000
0001
0000
0100
0010
0100
1000
0000
0000
,
0100
0000
0010
1000
0010
0100
0001
0000
1000
0000
0100
0010
0001
1000
0010
0000
,
0100
0001
1000
0100
0010
0000
0001
0000
0011
0000
0000
0000
0010
0000
0110
0000
,
0000
0100
1100
0000
0002
0000
0103
0000
,
0201
0000
0000
0000
0310
0000
0000
0000
1000
0000
0001
0100
0001
0100
0000
0010
,
1000
0000
0001
0010
0001
0010
0100
0000
1000
0000
0001
0100
0001
0000
1000
0000
,
0100
0000
0010
0000
0010
0000
0000
0000
0001
0000
1000
0100
1000
0100
0000
1000
,
0001
0000
0100
0010
0100
0010
1000
0000
1001
0000
0000
0001
0000
0000
0011
0000
,
0010
0100
0000
0100
1000
0000
0001
0100
0001
0000
1000
0100
1000
0100
0000
0010
,
0001
0000
1000
0010
1000
0010
0100
0000
0001
0000
0010
0001
1000
0001
0000
0001
,
0010
0000
0100
1000
0100
1000
0001
0000
1000
0000
0001
0100
0001
0100
0010
0000
,
1000
0001
1000
0001
0010
0000
0100
0000
0110
0000
4000
0000
0000
0000
0000
0000
,
3004
0000
0000
0000
0403
0000
0000
0000
0310
2000
0000
0000
0001
0000
0000
0000
,
3010
1000
0010
0100
0001
0000
0000
0000
0010
0001
0000
0000
0010
0100
1000
0000
,
0001
1000
0001
0000
0100
0000
0010
0000
1000
0002
0000
0000
0010
0000
0000
0000
,
1003
0001
0010
0100
1000
0000
0000
0000
2100
0000
0000
3002
0000
0000
0203
0000
,
0310
1000
0010
0100
0001
0000
1000
0000
0100
2000
0000
0000
0001
0000
0000
0000
,
3100
1000
0100
0010
0001
0000
0000
0000
0100
0001
0000
0000
0100
0010
1000
0000
,
0001
1000
0001
0000
0010
0000
0000
0000
0110
0000
0000
0000
0100
0000
0000
0000
,
1000
0001
0100
0010
1000
0000
0000
0000
2010
0000
0000
3002
0000
0000
0023
0000
,
0000
0230
0000
1300
0001
0000
1000
0100
0040
0000
0000
0000
0030
0000
0002
0000
,
2003
0000
0000
3020
0000
0000
0230
0000
2300
0000
0000
3200
0000
0000
0302
0000
,
0023
0000
0000
0230
0000
0000
1300
0000
2002
0000
0000
0000
3003
0000
2020
0000
,
0000
3030
0202
0000
0000
0000
0303
1000
,
0001
0010
0000
0000
0011
0000
0001
1000
0010
0000
0000
0000
0100
0000
0001
0000
,
0201
0000
0000
0010
0000
0300
0100
0000
0001
0000
0000
0000
1000
0000
0100
0000
,
1200
0000
0000
0010
0000
0300
0100
0000
1000
0000
0001
0100
0001
0000
1000
0000
,
0100
0010
0000
0000
0011
0000
0010
0100
1000
0000
0001
0100
0000
0100
0010
0000
,
1000
0001
0000
1000
0100
1000
0001
0100
0020
0000
0000
0000
0000
0000
0000
0000
,
0000
0000
0000
0000
0100
0000
0000
1000
,
0030
0000
0010
0000
1000
0000
0001
1000
0001
0000
0010
0000
0100
0000
1000
0000
,
0001
0100
0100
0010
1000
1000
0001
0010
,
0010
0100
1000
0001
0101
0100
0010
1000
,
1010
0100
0001
1000
1100
0100
0010
0001
,
0011
0000
0100
0000
2000
0000
3001
0100
0010
0000
1000
0010
1000
0010
0100
0000
,
0001
1000
0001
1000
0100
0000
0010
0000
0004
0000
0000
0000
4003
0000
0000
0000
,
3100
0010
0001
1000
0010
0000
0000
0000
0100
0000
0001
1000
0010
1000
0000
0000
,
0001
0000
0010
0100
1000
0100
0010
0000
0001
0000
1000
0010
1000
0001
0100
0000
,
0010
0000
0010
0000
1000
0000
0000
0000
0100
0000
0010
0001
0010
0100
0000
0000
,
1000
0000
0010
0100
0001
0100
0010
0000
1000
0000
0001
0010
0100
1000
0001
0100
,
0001
1000
0100
0010
0001
0000
0000
0000
1000
0000
0010
0100
0010
0001
0000
0000
,
0010
0000
0100
0001
0100
0010
1000
0000
0001
0000
0010
0100
1000
0001
0100
0000
,
0010
1000
0001
0010
0100
0000
1000
0000
1100
0000
0000
1000
0100
0000
0110
0000
,
0000
0000
0010
0000
0011
0000
0001
0000
1000
0000
0010
0000
1000
0001
0000
0000
,
1020
0000
0000
0000
0130
0000
0000
0000
0001
0000
1000
0100
1000
0100
0000
0010
,
0001
0000
1000
0010
1000
0010
0100
0000
0001
0000
1000
0100
1000
0000
0001
0000
,
0100
0000
0010
0000
0010
0000
0000
0000
1000
0000
0001
0100
0001
0100
0000
0001
,
1000
0000
0100
0010
0100
0010
0001
0000
1001
0000
0000
1000
0000
0000
1010
0000
,
0010
0100
0000
0100
0001
0000
1000
0100
1000
0000
0001
0100
0001
0100
0000
0010
,
1000
0000
0001
0010
0001
0010
0100
0000
1000
0000
0010
1000
0001
1000
0000
1000
,
0010
0000
0100
0001
0100
0001
1000
0000
0001
0000
1000
0100
1000
0100
0010
0000
,
0001
1000
0001
1000
0010
0000
0100
0010
0400
0000
0000
0000
0304
0000
0000
0000
,
4003
0000
0000
0000
3400
0000
0000
0000
0310
0001
0010
0100
0000
1000
0010
1000
,
0001
0100
0000
0001
0010
0100
1000
0000
1001
0000
0000
0000
0000
0000
0000
0000
;

//---------------dance-single - ----------------
#NOTES:
     dance-single:
     :
     Medium:
     7:
     0.576925,0.591889,0.431893,0.196315,0.291668,720.000000,643.000000,77.000000,35.000000,0.000000,0.000000,0.576925,0.591889,0.431893,0.196315,0.291668,720.000000,643.000000,77.000000,35.000000,0.000000,0.000000:
0000
0000
0000
0000
,
0000
0000
0000
0000
,
0000
0000
0000
0000
,
0000
0000
0000
0000
0000
0000
0000
0000
1100
0000
0000
1000
0000
0000
0100
0000
,
0000
0010
0000
0000
0001
0000
0000
0000
0101
0000
0000
0100
0000
0000
0010
0000
,
0000
1000
0000
0000
0001
0000
0000
0000
1001
0000
0000
1000
0000
0000
0100
0000
,
0000
0010
0000
0000
0011
0000
0000
0000
0001
0000
0010
0000
0100
0000
1000
0000
,
0001
0000
0100
0000
0010
0000
0000
0000
0110
0000
0000
0010
0000
0000
0100
0000
,
0000
0101
0000
0000
1001
0000
0000
0000
1100
0000
0000
0100
0000
0000
0010
0000
,
0000
0011
0000
0000
1001
0000
0000
0000
1010
0000
0000
0100
0000
0000
0001
0000
,
0000
1001
0000
0000
0011
0000
0000
0000
0010
0000
0100
0000
1000
0000
0001
0000
,
0100
0000
0010
0000
4000
0000
0000
0000
3001
0000
0010
0000
0001
1000
0000
0000
,
1000
0000
0010
0000
0100
0001
0000
0000
0001
0000
1000
0000
0100
0010
0000
0000
,
0010
0000
0100
0000
0001
0000
0100
0000
1000
0000
0001
0000
0100
0010
0000
0000
,
0010
0000
1000
0000
0001
0010
0000
0000
0010
0000
1000
0000
0010
0000
0100
0000
,
1000
0000
0001
0000
0200
0000
0000
0000
0310
0000
1000
0000
0010
0100
0000
0001
,
0100
0000
0010
0000
1000
0010
0000
1000
0001
0000
0010
0000
0100
1000
0000
0001
,
0100
0000
0010
0000
0001
0000
0010
0000
1000
0000
0001
0000
0010
0100
0000
1000
,
0100
0000
0010
0000
0001
1000
0000
0010
0000
0000
0100
0000
0001
0000
0100
0000
,
0010
1000
1010
0000
0001
0010
0011
0000
,
1000
0001
0010
0100
1000
0010
1010
0000
,
0100
0001
0101
0000
1000
0100
1100
0000
,
0001
0010
0100
1000
0001
0100
0101
0000
,
1000
0000
0001
0000
1001
0000
0000
0000
1000
0000
0010
0000
1000
0010
1000
0000
,
0001
0000
0010
0000
0001
0010
0001
0000
1000
0000
0100
0000
1000
0100
1000
0000
,
0001
0100
0001
1000
2010
0000
3001
0012
,
0000
1003
2001
0000
3010
0000
0004
0000
,
0043
0000
0000
0000
0430
0000
0000
0000
1300
0000
0000
0001
0000
0000
0100
0000
,
0000
0110
0000
0000
1010
0000
0000
0000
1000
0000
0000
0100
0000
0000
0010
0000
,
0000
0011
0000
0000
1001
0000
0000
0000
0010
0000
0000
0100
0000
0000
0010
0000
,
0000
1001
0000
0000
0101
0000
0000
0000
1000
0000
0010
0000
0100
0000
0001
0000
,
1000
0000
0100
0000
0010
0000
0000
0000
0110
0000
0000
0010
0000
0000
0100
0000
,
0000
1100
0000
0000
1001
0000
0000
0000
0101
0000
0000
0100
0000
0000
0010
0000
,
1000
0010
0000
1000
0001
0000
0010
0000
0011
0000
0000
0100
0000
0000
1000
0000
,
0000
1001
0000
0000
1010
0000
0000
0000
0010
0000
0100
0000
0000
0100
0001
0000
,
1000
0000
0000
1000
0004
0000
0000
0000
0013
0000
0100
0000
1000
0001
0000
0000
,
0100
0000
0001
0000
0010
0100
0000
0000
1000
0000
0001
0000
0100
0010
0000
0000
,
0010
0000
0100
0000
1000
0000
0100
0000
0001
0000
1000
0000
0100
0010
0000
0000
,
0001
0000
1000
0000
0001
0100
0000
0000
0010
0000
0001
0000
1000
0000
0100
0000
,
0001
0000
0000
0000
0012
0000
0000
0000
1003
0000
0001
0000
0010
0100
0000
1000
,
0100
0000
0010
0000
0001
0010
0000
0001
1000
0000
0010
0000
0100
0001
0000
1000
,
0100
0000
0010
0000
1000
0000
0010
0000
0001
0000
1000
0000
0010
0100
0000
0001
,
0100
0000
0010
0000
1000
0001
0000
0010
0000
0000
0100
0000
1000
0000
0100
0000
,
0010
0001
0011
0000
1000
0010
1010
0000
,
0001
1000
0010
0100
0001
0010
0011
0000
,
0100
1000
1100
0000
0001
0100
0101
0000
,
1000
0010
0100
0001
1000
0100
1100
0000
,
0001
0000
1000
0000
1001
0000
0000
0000
0001
0000
0010
0000
0001
0010
0001
0000
,
1000
0000
0010
0000
1000
0010
1000
0000
0001
0000
0100
0000
0001
0100
0001
0000
,
1000
0100
1000
0001
0012
0000
1003
2010
,
0000
0000
3001
0000
1002
0000
0000
0000
0013
0000
0100
1000
0000
1000
0001
0000
,
0100
0000
0101
0000
1001
0000
0001
0010
,
0110
0000
0010
0100
0001
0100
1000
0000
,
0001
0100
0110
0000
1000
0010
0110
0000
,
0010
0000
0001
0000
0010
0000
1000
0000
0001
0000
0000
0010
0000
0000
0100
0000
,
1000
0001
0000
1000
0010
0000
0000
0000
0100
0000
0010
0000
1000
0010
1000
0000
,
0001
0000
0010
0000
0001
0010
0001
0000
1000
0000
0100
0000
1000
0100
1000
0000
,
0001
0000
0100
0000
0001
0100
0001
0000
2000
0000
0100
0000
3001
0000
0012
0000
,
0000
0000
1003
0000
2001
0000
0000
0000
3010
0000
0100
0000
0001
0000
1000
0100
,
0000
1000
0100
0000
0010
0000
0001
0000
0200
0000
0000
0000
0000
0000
0010
0000
,
0000
2300
0000
3100
,
0001
0000
0000
1000
0000
0000
0100
0000
0020
0000
0000
0000
0000
0000
0000
0000
,
0000
0000
0031
0000
0010
0001
1000
0010
,
0100
1000
0100
0001
0020
0000
0000
0100
,
0000
1030
0010
0000
0002
0000
1003
0010
,
0200
0000
0301
1000
0100
0010
0100
0010
,
0001
0000
0010
0000
0001
0000
1000
0000
0010
0000
0100
0001
0100
0000
0010
0000
,
0100
0001
0100
0000
0010
0000
1000
0000
0002
0000
0000
0000
0010
0000
0000
0000
,
0000
0013
2000
0010
,
3001
0000
0000
1000
0000
0000
0010
0000
0200
0000
0000
0000
0010
0000
0302
0000
,
0000
0000
2003
0000
0001
0000
3000
1000
,
0020
0000
0230
0000
0301
0000
1000
0001
,
0020
0000
0000
0001
0000
0000
0130
0000
0010
0000
0000
0000
0001
0000
1000
0000
,
0020
0000
0000
0100
0000
0000
1030
0000
0010
0000
0100
0000
0000
0000
0001
0000
,
0000
0101
0000
0000
1000
0000
0100
0000
0010
0000
0000
0110
0000
0000
0001
0000
,
0000
1001
0000
0000
1000
0000
0010
0000
0100
0000
0000
0000
0000
0000
0000
0000
,
0000
0000
0000
0000
0010
0000
0000
0100
,
0000
0100
0001
0000
1001
0000
0000
1000
,
0000
1000
0000
0000
1100
0000
0000
0100
,
0000
0010
0001
0000
0011
0000
0000
0001
,
1000
0000
0010
0000
1010
0000
0000
1000
,
0001
0000
0000
0000
0010
0000
0000
0000
0011
0000
0000
0001
0010
0000
0100
0000
,
0000
1000
0001
0000
0100
0000
0010
0000
4000
0000
0000
0000
0000
0000
0000
0000
,
3001
0010
0100
1000
0010
0100
0110
0000
,
1000
0000
0001
0000
0010
0001
0010
0000
0100
0000
1000
0000
1010
0000
0000
0000
,
0100
0001
0101
0000
1000
0100
1100
0000
,
1000
0000
0001
0000
0100
0001
0100
0000
0010
0000
1000
0000
1010
0000
0000
0000
,
1000
0000
0001
0000
1001
0000
0000
0000
1000
0000
0010
0000
0100
0010
0100
0000
,
0001
0000
0010
0000
0100
0010
0100
0000
1000
0000
0001
0000
0100
0010
0100
0000
,
0001
1000
0001
0100
0210
0000
0301
0102
,
0000
0000
1003
0000
2001
0000
0000
0000
3100
0000
0010
0000
0001
1000
0000
0001
,
0200
0000
0310
0000
1001
0000
1000
0001
,
0011
0000
0001
0100
1000
0100
0001
0010
,
0100
1000
1100
0000
0100
0010
0011
0000
,
0010
0000
1000
0000
0010
0000
0001
0000
1000
0000
0000
0010
0000
0000
0100
0000
,
0001
1000
0000
0001
0010
0000
0000
0000
0100
0000
0010
0000
0001
0010
0001
0000
,
1000
0000
0010
0000
0100
0010
0100
0000
0001
0000
1000
0000
0100
0010
0100
0000
,
1000
0000
0001
0000
1000
0010
1000
0000
0002
0000
0100
0000
1003
0000
2010
0000
,
0000
3001
1002
0000
0013
0100
1000
0001
,
0100
0000
0010
0000
2000
0000
0000
0000
3001
0010
0001
0010
0000
0000
1000
0010
,
1000
0010
0000
0000
0001
0100
0002
0000
1003
0000
0000
0000
0000
0000
0000
0000
;

//---------------dance-single - ----------------
#NOTES:
     dance-single:
     :
     Easy:
     4:
     0.334136,0.402445,0.291668,0.252405,0.014022,417.000000,365.000000,52.000000,45.000000,0.000000,0.000000,0.334136,0.402445,0.291668,0.252405,0.014022,417.000000,365.000000,52.000000,45.000000,0.000000,0.000000:
// measure 0
0000
0000
0000
0000
,  // measure 1
0000
0000
0000
0000
,  // measure 2
0000
0000
0000
0000
,  // measure 3
0000
0000
1100
1000
,  // measure 4
0001
1000
1100
1000
,  // measure 5
0001
0000
0101
0001
,  // measure 6
1000
0001
0201
0000
,  // measure 7
0300
0010
1010
1000
,  // measure 8
0001
1000
1010
1000
,  // measure 9
0001
0000
0011
0010
,  // measure 10
0100
1000
1002
0000
,  // measure 11
0000
0003
1000
0001
,  // measure 12
0100
0001
0100
0001
1000
0000
0001
0000
,  // measure 13
0100
0010
2000
0000
3001
0000
1000
0000
,  // measure 14
0100
1000
0100
1000
0000
0001
0100
0010
,  // measure 15
0100
0001
1000
0000
0001
0000
1000
0000
,  // measure 16
0010
1000
0010
1000
0001
0000
1000
0000
,  // measure 17
0100
0010
0002
0000
1003
0000
0001
0000
,  // measure 18
0010
0001
0010
0001
0000
1000
0010
0100
,  // measure 19
0001
1000
0100
0000
0120
0000
0000
0000
,  // measure 20
0001
0100
0032
0000
,  // measure 21
1000
0100
2003
0000
,  // measure 22
0010
0001
3010
1000
,  // measure 23
0100
0010
0012
0000
,  // measure 24
1000
0100
2003
0000
,  // measure 25
0100
0000
0001
0000
3100
0000
0000
1001
,  // measure 26
0000
0011
0001
1000
,  // measure 27
0010
0100
0101
0001
,  // measure 28
1000
0001
0101
0001
,  // measure 29
1000
0000
0110
1000
,  // measure 30
0001
1000
1200
0000
,  // measure 31
0300
0010
0011
0001
,  // measure 32
1000
0001
0011
0001
,  // measure 33
1000
0000
1010
0010
,  // measure 34
0100
0001
2001
0000
,  // measure 35
0000
3000
0001
1000
,  // measure 36
0100
1000
0100
0010
0001
0000
1000
0000
,  // measure 37
0100
0010
0002
0000
1003
0000
0001
0000
,  // measure 38
0100
0001
0100
0010
0000
1000
0100
0010
,  // measure 39
1000
0010
0001
1000
,  // measure 40
0010
0100
0010
0100
0001
0000
0001
0000
,  // measure 41
0100
0010
2000
0000
3001
0000
1000
0000
,  // measure 42
0001
1000
0100
0010
0000
0001
0010
0100
,  // measure 43
1000
0001
0100
0000
0120
0000
0000
0000
,  // measure 44
1000
0100
2030
0000
,  // measure 45
0001
0100
3002
0000
,  // measure 46
0010
1000
0013
0001
,  // measure 47
0100
0010
2010
0000
,  // measure 48
0001
0100
3002
0000
,  // measure 49
0100
0000
1000
0000
0013
0000
0000
1001
,  // measure 50
0000
1010
1000
0001
,  // measure 51
0010
0100
2100
0001
,  // measure 52
0100
3000
1002
0100
,  // measure 53
1000
0003
2010
0001
,  // measure 54
0010
0000
3000
0000
1001
0000
0000
0011
,  // measure 55
0000
0010
0210
1000
,  // measure 56
0010
0300
0120
0001
,  // measure 57
0100
0000
0030
0000
1100
0000
0000
0101
,  // measure 58
0000
1002
0103
0001
,  // measure 59
1000
0000
0100
0000
0020
0000
0000
0230
,  // measure 60
0000
2300
0000
3000
,  // measure 61
0001
0000
0000
0100
0000
0000
0010
0000
2000
0000
0000
0000
0000
0000
0000
0000
,  // measure 62
0000
0000
3000
0000
0001
0100
0010
0100
,  // measure 63
1000
0100
0010
0100
0002
0000
0000
2003
,  // measure 64
0000
3200
0000
0310
,  // measure 65
0100
1000
0100
0010
0001
1000
0000
0010
,  // measure 66
0000
0100
0000
0001
1000
0010
0100
0000
,  // measure 67
0001
0010
0100
0000
0110
0000
1000
0000
,  // measure 68
1100
1000
0001
0100
,  // measure 69
0101
0001
1000
0010
,  // measure 70
1010
1000
0001
0000
,  // measure 71
0011
0100
1000
0001
,  // measure 72
1001
1000
0010
0100
,  // measure 73
0101
0000
0001
0000
1000
0100
0010
0100
,  // measure 74
1000
0000
0000
0000
1000
0000
0000
0000
0001
0000
0000
0100
0000
0000
0010
0000
,  // measure 75
0000
0100
0000
0000
0002
0000
0000
0000
0003
0000
0000
0000
0000
0000
0000
0000
,  // measure 76
0000
0000
0000
0000
,  // measure 77
0000
0000
0000
0000
,  // measure 78
0000
0000
0000
0000
,  // measure 79
0000
0000
1000
0100
,  // measure 80
0010
0001
1000
0100
,  // measure 81
0010
0000
0001
1000
0010
0000
0000
0110
,  // measure 82
0000
2002
0000
0000
,  // measure 83
0000
3003
2010
0000
,  // measure 84
0001
0010
3002
0000
,  // measure 85
1000
0010
2003
0000
,  // measure 86
0100
0001
3100
1000
,  // measure 87
0010
0100
0102
0000
,  // measure 88
1000
0010
2003
0000
,  // measure 89
0010
0000
0001
0000
3010
0000
0000
1001
,  // measure 90
0000
0000
0101
0001
0000
1000
0100
0000
,  // measure 91
0010
0002
0010
1000
,  // measure 92
0100
2003
0001
0100
,  // measure 93
0001
3020
1000
0100
,  // measure 94
0001
0000
0130
0000
0010
0000
1000
0010
,  // measure 95
1000
0000
1001
0000
0001
0010
0001
0000
,  // measure 96
0010
0100
0010
0000
0100
1000
0100
0000
,  // measure 97
1000
0001
1000
0001
0100
0000
0000
0110
,  // measure 98
0000
2002
0000
0000
,  // measure 99
0000
0000
0000
0000
3003
0000
0000
0000
0001
0000
0000
0101
0000
0000
1000
0000
,  // measure 100
0000
1100
0000
0000
0001
0000
0100
0000
0020
0000
0000
0000
0000
0000
0000
0000
,  // measure 101
0000
0000
0000
0000
,  // measure 102
0000
0000
0030
0000
;
