#TITLE:I'm Poppy;
#SUBTITLE:;
#ARTIST:That Poppy;
#TITLETRANSLIT:;
#SUBTITLETRANSLIT:;
#ARTISTTRANSLIT:;
#GENRE:;
#CREDIT:;
#BANNER:;
#BACKGROUND:I'm Poppy-bg.png;
#LYRICSPATH:;
#CDTITLE:;
#MUSIC:01_-_Im_Poppy.ogg;
#OFFSET:0.354181;
#SAMPLESTART:41.055355;
#SAMPLELENGTH:12.000000;
#SELECTABLE:YES;
#BPMS:0.000000=94.000000
;
#STOPS:
;
#BGCHANGES:;
#KEYSOUNDS:;
#ATTACKS:;

//---------------dance-single - ----------------
#NOTES:
     dance-single:
     :
     Hard:
     8:
     0.416330,0.519250,0.362439,0.103554,0.151633,394.000000,345.000000,49.000000,14.000000,0.000000,0.000000,0.416330,0.519250,0.362439,0.103554,0.151633,394.000000,345.000000,49.000000,14.000000,0.000000,0.000000:
// measure 0
0000
0000
0000
0000
,  // measure 1
0000
0000
0000
0000
,  // measure 2
0000
0000
1000
1000
0010
0010
0100
0100
,  // measure 3
0001
0001
0010
0010
0100
0100
1000
0001
,  // measure 4
1001
0000
0000
0000
1000
0000
0100
0000
1000
0000
0010
0000
0100
0000
0001
0010
,  // measure 5
0000
0010
0001
0000
0100
0000
0001
0000
0100
0000
0010
0000
0100
0000
0001
1000
,  // measure 6
0000
1000
0001
0000
0100
0000
0010
0000
1000
0000
0100
0000
0010
0000
0100
1000
,  // measure 7
0000
1000
0100
0000
0010
0000
0001
0000
1000
0000
0010
0000
0100
0000
0001
0000
,  // measure 8
1001
0000
0000
0000
0001
0000
0100
0000
1000
0000
0100
0000
0010
0000
1000
0001
,  // measure 9
0000
0001
1000
0000
1000
0000
0010
0000
0001
0000
0010
0000
0100
0000
0001
0010
,  // measure 10
0000
0010
0001
0000
0001
0000
0010
0000
1000
0000
0010
0000
0100
0000
1000
0010
,  // measure 11
0000
0010
1000
0000
1000
0000
0010
0000
0100
0000
0001
0000
1000
0000
0010
0000
,  // measure 12
1001
0020
0000
0000
,  // measure 13
0000
0000
0000
0000
,  // measure 14
0000
0000
0000
0000
0100
0000
0000
0100
0000
0000
0100
0000
0100
0000
0000
0100
,  // measure 15
0000
0000
0100
0000
0100
0000
0000
0100
0000
0000
0100
0000
0030
0000
0000
0000
,  // measure 16
1001
0000
0001
1000
0010
0100
0001
0010
,  // measure 17
0011
0011
0001
0100
0010
0100
0001
1000
,  // measure 18
1100
1100
0100
1000
0010
0100
0010
0100
,  // measure 19
0101
0101
0001
0010
0001
0100
0010
0110
,  // measure 20
1001
0000
0000
0000
1000
0000
0100
0000
0010
0001
0000
0100
0000
0000
0101
0000
,  // measure 21
1001
0000
0000
0000
0010
0000
1000
0000
0001
0010
0000
0001
0000
0000
0100
0000
,  // measure 22
1000
0000
0100
0000
0001
0000
0010
0000
0010
0100
0000
1000
0000
0000
1010
0000
,  // measure 23
1001
0000
1000
0100
0001
0010
1000
1001
,  // measure 24
0110
0000
0010
1000
0200
0000
0301
0100
,  // measure 25
1100
0000
1000
0001
0020
0000
1030
0010
,  // measure 26
0011
0000
0001
0100
0020
0000
0031
0010
,  // measure 27
0110
0000
0100
0001
2000
0000
3001
0001
,  // measure 28
1001
0000
0001
0100
2000
0100
3100
0001
,  // measure 29
1000
1000
0010
0001
0020
0100
0130
0001
,  // measure 30
1001
0000
1000
0010
0002
0010
0013
1000
,  // measure 31
1100
0010
0001
0100
2000
0000
3100
0001
,  // measure 32
0101
2000
0000
0000
,  // measure 33
0000
0000
0000
0000
,  // measure 34
0000
0000
0000
0000
0001
0000
0000
0001
0000
0000
0001
0000
0010
0000
0000
0010
,  // measure 35
0000
0000
0010
0000
0100
0000
0000
0100
0000
0000
0100
0000
3000
0000
0000
0000
,  // measure 36
0110
0000
1010
0010
1000
0100
0110
1000
,  // measure 37
1001
1001
0101
0001
0010
0100
1100
1000
,  // measure 38
1010
1010
1100
0100
0001
0100
1001
1000
,  // measure 39
0011
0101
0110
0001
0100
1000
0101
0011
,  // measure 40
1001
0000
0000
0000
1000
0000
0010
0000
0001
0010
0000
0100
0000
0100
0001
0000
,  // measure 41
0010
0001
1000
0000
0001
0000
0100
0000
1000
0100
0000
0100
0000
0001
0010
0000
,  // measure 42
0100
0000
0100
0000
1000
0000
0100
0000
0001
0100
0000
0010
0000
0010
0001
0000
,  // measure 43
1000
0100
0010
0000
0001
0000
1000
0000
0001
0000
0001
0000
0001
0000
1001
0000
,  // measure 44
0110
0000
0001
0100
0010
0100
0001
1000
,  // measure 45
0100
0000
0010
0000
0100
0000
1000
0000
0010
0100
0000
0010
0000
0010
1000
0000
,  // measure 46
1001
0000
1000
0100
0010
0100
1000
0010
,  // measure 47
0100
0000
0001
0000
0100
0000
0010
0000
1000
0001
0000
0100
0000
0100
0010
0000
,  // measure 48
1000
0000
1000
0100
0002
1000
1003
0010
,  // measure 49
1001
0001
0100
1000
0200
0010
0310
1000
,  // measure 50
1001
0000
0001
0100
2000
0001
3001
0010
,  // measure 51
1001
0000
0100
0010
0002
0000
1003
0001
,  // measure 52
1001
0000
0000
0000
;

//---------------dance-single - ----------------
#NOTES:
     dance-single:
     :
     Medium:
     6:
     0.293756,0.346167,0.110951,0.258885,0.066571,278.000000,263.000000,15.000000,35.000000,0.000000,0.000000,0.293756,0.346167,0.110951,0.258885,0.066571,278.000000,263.000000,15.000000,35.000000,0.000000,0.000000:
0000
0000
0000
0000
,
0000
0000
0000
0000
,
0000
0000
1000
1000
0100
0000
0001
0001
,
0100
0000
1000
1000
0100
0000
0010
0100
,
1001
0000
0001
0000
1000
0000
0100
0010
,
0001
0100
0010
0000
1000
0000
0010
0100
,
0001
1000
0100
0000
0100
0000
1000
0010
,
0100
0001
0010
0000
0001
0000
1000
0001
,
1001
0000
0001
0010
0001
1000
0001
0100
,
0000
0000
0010
1000
0010
0100
0010
1000
,
0000
0000
1000
0010
1000
0010
0100
0010
,
0000
0000
0010
1000
0001
1000
0010
0100
,
0110
0020
0000
0000
,
0000
0000
0000
0000
,
0000
0000
0000
0000
,
0000
0000
0000
0030
,
1001
0000
1000
0100
0001
0100
1000
0100
,
0010
0010
0001
0100
1000
0100
0001
0100
,
0010
0010
0001
0100
0010
1000
0001
0100
,
0010
0010
1000
0100
0010
0001
1000
0100
,
1001
0000
0000
0002
0000
0000
0103
0000
0001
0100
0000
0100
,
0020
0000
0000
2030
0000
0000
3100
0000
0010
0200
0000
0000
,
1300
0000
0000
0002
0000
0000
0013
0000
0010
0100
0000
0100
,
2000
0000
0000
3020
0000
0000
0130
0000
0001
0200
0000
0000
,
0300
0000
0010
0010
0020
0000
1030
0100
,
0010
0000
0001
0001
0002
0000
0103
0100
,
0010
0000
0100
0100
0200
0000
0310
1000
,
0001
0000
1000
1000
2000
0000
3100
0010
,
0001
0000
1001
0000
0101
0000
0001
0100
,
0010
0010
1000
0100
0010
0000
0011
0000
,
1001
0000
1000
0100
1000
0001
0001
0100
,
0010
0000
0010
0100
0010
0000
1000
0001
,
1000
2200
0000
0000
,
0000
0000
0000
0000
,
0000
0000
0000
0000
,
0000
0000
0000
3300
,
0110
0000
0001
0010
0001
0100
0001
0010
,
0001
0100
0010
1000
0010
0001
0010
0100
,
0010
1000
0001
0100
1000
0100
0001
0010
,
1000
0010
0001
1000
0001
0100
0010
1000
,
1010
0000
0000
0020
0000
0000
1030
0000
0001
0100
0000
0001
,
0020
0000
0000
0230
0000
0000
0310
0000
0001
2000
0000
0000
,
3100
0000
0000
0010
0000
0000
0002
0000
0103
0010
0000
0010
,
2000
0000
0000
3002
0000
0000
0013
0000
0001
0200
0000
0000
,
0310
0000
0000
2000
0000
0000
3100
0000
0001
0100
0000
0100
,
0020
0000
0000
0032
0000
0000
0103
0000
0010
2000
0000
0000
,
3000
0000
0000
0002
0000
0000
1003
0000
0010
0001
0000
0010
,
0200
0000
0000
0320
0000
0000
1030
0000
0100
2000
0000
0000
,
3001
0000
0100
0100
0200
0000
0310
0010
,
1000
0010
1000
1000
2000
0000
3100
0010
,
0011
0000
0001
0001
0002
0000
0103
0010
,
1010
0000
1000
1000
2000
0000
3100
0010
,
0011
0000
0000
0000
;

//---------------dance-single - ----------------
#NOTES:
     dance-single:
     :
     Easy:
     4:
     0.183861,0.250009,0.022190,0.281075,0.000000,174.000000,171.000000,3.000000,38.000000,0.000000,0.000000,0.183861,0.250009,0.022190,0.281075,0.000000,174.000000,171.000000,3.000000,38.000000,0.000000,0.000000:
0000
0000
0000
0000
,
0000
0000
0000
0000
,
0000
1000
0010
0001
,
1000
0000
0100
0000
0001
0000
1000
0001
,
1000
0000
0010
0000
0010
0000
1000
0100
,
1000
0000
0001
0000
0001
0000
0010
0100
,
0010
0000
1000
0000
1000
0000
0001
1000
,
0001
0010
0100
1000
,
0001
0000
1000
0000
0100
0000
0001
0100
,
1000
0000
0001
0000
0010
0000
1000
0010
,
0001
0000
1000
0000
0001
0000
0100
0010
,
1000
0000
0001
0000
0100
0000
0010
0010
,
0010
0200
0000
0000
,
0000
0000
0000
0000
,
0000
0000
0000
0000
,
0000
0000
0000
0300
,
0000
0001
1000
0010
,
0100
0100
0001
0000
0100
0000
0010
0000
,
1000
1000
0001
0000
1000
0000
0100
0000
,
0010
0010
0001
0000
0100
0000
0010
1000
,
0001
2000
3002
0203
,
0320
2030
3200
0320
,
0030
0002
0203
0320
,
2030
3200
0320
0032
,
0003
0100
0100
0000
,
0000
0010
0010
0000
,
0000
1000
1000
0000
,
0000
0100
0100
0000
,
0000
0020
0031
0001
,
0100
0020
1030
1000
,
1001
2000
3100
0010
,
0100
2000
3001
0100
,
0010
0200
0000
0000
,
0000
0000
0000
0000
,
0000
0000
0000
0000
,
0000
0000
0000
0300
,
0000
0000
1000
0000
0100
0000
0010
0100
,
0010
0100
0010
0000
0001
0000
1000
0001
,
1000
0001
1000
0000
0010
0000
0100
0001
,
0100
0001
0100
0000
0010
0000
1000
0001
,
1000
0020
0230
0302
,
2003
3200
0320
0032
,
1003
2000
3200
0320
,
0230
2300
3002
0203
,
0310
0100
0100
0100
,
0100
0000
0000
0000
,
0000
0010
0010
0010
,
0010
0000
0000
0000
,
0000
2000
3100
0010
,
0001
0002
0013
0001
,
1001
0002
0103
0010
,
1000
2000
3100
0010
,
1001
0000
0000
0000
;
