#VERSION:0.83;
#TITLE:Hollow Mind;
#SUBTITLE:;
#ARTIST:Eminence feat. Q'AILA;
#TITLETRANSLIT:;
#SUBTITLETRANSLIT:;
#ARTISTTRANSLIT:;
#GENRE:;
#ORIGIN:;
#CREDIT:;
#BANNER:hollowmind_bn.png;
#BACKGROUND:hollowmind_bg.png;
#PREVIEWVID:;
#JACKET:hollowmind_jacket.png;
#CDIMAGE:;
#DISCIMAGE:;
#LYRICSPATH:;
#CDTITLE:cdtitle.png;
#MUSIC:hollowmind.ogg;
#OFFSET:-0.469000;
#SAMPLESTART:53.777756;
#SAMPLELENGTH:30.468746;
#SELECTABLE:YES;
#BPMS:0.000=64.000;
#STOPS:;
#DELAYS:;
#WARPS:;
#TIMESIGNATURES:0.000=4=4;
#TICKCOUNTS:0.000=4;
#COMBOS:0.000=1;
#SPEEDS:0.000=1.000=0.000=0;
#SCROLLS:0.000=1.000;
#FAKES:;
#LABELS:0.000=Song Start;
#BGCHANGES:;
#KEYSOUNDS:;
#ATTACKS:
;

//---------------dance-single - ----------------
#NOTEDATA:;
#CHARTNAME:;
#STEPSTYPE:dance-single;
#DESCRIPTION:;
#CHARTSTYLE:;
#DIFFICULTY:Hard;
#METER:7;
#RADARVALUES:0.240958,0.342374,0.023508,0.352622,0.220389,287.000000,283.000000,4.000000,60.000000,0.000000,0.000000,0.000000,0.000000,0.000000,0.240958,0.342374,0.023508,0.352622,0.220389,287.000000,283.000000,4.000000,60.000000,0.000000,0.000000,0.000000,0.000000,0.000000;
#CREDIT:;
#NOTES:
// measure 0
0000
0000
0000
0000
0001
0000
0000
0000
0000
0000
0001
0010
0100
0000
0000
1000
,  // measure 1
0100
0000
1000
0000
0020
0000
0000
0230
0000
0000
0000
0000
0300
0000
0000
0000
,  // measure 2
0001
0000
1000
0000
0020
0000
0000
0000
0000
0000
0130
0010
1000
0000
0000
0001
,  // measure 3
1000
0000
0100
0000
1000
0000
1000
0002
0000
0000
0203
0000
0300
0000
0010
0000
,  // measure 4
0000
0100
0000
0000
0001
0000
0000
0000
0000
0000
1000
0100
0010
0000
0001
0000
,  // measure 5
0100
0000
1000
0000
0200
0000
0000
0310
1000
0000
0001
0000
0000
0000
0000
0000
,  // measure 6
0001
1000
0100
0000
0010
0100
2000
0000
,  // measure 7
3001
0010
1000
0010
0002
0000
0000
0000
0000
0000
0003
0000
0000
0000
1000
0000
,  // measure 8
0000
0010
0000
0000
0100
0000
0000
0010
0100
0000
0001
0000
0000
0000
1000
0010
,  // measure 9
0000
0100
0200
0000
0300
0010
0020
0000
,  // measure 10
0030
0000
0000
1000
0100
0000
0000
0010
0000
0000
0100
0000
1000
0000
0000
0010
,  // measure 11
0000
0000
1000
0000
0001
0000
0000
0010
0000
0000
0001
0000
0100
0000
0000
1000
,  // measure 12
0000
0100
0020
0000
0000
0030
0000
0000
,  // measure 13
0010
0000
0200
0000
0020
0000
0000
0000
0000
0300
0000
0000
0130
0000
0001
0000
,  // measure 14
1000
2002
0003
3010
,  // measure 15
0100
0000
0001
0000
1000
0200
0000
0000
0001
0000
0000
0000
0301
0000
0100
0000
,  // measure 16
1000
0000
0010
0000
0100
2000
0000
0000
3200
0000
0000
0000
0310
0000
0000
0000
,  // measure 17
0010
0000
1000
0000
0001
0000
0010
0000
0200
0000
0000
0000
0320
0000
0000
0031
,  // measure 18
0010
0100
2002
0000
3000
0000
0013
0000
,  // measure 19
0100
0000
1000
0000
0001
0200
0000
0000
1000
0000
0000
0000
1300
0000
0100
0000
,  // measure 20
0001
0000
0010
0000
0100
0002
0000
0000
0203
0000
0000
0000
0310
0000
0000
0000
,  // measure 21
0010
0000
0001
0000
1000
0000
0010
0000
0200
0000
0000
0000
0320
0000
0000
1030
,  // measure 22
0010
0000
1010
0000
0001
0100
0010
0000
1000
0010
0100
0100
0010
1000
0001
0000
,  // measure 23
0010
0000
0100
0020
0000
0000
0000
0030
0100
1000
0001
0001
1000
0010
0010
0000
,  // measure 24
0100
0001
1000
1000
0100
0010
0001
1000
0010
0200
0000
0000
0302
0000
0000
0000
,  // measure 25
1003
0000
0200
0000
0000
0000
0300
0000
1000
0100
0100
0100
1000
0010
0100
0100
,  // measure 26
1000
0001
0010
0000
0100
1000
0010
0000
1000
0100
0001
0100
0020
0000
0000
0000
,  // measure 27
0000
0000
0030
0002
0000
0000
0000
0000
1003
0010
0010
0100
0001
1000
0100
0000
,  // measure 28
0100
1000
1000
0000
0002
0000
0000
0000
0203
0000
0000
1300
0200
0000
0000
0000
,  // measure 29
0301
1000
0000
0000
0002
0000
0000
0000
0023
0000
0000
0031
0010
1000
0000
0000
,  // measure 30
0200
0000
0000
0300
0010
0000
0000
0010
1000
0000
0001
0000
0000
0000
0001
0100
,  // measure 31
0000
0010
0020
0000
0030
0100
0200
0000
,  // measure 32
0300
0000
0000
0001
0010
0000
0000
0100
0000
0000
0010
0000
0001
0000
0000
0100
,  // measure 33
0000
0000
0001
0000
1000
0000
0000
0100
0000
0000
1000
0000
0010
0000
0000
0001
,  // measure 34
0000
0010
0200
0000
0000
0300
0000
0000
,  // measure 35
0100
0000
0020
0000
0200
0000
0000
0000
0000
0030
0000
0000
0310
0000
1000
0000
,  // measure 36
0001
2002
3000
0103
,  // measure 37
0010
0000
1000
0000
0001
0020
0000
0000
1000
0000
0000
0000
1030
0000
0010
0000
,  // measure 38
0001
0000
0100
0000
0010
0002
0000
0000
0023
0000
0000
0000
0130
0000
0000
0000
,  // measure 39
0100
0000
0001
0000
1000
0000
0100
0000
0020
0000
0000
0000
0230
0000
0000
1300
,  // measure 40
0100
2000
0000
3000
,  // measure 41
1000
0100
0001
0100
1000
0100
0000
0000
2000
0000
0000
0000
3000
0000
0000
0000
,  // measure 42
0001
0100
1000
0100
0001
0100
0000
0000
0020
0000
0000
0000
0030
0000
0000
0000
,  // measure 43
0010
1000
0001
0100
0020
0000
0230
0000
0302
0000
0000
0000
0023
0000
0000
0000
,  // measure 44
0230
0000
2300
0000
3001
0001
0000
0000
0000
0000
0000
0000
1000
1000
0000
0000
;
