#VERSION:0.83;
#TITLE:Hold On;
#SUBTITLE:;
#ARTIST:NERVO;
#TITLETRANSLIT:;
#SUBTITLETRANSLIT:;
#ARTISTTRANSLIT:;
#GENRE:Commercial House;
#ORIGIN:;
#CREDIT:;
#BANNER:hold on-bn.png;
#BACKGROUND:hold on-bg.png;
#PREVIEWVID:;
#JACKET:hold on-jacket.png;
#CDIMAGE:;
#DISCIMAGE:;
#LYRICSPATH:;
#CDTITLE:cdtitle.png;
#MUSIC:hold on.ogg;
#OFFSET:0.000000;
#SAMPLESTART:46.875000;
#SAMPLELENGTH:15.000000;
#SELECTABLE:YES;
#BPMS:0.000=64.000,
42.000=128.000,
54.000=64.000,
56.000=128.000,
88.000=64.000,
92.000=128.000,
124.000=64.000,
164.000=128.000,
176.000=64.000,
178.000=128.000,
242.000=64.000;
#STOPS:;
#DELAYS:;
#WARPS:;
#TIMESIGNATURES:0.000=4=4;
#TICKCOUNTS:0.000=4;
#COMBOS:0.000=1;
#SPEEDS:0.000=1.000=0.000=0;
#SCROLLS:0.000=1.000;
#FAKES:;
#LABELS:0.000=Song Start;
#BGCHANGES:2.000=hold on.mp4=1.000=1=0=1===CrossFade==,
99999=-nosongbg-=1.000=0=0=0 // don't automatically add -songbackground-
;
#KEYSOUNDS:;
#ATTACKS:
;

//---------------dance-single - ----------------
#NOTEDATA:;
#CHARTNAME:;
#STEPSTYPE:dance-single;
#DESCRIPTION:;
#CHARTSTYLE:;
#DIFFICULTY:Hard;
#METER:9;
#RADARVALUES:0.423067,0.603782,0.141833,0.351745,0.363092,522.000000,497.000000,25.000000,62.000000,0.000000,0.000000,0.000000,0.000000,0.000000,0.423067,0.603782,0.141833,0.351745,0.363092,522.000000,497.000000,25.000000,62.000000,0.000000,0.000000,0.000000,0.000000,0.000000;
#CREDIT:;
#NOTES:
// measure 0
0000
0000
0000
0000
,  // measure 1
0000
0000
0000
0000
,  // measure 2
0000
0000
1002
0023
,  // measure 3
0230
0000
0000
0000
2300
0000
0000
3000
1200
0000
0000
0000
0000
0000
1000
0000
,  // measure 4
0310
0100
0110
0001
,  // measure 5
0001
0000
1000
0000
0010
0000
0100
0001
0100
0000
0000
0000
0100
0000
0000
0000
,  // measure 6
0001
0010
0100
1000
0100
0000
0000
1000
0020
0000
0000
0000
0000
0000
0000
0030
,  // measure 7
0010
0100
0001
1000
0100
0000
0000
0100
2000
0000
0000
0000
0000
0000
0000
0000
,  // measure 8
3020
0000
0000
0000
2000
0000
0000
3030
1010
1000
0001
1000
0000
2000
0000
0000
,  // measure 9
3100
0000
1000
0000
0100
0000
0010
0000
0000
0000
0002
0000
0000
0000
0000
0000
0013
0000
0000
0001
0000
0100
0001
0000
1000
0000
0010
0000
1000
0000
0100
0000
,  // measure 10
1000
0000
0000
1000
0000
0001
0100
0000
0001
0000
0010
0000
0100
0000
0010
0000
0001
0000
0000
0000
1000
0000
0000
0000
0010
0000
0000
0000
1000
0000
0000
0000
,  // measure 11
0000
0020
0000
0000
0130
0001
1000
0001
,  // measure 12
0000
2000
0000
0000
3100
1000
0100
0010
,  // measure 13
0000
0000
0002
0000
0000
0000
0000
0000
1003
0000
0000
0000
0001
0000
0000
0010
,  // measure 14
0011
0001
0100
0001
1000
2000
0010
0000
,  // measure 15
3100
1000
0010
1000
0001
0002
1000
0000
,  // measure 16
0103
0010
0100
0001
0100
0200
0010
0000
,  // measure 17
0310
0000
1000
0001
1000
0000
0020
0000
0100
0000
0000
1000
0030
0000
0010
0000
,  // measure 18
1010
0000
0000
1000
0001
0000
1000
0000
0000
0000
0010
0000
0100
0000
0010
0000
,  // measure 19
0110
0000
0000
0010
1000
0000
0001
0000
0010
0000
1000
0000
0010
0000
0001
0000
,  // measure 20
0011
0000
0000
0001
1000
0000
0100
0000
1000
0000
0010
0000
0100
0000
0001
0000
,  // measure 21
0101
0000
0000
0100
0010
0000
0010
0000
2000
0000
0001
0000
0000
0000
3001
0000
,  // measure 22
1001
0000
0000
0001
1000
0000
0010
0000
0000
0000
0010
0000
0000
0000
0010
0000
0100
0000
0000
0100
0010
0000
1000
0000
0000
0000
1000
0000
0000
0000
1000
0000
,  // measure 23
1010
0000
0000
1000
0001
0000
0001
0000
0010
0000
1000
0000
0010
0000
0001
0000
,  // measure 24
0100
0000
0000
0001
1000
0000
2000
0000
0010
0000
3020
0000
0100
0000
0230
0000
,  // measure 25
0001
0000
0300
0001
1000
0000
0001
0000
0100
0000
0010
0000
1000
0001
1000
0000
,  // measure 26
0010
2000
0100
3200
0010
0320
0001
0032
,  // measure 27
0100
0000
0003
0100
0010
0000
1000
0000
0001
0000
0100
0000
0000
0100
0010
0000
,  // measure 28
1000
0001
0100
0002
0010
0023
0100
0230
,  // measure 29
1000
0000
0000
0010
0000
0000
1300
0000
0100
0000
0010
0000
0100
1000
0000
0000
,  // measure 30
1000
0000
0000
1000
0001
0000
0010
0000
0001
0000
0100
0000
0010
0100
0000
0000
,  // measure 31
0110
0000
0000
0100
0000
0000
0010
0000
0000
0000
1000
0000
0000
1000
0000
0000
0001
0000
0000
0100
0001
0000
0100
0000
0000
0000
0100
0000
0000
0010
0000
0000
,  // measure 32
0101
0000
0000
0010
0000
0000
0100
0000
0000
0000
0001
0000
0000
0001
0000
0000
0010
0000
0000
0001
1000
0000
0100
0000
0000
0000
0100
0000
0000
1000
0000
0000
,  // measure 33
1100
0000
0000
0100
0000
0000
1000
0000
0000
0000
0010
0000
0000
0010
0000
0000
0100
0000
0000
0100
0001
0000
1000
0000
0000
0000
0010
0000
0000
0010
0000
0000
,  // measure 34
1010
0000
0000
0100
0000
0000
1000
0000
0000
0000
0001
0000
0000
0001
0000
0000
0100
0000
0000
0010
0100
0000
0001
0000
0000
0000
0010
0000
0000
0010
0000
0000
,  // measure 35
0011
0000
0000
0000
0001
0000
0000
0000
0010
0000
0000
0000
1000
0000
0000
0000
0010
0000
0001
0000
0010
0000
0100
0000
0010
0000
0000
0100
0000
0000
0100
0000
,  // measure 36
1000
0000
0000
0000
0001
0000
0000
0000
1000
0000
0000
0000
0010
0000
0000
0000
1000
0000
0100
0000
0010
0000
0001
0000
0010
0000
0000
0001
0000
0000
0001
0000
,  // measure 37
0100
0000
0000
0000
0001
0000
0000
0000
0010
0000
0000
0000
0100
0000
0000
0000
1000
0000
0001
0000
0010
0000
0001
0000
0100
0000
0000
0010
0000
0000
0010
0000
,  // measure 38
0100
0000
0000
0000
0001
0000
0000
0000
1000
0000
0000
0000
0010
0000
0000
0000
1000
0000
0100
0000
0010
0000
0001
0000
0100
0000
0000
0001
0000
0000
0001
0000
,  // measure 39
0101
0100
0010
1000
0010
2000
0001
0000
3001
0001
1000
0001
0100
0200
0010
0000
,  // measure 40
0310
0000
0000
0100
0000
0100
0001
0000
1000
0000
0010
0000
0100
0000
0001
0000
1000
0000
0100
0000
0010
0000
0001
0000
0010
0000
0001
0000
0100
0000
0001
0000
,  // measure 41
0101
0001
1000
0010
0100
0200
0001
0000
,  // measure 42
0301
0100
0010
1000
0010
0020
1000
0000
,  // measure 43
1030
0010
1000
0001
1000
0010
1000
0001
0100
0010
0100
0001
0100
0010
0100
0001
,  // measure 44
0101
0000
0000
0000
0010
0000
0000
0010
0011
0000
0001
0000
1000
0000
0010
0000
,  // measure 45
1000
2000
0100
0000
3100
1000
0010
1000
,  // measure 46
0001
0002
0010
0000
0013
0001
0010
0100
,  // measure 47
0010
0000
0020
0000
0001
0000
0000
0000
0130
0000
0100
0010
0100
0000
1000
0000
,  // measure 48
2000
0100
0000
3100
1100
1000
0001
0010
,  // measure 49
0100
0020
0001
0000
0031
0010
0100
1000
,  // measure 50
0001
2000
0001
0010
3002
0000
0100
0203
,  // measure 51
0010
0320
0001
0000
0130
0010
1000
0100
,  // measure 52
0020
0000
0001
0000
0000
0000
0130
0000
0110
0000
0000
0100
1000
0000
0010
0000
,  // measure 53
1000
0000
0002
0000
0100
0000
0103
0000
0001
0000
0000
0010
0001
0000
1000
0000
,  // measure 54
0010
0000
0020
0000
0100
0000
0130
0000
0010
0000
0000
0010
1000
0000
0001
0000
,  // measure 55
0100
0000
0200
0000
0010
0000
0310
0000
0100
0000
0000
0001
0100
0000
0010
0000
,  // measure 56
1000
0000
0001
0000
0010
0000
0001
0000
0011
0000
0000
0001
0010
0000
1000
0000
,  // measure 57
0010
0000
0002
0000
0100
0000
0103
0000
0001
0000
0000
1000
0010
0000
0001
0000
,  // measure 58
0010
0000
2000
0000
0100
0000
3100
0000
1000
0000
0000
1000
0010
0000
0100
0000
,  // measure 59
0001
0020
0100
0130
0010
0001
0010
0100
,  // measure 60
2000
0000
0000
3100
1200
0000
2300
0000
,  // measure 61
3002
0000
0000
0000
0203
0000
0000
0300
0020
0000
0000
0000
0000
0000
0000
0000
,  // measure 62
0130
0010
0012
2003
,  // measure 63
3020
0000
0000
0000
2030
0000
0000
3000
0200
0000
0000
0000
0000
0000
1000
0000
,  // measure 64
2300
0020
3030
0000
;
