#VERSION:0.83;
#TITLE:Foolish;
#SUBTITLE:;
#ARTIST:Rebecca Black;
#TITLETRANSLIT:;
#SUBTITLETRANSLIT:;
#ARTISTTRANSLIT:;
#GENRE:;
#ORIGIN:;
#CREDIT:;
#BANNER:[ZIvision Song Contest] - Foolish.png;
#BACKGROUND:[ZIvision Song Contest] - Foolish-bg.png;
#PREVIEWVID:;
#JACKET:[ZIvision Song Contest] - Foolish-jacket.png;
#CDIMAGE:;
#DISCIMAGE:;
#LYRICSPATH:;
#CDTITLE:;
#MUSIC:[ZIvision Song Contest] - Foolish.ogg;
#OFFSET:0.000000;
#SAMPLESTART:50.049999;
#SAMPLELENGTH:14.634008;
#SELECTABLE:YES;
#DISPLAYBPM:98.000000;
#BPMS:0.000=98.000;
#STOPS:;
#DELAYS:;
#WARPS:;
#TIMESIGNATURES:0.000=4=4;
#TICKCOUNTS:0.000=4;
#COMBOS:0.000=1;
#SPEEDS:0.000=1.000=0.000=0;
#SCROLLS:0.000=1.000;
#FAKES:;
#LABELS:0.000=Song Start;
#BGCHANGES:0.000=[ZIvision Song Contest] - Foolish.avi=1.000=0=0=0=StretchNoLoop====,
99999=-nosongbg-=1.000=0=0=0 // don't automatically add -songbackground-
;
#KEYSOUNDS:;
#ATTACKS:
;

//---------------dance-single - ----------------
#NOTEDATA:;
#CHARTNAME:;
#STEPSTYPE:dance-single;
#DESCRIPTION:;
#CHARTSTYLE:;
#DIFFICULTY:Hard;
#METER:6;
#RADARVALUES:0.289851,0.375581,0.130201,0.162751,0.070525,374.000000,350.000000,24.000000,30.000000,0.000000,0.000000,0.000000,0.000000,0.000000,0.289851,0.375581,0.130201,0.162751,0.070525,374.000000,350.000000,24.000000,30.000000,0.000000,0.000000,0.000000,0.000000,0.000000;
#CREDIT:;
#DISPLAYBPM:98.000000;
#NOTES:
0000
0000
0000
0000
,
0000
0000
0000
0000
,
0000
0000
0000
0000
,
0000
0000
0000
0000
,
0000
0000
0000
0000
0000
0000
0000
0000
0000
0000
0010
0000
0010
0010
0000
0010
,
0000
0010
1000
0000
0010
1000
0100
0000
,
0000
1000
0100
0000
1000
0100
0010
0000
,
0000
0010
0001
0000
0010
0001
0100
0000
,
0000
0000
0010
0000
0100
0000
0000
0000
0010
0000
0100
0000
0100
0100
0000
0100
,
0020
0000
1030
0000
0100
0100
0100
0000
,
0020
0000
0031
0000
0001
0001
0001
0000
,
2000
0000
3010
0000
1000
1000
1000
0000
,
0002
0013
0002
0103
,
0100
0010
1000
0000
1000
0100
1000
0000
,
1000
0001
0010
0000
0010
1000
0010
0000
,
0001
0100
0010
0000
0100
0100
0100
0000
,
0010
0000
0000
0000
1000
0000
0000
0000
0010
0000
1000
0000
1000
1000
0000
1000
,
0001
0001
0011
0000
0100
0100
0110
0000
,
0010
0010
0010
0010
0100
0010
0000
0010
,
0010
0001
0100
0100
1000
1000
0100
0000
,
0001
0001
0001
0000
0100
0100
0100
0100
,
0110
0000
0101
0000
0010
0010
0010
0010
,
0011
0000
1100
0000
1000
1000
1000
1000
,
1010
0000
0100
0000
0100
0001
0010
0000
,
0010
0000
0000
0010
0001
0000
0000
0001
0100
0000
0000
0000
0100
0010
0100
0000
,
0010
0010
0010
0010
1010
0000
1100
0000
,
0100
0100
0100
0100
1100
0000
0011
0000
,
0100
0100
0100
0100
0110
0000
0101
0000
,
0100
0000
0000
0100
0001
0000
0000
0001
0010
0000
0000
0000
0010
0000
0100
0000
,
0200
0000
2000
0300
,
0020
3000
0200
0030
,
0002
0300
0020
0003
,
2000
0030
0020
3030
,
0001
0100
0100
0000
0010
1000
0100
0000
,
1000
0010
0100
0000
0001
0001
0001
0000
,
0010
0010
0010
0000
0001
0001
0100
0000
,
0100
0000
0000
0100
0010
0000
0000
0000
0010
0000
0000
0010
0100
0000
0000
0000
,
0010
1000
0100
0001
0010
1000
0100
0000
,
0100
1000
0010
0001
0010
1000
0000
1000
,
1000
0100
1000
1000
0010
0010
0200
0000
,
0010
0310
0210
0000
0010
0010
0310
0010
,
0110
0000
1100
0000
1000
0010
1000
1000
,
1100
0000
1010
0000
0010
0100
0001
0001
,
0011
0000
0110
0000
0010
0001
1000
0000
,
1000
0000
0000
0100
1000
0000
0000
1000
0010
0000
0000
0000
0001
0000
0001
0000
,
0010
0010
0010
0010
0020
0000
0031
0000
,
0010
0100
0010
0010
0020
0000
1030
0000
,
1000
0100
1000
0100
2000
0000
3100
0000
,
0010
0000
0000
0001
0100
0000
0000
0100
0010
0000
0000
0000
1000
0000
1000
0000
,
0000
0000
0000
0000
,
0000
0000
0000
0000
,
0000
0000
0000
0000
,
0000
0000
0000
0000
,
0020
0000
1030
0000
,
2000
0000
3001
0000
,
0200
0000
0000
0300
,
0020
0000
0000
0030
,
1000
0100
0010
0001
0200
0000
0310
0000
,
0100
0001
0010
0001
0020
0000
0031
0000
,
0200
0000
0000
0300
,
0020
0000
0000
0000
0000
0100
0130
0100
,
0100
0000
0110
0000
0010
0010
0010
0010
,
1010
0000
1000
0000
0100
0100
0100
0100
,
1100
0000
0011
0000
0001
0100
0100
0000
,
0010
0000
0000
0010
1000
0000
0000
1000
0100
0000
0000
0000
0001
0000
0100
0000
,
1000
1000
1000
1000
2000
0000
3001
0000
,
0100
0100
0100
0100
0020
0000
0130
0000
,
0001
0010
0001
0001
0020
0000
0130
0000
,
1000
0000
0000
1000
0100
0000
0000
0010
0001
0000
0000
0000
0100
0000
0100
0000
,
0020
0000
1000
0000
1030
0000
0000
0000
1000
0000
0000
0100
0000
0000
0000
0000
,
0010
0000
0010
0000
0010
0000
0000
0000
0001
0000
0000
0100
0000
0000
0000
0000
,
0001
0000
0001
0000
0001
0000
0000
0000
0010
0000
0000
0100
0000
0000
0000
0000
,
1000
0000
0000
1000
0100
0000
0000
0010
0001
0000
0000
0000
0100
0000
0100
0000
;

//---------------dance-single - ----------------
#NOTEDATA:;
#CHARTNAME:;
#STEPSTYPE:dance-single;
#DESCRIPTION:;
#CHARTSTYLE:;
#DIFFICULTY:Challenge;
#METER:9;
#RADARVALUES:0.490577,0.593023,0.168176,0.103075,0.455702,633.000000,602.000000,31.000000,19.000000,0.000000,0.000000,0.000000,0.000000,0.000000,0.490577,0.593023,0.168176,0.103075,0.455702,633.000000,602.000000,31.000000,19.000000,0.000000,0.000000,0.000000,0.000000,0.000000;
#CREDIT:;
#DISPLAYBPM:98.000000;
#NOTES:
0000
0000
0000
0000
,
0000
0000
0000
0000
,
0000
0000
0000
0000
,
0000
0000
0000
0000
,
0000
0000
0000
0000
0000
0000
0000
0000
0000
0000
0010
0000
0010
0010
0000
0010
,
1000
0000
0100
1000
0100
0000
1000
0000
0010
0100
0001
0010
0000
0000
0001
0000
,
0100
0000
0100
0010
0100
0000
0100
0000
0010
0100
0010
1000
0000
0100
1000
0000
,
0001
0000
0100
0001
0010
0000
0001
0000
0010
0001
0100
0010
0000
0000
0100
0000
,
0010
0000
1000
0000
1000
0000
0000
0000
0100
0000
1000
0000
1000
1000
0000
1000
,
0010
0000
0010
0000
0010
0000
1000
0000
0001
0100
0001
0000
0020
0000
0000
0000
,
0130
0000
1000
0000
0010
0000
0100
0010
0100
0010
0100
0000
0010
0000
0000
0000
,
1000
0000
0100
0010
0001
0001
0001
0010
0100
0000
1000
0000
0000
0000
0000
0000
,
0001
0000
0000
0001
1000
0000
0000
0000
1000
0000
0000
1000
0001
0000
0001
0000
,
0100
0000
0010
1000
0010
0000
0010
0000
0100
0010
0100
0000
0010
0000
0000
0000
,
0100
0000
0001
0000
0010
0000
0001
0010
0001
0010
0001
0000
0100
0000
0000
0000
,
0010
0000
0010
1000
0100
0000
0100
0000
1000
1000
0100
0000
0100
0000
0000
0000
,
0010
0000
0000
0010
0001
0000
0000
0000
0001
0000
0000
0001
0100
0000
0000
0000
,
0010
1000
0100
0000
0010
1000
0100
0000
1000
0100
1000
0000
1100
0000
0000
0000
,
1000
0100
0010
0100
1000
0000
0010
0000
0010
0000
0010
0000
0000
0000
0100
0001
,
0100
0100
0010
0010
1000
1000
1000
0000
,
0001
0000
0001
0000
0001
0000
0000
0000
0100
0010
0100
0010
0100
0010
0100
0000
,
0110
0000
1000
0000
1100
0000
0100
0000
0110
0000
0010
0001
0010
0001
0010
0001
,
0011
0000
0001
0000
0101
0000
0100
0000
0110
0000
0010
1000
0010
1000
0010
0100
,
0200
0000
0310
0000
0010
1000
0010
0000
,
0100
0000
0000
0100
0001
0000
0000
0001
0010
0000
0000
0000
0010
0100
0010
0000
,
0010
0001
0010
0001
0010
0001
0010
0000
0002
0000
0100
0000
0103
0000
0000
0000
,
0010
1000
0010
1000
0010
1000
0010
1000
0020
0000
0100
0000
0130
0000
0000
0000
,
0100
0001
0010
0001
0100
0001
0010
0001
0100
0000
0100
0000
0101
0000
0000
0000
,
0100
0000
0000
0100
0010
0000
0000
0010
1000
0000
0000
0000
1000
0100
1000
0000
,
0000
0000
0100
0000
0100
0000
0100
0000
0100
1000
0100
0000
1000
0000
0000
0000
,
0000
0000
0010
0100
0010
0000
0100
0001
0010
0001
0100
0000
0001
0000
0000
0000
,
0000
0000
0001
0010
0001
0000
0001
0000
0100
0100
0100
0000
0010
0000
0000
0000
,
0100
0000
0000
0100
0010
0000
0000
0000
0010
0000
0000
0010
1000
0000
1000
0000
,
0100
0000
0100
1000
0100
1000
0100
1000
0010
0010
0100
0000
0010
0000
0000
0000
,
0010
0000
0100
0010
1000
0000
1000
0000
1000
0010
0100
0000
0010
0000
0100
0000
,
0001
0000
0010
0001
0100
0000
0100
0000
0010
0100
0001
0000
0100
0000
0000
0000
,
0001
0000
0000
0001
0100
0000
0000
0000
0100
0000
0010
0000
0010
0010
0000
0010
,
0100
0001
0010
0000
0100
0001
0010
0000
0001
0010
0001
0000
0011
0000
0000
0000
,
0001
0010
0100
0010
0001
0000
0100
0000
0100
0000
0100
0000
0000
0000
0010
1000
,
0010
0010
0100
0100
0001
0001
0001
0000
,
1000
0000
1000
0000
1000
0000
0000
0000
0010
0100
0010
0100
0010
0100
0010
0000
,
0110
0000
0001
0000
0011
0000
0010
0000
0110
0000
0100
1000
0100
1000
0100
1000
,
1100
0000
1000
0000
1010
0000
0010
0000
0110
0000
0100
0001
0100
0001
0100
0010
,
0020
0000
0130
0000
0100
0001
0100
0000
,
0010
0000
0000
0010
1000
0000
0000
1000
0100
0000
0000
0000
0100
0010
0100
0000
,
0100
1000
0100
1000
0100
1000
0100
0000
2000
0000
0010
0000
3010
0000
0000
0000
,
0100
0001
0100
0001
0100
0001
0100
0001
0200
0000
0010
0000
0310
0000
0000
0000
,
0010
1000
0100
1000
0010
1000
0100
1000
0010
0000
0010
0000
1010
0000
0000
0000
,
0010
0000
0000
0010
0100
0000
0000
0100
0001
0000
0000
0000
0001
0010
0001
0000
,
0200
0000
0000
0000
0010
0010
0010
0020
0000
0000
0000
0000
0330
0000
0000
0000
,
2000
0000
0000
0000
0001
0001
0001
0002
0000
0000
0000
0000
3003
0000
0000
0000
,
0002
0000
0000
0000
0010
0010
0013
0010
0100
0000
0000
0000
0010
0010
0010
0010
,
0100
0000
0000
0000
0010
0010
0010
0010
0100
0000
1000
0000
0010
0000
0100
0000
,
0010
1000
0100
1000
2000
0000
3001
0000
,
0001
0100
0010
0100
0020
0000
0130
0000
,
0001
0010
0100
1000
2000
0000
3000
0000
,
1000
0000
0100
0000
0010
0000
0001
0000
0002
0000
0000
0000
0103
0000
0000
0100
,
0010
0000
0000
0010
1000
0000
0000
1000
0100
0000
0000
0100
1000
0000
0000
1000
,
0010
0000
0000
0010
0100
0000
0000
0100
0001
0000
0000
0001
0010
0000
0000
0000
,
0001
0010
0001
0100
0200
0000
0310
0000
,
0010
0000
1000
0000
0100
0000
1000
0000
0010
0100
0100
0100
0100
0100
0100
0000
,
0110
0000
0010
0000
1010
0000
1000
0000
1100
0000
1000
0100
1000
0100
1000
0100
,
1100
0000
0010
0000
0110
0000
0100
0000
0101
0000
0001
0010
0001
0010
0001
0010
,
0011
0001
0101
0100
0110
0100
0110
0000
,
0020
0000
0000
1000
1000
0000
0000
0100
0100
0000
0000
0000
0001
0000
0031
0000
,
0100
0010
0100
0010
0100
0010
0100
0000
0110
0000
0010
0000
0110
0000
0010
0000
,
1010
0000
1000
0010
1000
0010
1000
0010
1010
0000
0100
0000
0110
0000
0000
0000
,
0100
0001
0010
0001
0100
0100
0010
0010
0200
0000
0000
0000
0310
0000
0000
0000
,
0010
0000
0000
0010
1000
0000
0000
1000
0100
0000
0000
0100
1000
0000
1000
0000
,
0001
0000
0010
0001
0010
0000
0001
0000
0100
0010
1000
0100
0000
0000
1000
0000
,
0010
0000
0010
0100
0010
0000
0010
0000
0100
0010
0100
0001
0000
0010
0001
0000
,
1000
0000
0010
1000
0100
0000
1000
0000
0100
1000
0010
0100
0000
0000
0010
0000
,
0100
0000
0000
0001
0001
0000
0000
0010
0010
0000
0001
0000
1000
0001
1000
0000
;

//---------------dance-single - ----------------
#NOTEDATA:;
#CHARTNAME:;
#STEPSTYPE:dance-single;
#DESCRIPTION:;
#CHARTSTYLE:;
#DIFFICULTY:Medium;
#METER:4;
#RADARVALUES:0.193751,0.256977,0.048825,0.184451,0.000000,250.000000,241.000000,9.000000,34.000000,0.000000,0.000000,0.000000,0.000000,0.000000,0.193751,0.256977,0.048825,0.184451,0.000000,250.000000,241.000000,9.000000,34.000000,0.000000,0.000000,0.000000,0.000000,0.000000;
#CREDIT:;
#DISPLAYBPM:98.000000;
#NOTES:
0000
0000
0000
0000
,
0000
0000
0000
0000
,
0000
0000
0000
0000
,
0000
0000
0000
0000
,
0000
0000
0000
0000
,
1000
0100
1000
0000
0001
0000
0001
0000
,
0100
0010
0100
0000
0100
0000
0100
0000
,
0010
1000
0100
0000
1000
0000
1000
0000
,
0002
0000
0100
0103
,
0110
0000
0010
0000
0010
1000
0100
0000
,
1000
0000
1000
0000
0001
0100
0001
0000
,
0010
0010
0001
0001
,
0200
0310
0020
0130
,
0010
0000
1000
0000
0100
1000
0100
0000
,
1000
0000
0010
0000
1000
0100
1000
0000
,
0010
0000
0100
0000
0001
0100
0001
0000
,
0020
0031
0002
0103
,
0100
0010
1000
0000
0100
0000
0100
0000
,
1000
0010
0100
0000
0001
0000
0000
0000
,
0001
1000
0001
0000
0100
0000
0100
0000
,
0020
0000
0200
0330
,
0010
1000
0100
0100
,
1000
0010
0100
0100
,
0001
0010
0001
0001
,
0200
0310
0020
1030
,
1000
0100
1000
1000
,
0010
0100
0001
0001
,
0010
0001
0100
0100
,
0010
0010
1000
0100
,
2000
0000
0000
3000
,
0200
0000
0000
0300
,
0020
0000
0000
0030
,
0001
1000
0001
0001
,
0100
0101
0001
0011
,
0010
0100
0010
0000
0001
0000
1001
0000
,
0010
0100
0001
0001
,
2000
3100
0020
0031
,
0001
0100
0001
0000
0100
0000
0101
0000
,
0010
1000
0100
0000
1000
0000
0000
0000
,
1000
0010
0100
0000
0100
0000
0101
0000
,
0002
0000
2000
3003
,
0010
0100
0001
0001
,
1000
0010
0100
0100
,
0010
1000
0100
0100
,
1000
1000
0001
1001
,
0001
0100
0010
0010
,
0010
1000
0100
0100
,
1000
0001
1000
1000
,
0010
0100
0010
0100
,
0000
0000
0000
0000
,
0000
0000
0000
0000
,
0000
0000
0000
0000
,
0000
0000
0000
0000
,
0002
0000
0200
0303
,
0020
0000
2000
3030
,
2000
0000
0000
3000
,
0002
0000
0000
0003
,
0200
0000
0020
0330
,
0020
0000
2000
3030
,
2200
0000
0000
3300
,
0022
0000
0000
0033
,
0002
0103
0100
0010
,
0020
1030
1000
0100
,
2000
3001
0001
0100
,
0010
0000
0010
0000
0200
0000
0010
0310
,
0010
0010
1000
0100
,
1000
1000
0001
0100
,
0010
0010
0100
0001
,
1000
0000
1000
0000
0001
0000
0001
1000
,
0001
0000
0001
0000
0100
0010
0100
0000
,
0010
0000
0010
0000
0100
0001
0100
0000
,
0001
0000
0010
0000
0001
0010
0001
0000
,
0100
0000
0100
0000
0010
0000
0100
0010
;

//---------------dance-single - ----------------
#NOTEDATA:;
#CHARTNAME:;
#STEPSTYPE:dance-single;
#DESCRIPTION:;
#CHARTSTYLE:;
#DIFFICULTY:Easy;
#METER:2;
#RADARVALUES:0.128651,0.177602,0.010850,0.151901,0.000000,166.000000,164.000000,2.000000,28.000000,0.000000,0.000000,0.000000,0.000000,0.000000,0.128651,0.177602,0.010850,0.151901,0.000000,166.000000,164.000000,2.000000,28.000000,0.000000,0.000000,0.000000,0.000000,0.000000;
#CREDIT:;
#DISPLAYBPM:98.000000;
#NOTES:
0000
0000
0000
0000
,
0000
0000
0000
0000
,
0000
0000
0000
0000
,
0000
0000
0000
0000
,
0000
0000
0000
0000
,
1000
0100
1000
0000
,
0010
0001
0010
0000
,
0100
0001
0100
0000
,
0010
0000
0100
0000
,
0010
0010
0020
0030
,
0100
0100
0200
0300
,
0001
0010
0002
0003
,
1000
0100
1000
1000
,
0010
0100
0002
0003
,
0010
0100
2000
3000
,
0010
0100
0002
0003
,
1000
0001
1000
1000
,
0010
0100
0001
0001
,
1000
0100
0000
0100
,
0010
0001
0100
0100
,
0001
0000
1000
0000
,
0010
0100
0001
0000
,
0010
0001
0100
0000
,
0010
1000
0100
0000
,
2000
0000
0002
3003
,
0100
0010
1000
0000
,
1000
0100
0001
0000
,
0010
0001
0100
0000
,
0002
0000
2000
3003
,
0020
0000
0000
0030
,
0200
0000
0000
0300
,
0002
0000
0000
0003
,
2000
0000
0000
3000
,
0100
0100
0100
0000
,
0010
0010
0010
0000
,
0001
0000
1000
0000
,
0110
0000
0110
0000
,
0010
1000
0100
0100
,
2000
0000
0002
3003
,
0001
0100
0010
0000
,
0200
0000
0020
0330
,
0010
1000
0100
0000
,
0010
0001
0100
0000
,
0100
0100
0010
0000
,
0010
0010
0200
0300
,
0001
0010
0001
0000
,
1000
0100
1000
0000
,
0010
0100
0001
0000
,
0020
0000
0031
0000
,
0000
0000
0000
0000
,
0000
0000
0000
0000
,
0000
0000
0000
0000
,
0000
0000
0000
0000
,
0002
0000
0000
0003
,
2000
0000
0000
3000
,
0200
0000
0000
0300
,
0020
0000
0000
0030
,
0001
0000
0001
0000
,
1000
0000
1000
0000
,
0020
0000
0000
0030
,
0200
0000
0000
0300
,
0001
0000
0001
0000
,
1000
0000
1000
0000
,
0001
0000
0010
0000
,
0100
0100
1000
0000
,
0010
0000
0100
0000
,
0001
0000
0010
0000
,
0001
0001
1000
0000
,
1000
0010
0100
0100
,
0001
0001
0010
0010
,
0001
0001
0100
0100
,
0010
1000
0100
0100
,
2000
0000
0002
3003
;

//---------------dance-single - ----------------
#NOTEDATA:;
#CHARTNAME:;
#STEPSTYPE:dance-single;
#DESCRIPTION:;
#CHARTSTYLE:;
#DIFFICULTY:Beginner;
#METER:1;
#RADARVALUES:0.072850,0.137660,0.027125,0.016275,0.000000,94.000000,89.000000,5.000000,3.000000,0.000000,0.000000,0.000000,0.000000,0.000000,0.072850,0.137660,0.027125,0.016275,0.000000,94.000000,89.000000,5.000000,3.000000,0.000000,0.000000,0.000000,0.000000,0.000000;
#CREDIT:;
#DISPLAYBPM:98.000000;
#NOTES:
// measure 0
0000
0000
0000
0000
,  // measure 1
0000
0000
0000
0000
,  // measure 2
0000
0000
0000
0000
,  // measure 3
0000
0000
0000
0000
,  // measure 4
0000
0000
0000
0000
,  // measure 5
1000
0000
0000
0000
,  // measure 6
0001
0000
0000
0000
,  // measure 7
1000
0000
0000
0000
,  // measure 8
0001
0000
0000
0000
,  // measure 9
1000
1000
1000
0000
,  // measure 10
0001
0000
0000
0000
,  // measure 11
0100
0000
0000
0000
,  // measure 12
0010
0000
0000
0000
,  // measure 13
0001
0000
0000
0000
,  // measure 14
1000
0000
0000
0000
,  // measure 15
0100
0000
0000
0000
,  // measure 16
0010
0000
0000
0000
,  // measure 17
0001
0000
0000
0000
,  // measure 18
1000
0000
0000
0000
,  // measure 19
0001
0000
0000
0000
,  // measure 20
1000
0000
0000
0000
,  // measure 21
0100
0000
0100
0000
,  // measure 22
0100
0000
0000
0000
,  // measure 23
0010
0000
0010
0000
,  // measure 24
0010
0000
0000
0000
,  // measure 25
0001
0000
1000
0000
,  // measure 26
0001
0000
0000
0000
,  // measure 27
0001
0000
0010
0000
,  // measure 28
0100
0000
1000
0000
,  // measure 29
1001
0000
0000
0000
,  // measure 30
0000
0000
0000
0000
,  // measure 31
0000
0000
0000
0000
,  // measure 32
0000
0000
0000
0000
,  // measure 33
0100
0000
0000
0000
,  // measure 34
0010
0000
0000
0000
,  // measure 35
1000
0000
0000
0000
,  // measure 36
0100
0000
0100
0000
,  // measure 37
0100
0000
0000
0000
,  // measure 38
0010
0000
0000
0000
,  // measure 39
0001
0000
0000
0000
,  // measure 40
1000
0000
0000
0000
,  // measure 41
0010
0000
0000
0000
,  // measure 42
0100
0000
0000
0000
,  // measure 43
0010
0000
0000
0000
,  // measure 44
1000
0000
1000
0000
,  // measure 45
0001
0000
0000
0000
,  // measure 46
0100
0000
0000
0000
,  // measure 47
0010
0000
0000
0000
,  // measure 48
1000
0000
0001
0000
,  // measure 49
1000
0000
0000
0000
,  // measure 50
0000
0000
0000
0000
,  // measure 51
0000
0000
0000
0000
,  // measure 52
0000
0000
0000
0000
,  // measure 53
0001
0000
0000
0000
,  // measure 54
0100
0000
0000
0000
,  // measure 55
0010
0000
0000
0000
,  // measure 56
1000
0000
0000
0000
,  // measure 57
1100
0000
0000
0000
,  // measure 58
1001
0000
0000
0000
,  // measure 59
0110
0000
0000
0000
,  // measure 60
0011
0000
0000
0000
,  // measure 61
0100
0100
0100
0000
,  // measure 62
0010
0010
0010
0000
,  // measure 63
2000
0000
3001
0000
,  // measure 64
0002
0000
1003
0000
,  // measure 65
0010
0010
0010
0000
,  // measure 66
1000
1000
1000
0000
,  // measure 67
0001
0001
0001
0000
,  // measure 68
0200
0000
0310
0000
,  // measure 69
0010
0000
1000
0000
,  // measure 70
0100
0000
0010
0000
,  // measure 71
0001
0000
0100
0000
,  // measure 72
0010
0000
0010
0000
;
